osu file format v5

[General]
AudioFilename: 2-31 Live & Learn ...Main Theme Of _.mp3
AudioLeadIn: 0
PreviewTime: 91307
Countdown: 1
SampleSet: Normal
StackLeniency: 0.7
Mode: 0
LetterboxInBreaks: 1
EditorBookmarks: 12121,37238,48400,54854,59563,91656,102819,148865,159679,173982,179563,196307,220028,247238

[Metadata]
Title:Live & Learn
Artist:Crush 40
Creator:K2J
Version:Ultimate Life
Source:Sonic Adventure 2
Tags:

[Difficulty]
HPDrainRate:6
CircleSize:5
OverallDifficulty:6
SliderMultiplier:1.2
SliderTickRate:1

[Events]
//Background and Video events
0,0,"SA2B Placeholder.jpg"
//Break Periods
2,37429,47342
2,91847,101761
2,159871,178505
2,220220,239203
//Storyboard Layer 0 (Background)
//Storyboard Layer 1 (Failing)
//Storyboard Layer 2 (Passing)
//Storyboard Layer 3 (Foreground)
//Storyboard Sound Samples
//Background Colour Transformations
3,100,163,162,255

[TimingPoints]
12113,348.837209302326,4,1,0,100,1

[Colours]
Combo1 : 215,0,107
Combo2 : 0,0,255
Combo3 : 255,255,0
Combo4 : 255,0,0
Combo5 : 192,192,192

[HitObjects]
256,344,12113,1,0
256,280,12288,1,0
256,216,12462,1,0
256,96,12811,1,0
256,32,12985,1,0
200,136,13334,1,0
192,200,13509,1,0
312,200,13857,1,0
288,144,14032,2,0,B|189:45|136:56,1,180
112,160,14904,6,0,B|257:131|361:176|472:328,2,420
112,280,17695,1,0
168,280,17869,1,0
288,280,18218,2,0,B|416:280,1,120
352,176,18916,2,0,B|256:152|136:56,1,240
112,112,19788,1,0
112,232,20137,1,0
208,160,20485,1,0
328,160,20834,1,0
360,208,21009,6,0,B|296:279|197:268|100:227|104:160,1,300
128,120,22055,1,0
168,72,22230,1,0
216,32,22404,1,0
256,72,22578,1,0
288,120,22753,1,0
328,168,22927,1,0
336,224,23102,2,0,B|296:272|200:272|112:88,1,300
96,336,24671,1,0
216,336,25020,1,0
336,336,25369,1,0
424,248,25718,5,0
424,184,25892,1,0
424,120,26067,2,0,B|279:91|175:136|176:320,1,360
232,296,27288,2,0,B|229:202|281:156|342:159|387:181|472:176,1,300
224,88,28857,1,0
160,88,29032,1,0
160,208,29381,1,0
160,88,29730,1,0
256,16,30078,2,0,B|256:328,1,300
192,320,31125,1,0
192,256,31299,1,0
192,192,31474,1,0
312,160,31823,5,0
312,280,32171,2,0,B|483:366|372:117|288:112,1,300
248,80,33218,1,0
184,80,33392,2,0,B|184:160,1,60
136,104,33741,2,0,B|136:168,1,60
136,224,34090,1,0
176,264,34264,2,0,B|216:312|312:312|196:118|400:144,1,300
160,80,35834,5,0
168,136,36009,1,0
192,192,36183,1,0
224,240,36357,2,0,B|296:248|312:208|280:152|288:88|360:88|384:120|384:136|392:168|400:216,1,300,0|4
312,328,48392,5,0
312,264,48567,1,0
312,200,48741,1,0
312,136,48916,1,0
280,88,49090,6,0,B|72:88,1,180
64,136,49788,2,0,B|248:136,1,180
304,136,50485,1,0
72,208,51183,2,0,B|112:288|208:328,1,180
264,328,51881,2,0,B|344:288|384:192,1,180
320,176,52578,2,0,B|184:176,1,120
168,128,53102,2,0,B|376:128,1,180
400,96,53799,5,0
360,208,54148,1,0
312,168,54323,1,0
272,208,54497,1,0
224,168,54671,1,0
176,208,54846,5,0
136,168,55020,2,0,B|136:248,1,60
136,288,55369,1,0
256,288,55718,1,0
376,288,56067,1,0
384,224,56241,1,0
416,104,56590,2,0,B|128:104,1,270
152,256,57811,1,0
152,312,57985,2,0,B|224:312|272:288|304:240|312:176|224:120,1,300
120,64,59206,1,0
128,184,59555,5,0
368,184,60253,1,0
176,328,60950,1,0
232,328,61125,1,0
288,328,61299,1,0
264,272,61474,1,0
264,208,61648,5,0
264,144,61823,1,0
264,24,62171,2,0,B|176:11|64:168,1,240
96,208,63043,2,0,B|102:219|184:221|256:128,1,180
296,96,63741,1,0
344,64,63916,1,0
432,144,64264,1,0
416,264,64613,2,0,B|240:216,1,180
232,96,65485,1,0
176,128,65660,1,0
128,160,65834,1,0
40,72,66182,2,0,B|184:32,1,120
216,32,66706,1,0
280,32,66881,1,0
256,144,67230,5,0
256,200,67404,1,0
256,320,67753,2,0,B|344:384|480:224,1,240
416,200,68625,1,0
296,200,68974,1,0
360,96,69323,1,0
240,96,69671,1,0
240,152,69846,1,0
288,256,70195,1,0
408,48,70718,2,0,B|408:184,1,120
352,272,71416,2,0,B|352:136,1,120
296,256,72113,5,0
296,192,72288,1,0
296,128,72462,1,0
296,64,72637,1,0
240,40,72811,1,0
240,96,72985,1,0
256,200,73334,2,0,B|344:213|456:56,1,240
400,32,74206,2,0,B|394:21|312:19|240:112,1,180
192,128,74904,1,0
144,160,75078,1,0
136,280,75427,1,0
216,192,75776,2,0,B|216:264|256:312,1,120
304,328,76299,1,0
360,328,76474,1,0
448,248,76823,1,0
448,128,77171,2,0,B|328:128|248:264,1,240
192,264,78043,2,0,B|136:232,1,60
176,184,78392,5,0
208,136,78567,1,0
280,40,78916,1,4
280,336,79787,1,0
352,240,80137,1,0
272,152,80485,1,0
160,104,80834,1,0
104,80,81009,1,0
216,40,81357,1,0
392,48,81881,2,0,B|336:168,1,120
216,120,82578,2,0,B|152:232,1,120
216,328,83276,6,0,B|344:328,1,120
416,240,83974,1,0
416,176,84148,1,0
392,56,84497,2,0,B|264:56,1,120
208,56,85020,1,0
256,192,85718,12,0,88857
256,192,89032,5,0
256,128,89206,2,0,B|256:56,1,60
312,72,89555,1,0
312,72,89730,1,0
312,128,89904,2,0,B|312:208,1,60
296,248,90253,5,0
256,296,90427,1,0
216,248,90602,2,0,B|168:208,1,60
128,160,90950,1,0
128,160,91038,1,0
128,160,91125,1,0
128,96,91299,2,0,B|256:96,1,120,0|4
256,56,102811,5,0
256,112,102985,1,0
256,168,103160,1,0
136,176,103509,2,0,B|185:252|304:272,1,180
328,232,104206,1,0
184,40,104904,1,0
184,280,105602,1,0
400,184,106299,1,0
208,328,106996,2,0,B|136:208,1,120,0|0
184,176,107519,2,0,B|288:336,1,180
320,280,108218,2,0,B|368:336,1,60
168,176,109090,5,0
408,184,109788,1,0
192,296,110485,1,0
88,80,111183,2,0,B|22:223|55:336|133:367|208:360,1,360
240,336,112404,2,0,B|306:193|273:80|195:49|120:56,1,360
80,56,113625,1,0
96,168,113974,5,0
96,224,114148,1,0
96,280,114323,1,0
216,288,114671,1,0
216,48,115369,1,0
344,248,116067,1,0
104,288,116764,1,0
248,96,117462,1,0
256,336,118160,1,2
264,152,118683,2,0,B|189:50|352:24,1,180,2|0
384,48,119381,1,0
392,168,119729,1,0
360,216,119904,1,0
320,256,120078,1,0
272,216,120252,1,0
232,168,120427,5,0
176,152,120601,2,0,B|176:232,1,60
176,272,120950,1,0
296,272,121299,1,0
416,280,121648,1,0
416,216,121822,1,0
416,96,122171,2,0,B|128:96,1,270
256,192,123218,12,0,124788
136,104,125137,5,0
256,104,125485,1,0
376,104,125834,1,0
376,224,126183,1,0
328,336,126532,1,0
272,336,126707,1,0
216,336,126881,1,0
240,280,127056,1,0
240,216,127230,5,0
240,152,127405,1,0
240,32,127753,2,0,B|328:19|440:176,1,240
408,216,128625,2,0,B|402:227|320:229|248:136,1,180
208,104,129323,1,0
160,72,129498,1,0
72,152,129846,1,0
88,272,130195,2,0,B|264:224,1,180
272,104,131067,1,0
328,136,131242,1,0
376,168,131416,1,0
456,80,131764,2,0,B|320:40,1,120
280,40,132288,1,0
216,40,132463,1,0
248,152,132812,5,0
248,208,132986,1,0
248,328,133335,2,0,B|160:392|24:232,1,240
88,208,134207,1,0
208,208,134556,1,0
144,104,134905,1,0
264,104,135253,1,0
264,160,135428,1,0
216,264,135777,1,0
96,56,136300,2,0,B|96:192,1,120
152,280,136998,2,0,B|152:144,1,120
208,264,137695,5,0
208,200,137870,1,0
208,136,138044,1,0
208,72,138219,1,0
264,48,138393,1,0
264,104,138567,1,0
248,208,138916,2,0,B|160:221|48:64,1,240
104,40,139788,2,0,B|110:29|192:27|264:120,1,180
312,136,140486,1,0
360,168,140660,1,0
368,288,141009,1,0
288,200,141358,2,0,B|288:272|248:320,1,120
200,336,141881,1,0
144,336,142056,1,0
56,256,142405,1,0
56,136,142753,2,0,B|176:136|256:272,1,240
312,272,143625,2,0,B|368:240,1,60
328,192,143974,5,0
296,144,144149,1,0
224,48,144498,1,4
216,344,145368,1,0
144,248,145719,1,0
216,152,146067,1,0
328,120,146416,1,0
376,88,146591,1,0
272,32,146939,1,0
96,56,147463,2,0,B|152:176,1,120
264,136,148160,2,0,B|328:248,1,120
200,256,148857,6,0,B|200:128,1,120
104,64,149555,1,0
104,120,149730,1,0
208,72,150078,1,0
320,112,150427,1,0
376,120,150602,2,0,B|314:224|176:248,1,240
80,304,151648,5,0
48,248,151823,2,0,B|24:81|208:64,1,270
288,184,153043,1,0
288,240,153218,1,0
288,304,153392,1,0
344,304,153567,1,0
392,192,153916,1,0
392,128,154090,1,0
256,192,154439,12,0,156532
256,192,156881,5,0
256,312,157230,2,0,B|160:309|103:291|64:184|96:112|109:60|141:32|217:17|307:-22|387:9|386:54|430:134|439:192|408:239|384:256|363:266|336:288|288:320,1,840
64,280,179555,6,0,B|153:361|167:141|264:280,1,240
376,240,180602,1,0
376,120,180950,1,0
192,104,181474,2,0,B|90:126|331:192|192:232,1,180
224,344,182346,2,0,B|261:212|353:394|432:328,1,240
440,216,183392,1,0
320,192,183741,1,0
200,192,184090,1,0
200,248,184264,2,0,B|120:248|48:160|88:72,1,240
120,32,185137,6,0,B|124:137|309:1|304:128,1,240
376,208,186183,1,0
288,288,186532,1,0
120,216,187055,1,0
256,192,187578,1,0
256,192,187927,12,0,189846
104,192,190718,5,0
256,40,191241,1,0
384,192,191764,1,0
256,192,192113,1,0
472,192,192637,1,0
256,192,193509,12,0,195950
104,104,196299,5,0
104,176,196474,2,0,B|104:240,1,60
160,288,196823,1,0
232,288,196997,1,0
304,288,197172,1,0
360,240,197346,2,0,B|360:160,1,60
352,104,197695,1,0
288,64,197870,1,0
216,40,198044,1,0
240,104,198219,1,0
240,176,198393,5,0
240,248,198568,1,0
240,352,198916,2,0,B|328:365|440:208,1,240
408,168,199788,2,0,B|402:157|320:155|248:248,1,180
208,280,200486,1,0
160,312,200661,1,0
72,232,201009,1,0
88,112,201358,2,0,B|264:160,1,180
272,280,202230,1,0
328,248,202405,1,0
376,216,202579,1,0
440,272,202926,2,0,B|336:344,1,120
248,344,203451,1,0
192,344,203626,1,0
248,232,203975,5,0
248,176,204149,1,0
248,56,204498,2,0,B|160:-8|24:152,1,240
88,176,205370,1,0
208,176,205719,1,0
144,280,206068,1,0
264,280,206416,1,0
264,224,206591,1,0
216,120,206940,1,0
96,328,207463,2,0,B|96:192,1,120
152,104,208161,2,0,B|152:240,1,120
208,120,208858,5,0
208,184,209033,1,0
208,248,209207,1,0
208,312,209382,1,0
264,336,209556,1,0
264,280,209730,1,0
248,176,210079,2,0,B|160:163|48:320,1,240
104,344,210951,2,0,B|110:355|192:357|264:264,1,180
312,248,211649,1,0
360,216,211823,1,0
368,96,212172,1,0
288,184,212521,2,0,B|288:112|248:64,1,120
200,48,213044,1,0
144,48,213219,1,0
56,128,213568,1,0
56,248,213916,2,0,B|176:248|256:112,1,240
312,112,214788,2,0,B|368:144,1,60
328,192,215137,5,0
296,240,215312,1,0
224,336,215661,1,4
256,40,216531,1,0
168,120,216882,1,0
88,208,217230,1,0
200,240,217579,1,0
256,264,217754,1,0
368,312,218102,1,0
256,192,218625,12,0,220020
408,312,240253,5,0
168,144,240950,1,0
456,136,241648,1,0
336,208,241997,1,0
216,288,242346,1,0
376,48,243043,2,0,B|248:48,1,120
112,48,243741,1,0
112,120,243916,1,0
112,264,244264,1,0
256,272,244613,1,0
328,272,244788,1,0
216,80,245834,5,0
288,80,246009,1,0
256,192,246881,12,0,248276
256,192,248667,5,0
184,192,248841,1,0
112,192,249016,1,0
152,328,249365,1,0
224,328,249539,1,0
368,328,249888,1,0
368,184,250237,1,0
368,112,250411,1,0
232,64,250760,1,0
176,48,250935,1,0
112,216,251458,5,0
184,216,251632,1,0
256,216,251806,1,0
152,120,252155,1,0
224,120,252330,1,0
440,128,252853,1,0
312,192,253202,1,0
192,272,253551,1,0
64,336,253899,1,0
80,192,254248,5,0
152,192,254423,1,0
120,128,254597,1,0
48,256,254946,1,0
120,256,255120,1,0
264,264,255469,1,0
408,264,255817,1,0
408,192,255992,1,0
272,136,256341,1,0
216,104,256517,1,0
168,256,257039,5,0
240,256,257213,1,0
208,192,257388,1,0
168,328,257737,1,0
240,328,257911,1,0
472,328,258478,1,0
376,216,258827,1,0
272,120,259176,1,0
152,40,259524,1,0
144,168,259831,5,0
144,240,260005,1,0
144,312,260180,1,0
216,304,260354,5,0
288,304,260528,1,0
360,304,260703,1,0
288,304,260877,1,0
360,304,261052,1,0
400,248,261226,5,0
304,136,261575,1,0
256,192,261881,12,0,262317
256,320,262666,6,0,B|256:248,1,60
256,184,263014,2,0,B|256:120,1,60
256,48,263363,1,0
192,80,263538,1,0
144,136,263712,1,0
104,200,263887,1,0
