osu file format v5

[General]
AudioFilename: 2-31 Live & Learn ...Main Theme Of _.mp3
AudioLeadIn: 0
PreviewTime: 91307
Countdown: 1
SampleSet: Normal
StackLeniency: 0.7
Mode: 0
LetterboxInBreaks: 1
EditorBookmarks: 12121,37238,48400,54854,59563,91656,102819,125136,148865,159679,173982,179563,196307,220028,247238

[Metadata]
Title:Live & Learn
Artist:Crush 40
Creator:K2J
Version:Heroic
Source:Sonic Adventure 2
Tags:

[Difficulty]
HPDrainRate:3
CircleSize:7
OverallDifficulty:8
SliderMultiplier:1.4
SliderTickRate:1

[Events]
//Background and Video events
0,0,"SA2B Placeholder.jpg"
//Break Periods
2,37429,48339
2,91846,102060
2,159347,173223
2,220917,238892
//Storyboard Layer 0 (Background)
//Storyboard Layer 1 (Failing)
//Storyboard Layer 2 (Passing)
//Storyboard Layer 3 (Foreground)
//Storyboard Sound Samples
//Background Colour Transformations
3,100,163,162,255

[TimingPoints]
12113,348.837209302326,4,1,0,100,1

[Colours]
Combo1 : 215,0,107
Combo2 : 0,0,255
Combo3 : 255,255,0
Combo4 : 255,0,0
Combo5 : 192,192,192

[HitObjects]
168,40,10717,1,0
344,88,11066,1,0
168,144,11415,1,0
344,184,11764,1,0
256,344,12112,5,0
256,248,12287,1,0
256,152,12461,1,0
344,152,12636,1,0
344,152,12810,1,0
304,72,12985,1,0
216,72,13159,1,0
216,72,13333,1,0
208,160,13508,2,0,B|264:216,1,70
256,192,13857,12,0,14554
88,328,14903,6,0,B|360:360|360:88,1,420
280,48,16124,2,0,B|224:64|88:160|112:280,1,280
200,256,16996,2,0,B|272:256,1,70
360,256,17345,1,0
280,96,17694,1,0
280,96,17868,1,0
280,280,18217,2,0,B|280:136,1,140
120,48,18915,2,0,B|72:80|96:128|144:152|176:152|224:168|240:168,1,210
312,136,19613,1,0
360,208,19787,1,0
360,208,19961,1,0
408,280,20136,1,0
256,176,20485,5,0
256,176,20833,1,0
256,192,21008,12,0,21880
160,192,22054,5,0
216,120,22229,1,0
264,192,22403,1,0
216,120,22578,1,0
160,192,22752,1,0
112,264,22926,1,0
176,328,23101,2,0,B|288:288|360:192|368:104|368:56,1,350
88,296,24671,2,0,B|136:240,1,70
152,328,25019,2,0,B|208:264,1,70
256,200,25368,1,0
424,296,25717,1,0
360,328,25892,1,0
272,328,26066,6,0,B|208:280|120:168|160:120|192:64|256:24|328:88|368:80|360:80,1,420
360,168,27287,2,0,B|256:344|136:160,1,280
72,144,28159,1,0
136,80,28333,1,0
216,32,28508,1,0
216,120,28682,2,0,B|400:232,1,210
392,136,29380,1,0
256,16,29729,1,0
256,16,30078,2,0,L|288:40|232:64|288:96|232:120|280:152|256:168|256:208,1,350
328,256,31124,5,0
256,312,31299,1,0
184,256,31473,1,0
256,88,31822,5,0
256,272,32171,1,0
256,192,32345,12,0,33043
256,192,33217,5,0
336,232,33392,1,0
336,232,33566,1,0
416,272,33740,1,0
416,272,33915,1,0
336,320,34089,1,0
256,272,34264,2,0,B|176:176|176:176|72:176|72:176|136:72|184:40|240:32|256:32|304:48|320:56|352:64|440:176|440:176|288:176|288:176|256:248,1,910
256,320,36706,2,0,B|328:320,2,70
160,320,37229,1,4
104,144,49089,6,0,B|80:200|136:248|208:264|256:240,1,210
336,240,49787,2,0,B|360:296|304:344|232:360|184:336,1,210,0|0
112,304,50485,2,0,B|56:216|104:112|128:96,1,210
208,88,51182,2,0,B|208:240,1,140
336,352,51880,2,0,B|336:200,1,140
256,48,52578,1,0
256,232,52926,1,0
256,136,53101,2,0,B|216:136|184:168|184:224|192:264|208:288,1,210
328,288,53799,1,0
424,136,54147,1,0
352,192,54322,1,0
424,136,54496,1,0
352,192,54671,1,0
272,232,54845,5,0
208,160,55019,1,0
152,232,55194,1,0
88,160,55368,1,0
208,24,55717,1,0
328,160,56066,1,0
272,232,56240,1,0
216,304,56415,1,0
128,304,56589,2,0,B|72:240|48:152|104:80|152:64|224:40|264:40,1,350
256,224,57810,1,0
296,304,57985,2,0,B|352:240|376:152|320:80|272:64|200:40|160:40,1,350
80,184,59206,1,0
256,192,59554,12,0,60252
256,192,60252,12,0,60950
256,192,61124,5,0
256,280,61299,1,0
80,232,61647,1,0
168,232,61822,1,0
352,240,62171,2,0,B|384:240|424:224|448:168|440:136|424:112|376:88|328:64|312:48,1,280
224,56,63043,2,0,B|192:56|152:72|200:96|208:88|200:208|224:160|128:240,1,210
88,280,63740,2,0,B|192:280,1,70
336,320,64264,1,0
440,168,64613,2,0,B|408:112|312:88|248:72,1,210
104,168,65485,1,0
104,256,65659,1,0
184,216,65833,1,0
264,168,66008,1,0
264,256,66182,2,0,B|336:256,1,70
392,184,66531,5,0
344,104,66706,1,0
256,104,66880,1,0
256,192,67054,1,0
256,280,67229,1,0
256,192,67403,1,0
128,56,67752,2,0,B|216:16|256:8|296:16|360:40,1,210
384,104,68450,2,0,B|296:144|256:152|216:144|152:120,1,210
64,272,69322,1,0
248,280,69671,1,0
304,208,69845,1,0
416,64,70194,1,0
384,336,70717,2,0,B|312:336,1,70
224,336,71066,2,0,B|224:264,1,70
224,176,71415,2,0,B|136:176,1,70
64,176,71764,2,0,B|64:104,1,70
128,48,72113,6,0,B|168:48,4,35
296,104,72810,1,0
352,176,72985,1,0
240,320,73333,2,0,B|184:280|152:192|176:160|208:112,1,210
272,176,74031,1,0
360,200,74206,2,0,B|320:256|232:288|200:264|152:232,1,210
104,176,74903,1,0
176,112,75078,1,0
368,104,75426,1,0
440,280,75775,2,0,L|408:208|456:160,1,140
480,72,76299,1,0
384,104,76473,1,0
240,208,76822,1,0
88,312,77171,2,0,B|32:232|64:176,1,140
144,136,77694,1,0
232,136,77868,1,0
320,136,78043,1,0
256,304,78392,5,0
256,216,78566,1,0
256,32,78915,2,0,B|376:88|128:224,1,280
72,272,79787,1,0
248,232,80136,1,0
416,176,80485,1,0
344,112,80659,1,0
264,64,80833,1,0
176,32,81008,2,0,B|96:40,1,70
32,96,81357,1,0
256,248,81880,1,0
256,160,82054,5,0
168,160,82229,1,0
208,80,82403,1,0
296,80,82578,2,0,B|376:112|376:208,1,140
376,280,83101,1,0
288,280,83275,2,0,B|144:280,1,140
56,120,83973,1,0
128,72,84147,1,0
208,40,84322,1,8
208,128,84496,2,0,B|208:200|320:240,1,140
384,224,85019,2,0,B|384:152|272:112,1,140,8|0
216,88,85543,2,0,B|152:56|48:104,1,140
56,176,86066,2,0,B|104:296|320:296,1,280
256,192,87461,12,0,88857
256,192,89031,5,0
256,104,89205,2,0,B|256:24,1,70
344,48,89554,1,0
408,112,89729,1,0
456,184,89903,2,0,B|472:232|416:272,1,70
360,288,90252,5,0
272,304,90426,1,0
184,264,90601,2,0,B|128:216,1,70
88,136,90949,1,0
136,136,91037,1,0
184,136,91124,1,0
272,136,91298,2,0,B|336:72|400:136,1,140,0|4
96,120,102810,6,0,B|168:120,1,70
256,120,103159,1,0
440,120,103508,2,0,B|400:232|304:304,1,210
232,280,104206,2,0,B|272:168|368:96,1,210
440,96,104903,2,0,B|360:40|208:40,1,210
168,104,105601,2,0,B|248:160|400:160,1,210
456,160,106299,2,0,B|376:288,1,140
296,304,106822,2,0,L|240:304|240:248|200:248,1,140
120,248,107345,1,0
120,160,107519,2,0,L|120:104|176:104|176:64,1,140
264,56,108043,5,0
344,96,108217,1,0
424,144,108392,1,0
424,232,108566,1,0
344,272,108740,2,0,L|272:320,1,70
192,320,109089,2,0,B|136:296|112:200,1,140
128,24,109787,2,0,B|192:56|288:168,1,210
352,224,110485,2,0,L|376:272|264:280|240:240,1,210
256,192,111182,12,0,112229
256,192,112403,6,0,B|192:200|160:312|296:344,1,210
360,312,113101,2,0,B|360:160,1,140
360,80,113624,1,0
272,104,113799,1,0
192,136,113973,2,0,B|112:176|104:264,1,140
248,352,114671,2,0,B|328:312|336:224,1,140
424,88,115368,2,0,B|192:88,1,210
120,88,116066,2,0,B|64:168|128:248,1,140
376,336,116764,2,0,B|416:280|296:240,1,140
136,176,117461,1,0
472,40,118159,1,2
384,200,118508,5,0
336,280,118682,2,0,L|288:224|240:280|192:224|144:280,1,280
56,72,119772,1,0
96,48,119947,1,0
272,32,120252,2,0,B|272:112|200:160,1,140
96,288,120950,1,0
272,224,121299,1,0
432,296,121647,1,0
400,200,121822,1,0
208,176,122171,2,0,B|160:192|152:304|264:312|312:216,1,280
64,48,123392,1,0
64,144,123566,2,0,B|16:160|8:272|120:280|168:184,1,280
280,160,124438,5,0
312,128,124525,1,0
344,96,124613,1,0
424,64,124787,1,0
240,64,125136,6,0,B|96:64,1,140
88,112,125572,2,0,B|88:224,1,105
88,264,125921,2,0,B|200:264,1,105
240,264,126269,2,0,B|240:144,1,105
240,64,126706,1,0
328,80,126880,1,0
432,152,127229,1,0
344,152,127404,1,0
160,144,127753,2,0,B|128:144|88:160|64:216|72:248|88:272|136:296|184:320|200:336,1,280
288,328,128625,2,0,B|320:328|360:312|312:288|304:296|312:176|288:224|384:144,1,210
424,104,129322,2,0,B|320:104,1,70
176,64,129846,1,0
72,216,130195,2,0,B|104:272|200:296|264:312,1,210
408,216,131067,1,0
408,128,131241,1,0
328,168,131415,1,0
248,216,131590,1,0
248,128,131764,2,0,B|176:128,1,70
120,200,132113,5,0
168,280,132288,1,0
256,280,132462,1,0
256,192,132636,1,0
256,104,132811,1,0
256,192,132985,1,0
384,328,133334,2,0,B|296:368|256:376|216:368|152:344,1,210
128,280,134032,2,0,B|216:240|256:232|296:240|360:264,1,210
448,112,134904,1,0
264,104,135253,1,0
208,176,135427,1,0
96,320,135776,1,0
128,48,136299,2,0,B|200:48,1,70
288,48,136648,2,0,B|288:120,1,70
288,208,136997,2,0,B|376:208,1,70
448,208,137346,2,0,B|448:280,1,70
376,336,137694,5,0
328,336,137781,1,0
280,336,137868,1,0
232,336,137956,1,0
184,336,138043,1,0
88,184,138392,1,0
160,128,138567,1,0
320,40,138915,2,0,B|376:80|408:168|384:200|352:248,1,210
272,216,139613,1,0
224,136,139788,2,0,B|264:80|352:48|384:72|432:104,1,210
408,176,140485,1,0
360,256,140660,1,0
176,288,141008,1,0
88,128,141357,2,0,C|120:200|72:248,1,140
48,328,141881,1,0
128,288,142055,1,0
256,160,142404,1,0
416,72,142753,2,0,B|472:152|440:208,1,140
376,264,143276,1,0
288,256,143450,1,0
200,240,143625,1,0
256,64,143974,5,0
256,152,144148,1,0
256,336,144497,2,0,B|136:280|384:144,1,280
440,88,145369,1,0
264,128,145718,1,0
96,200,146067,1,0
168,256,146241,1,0
240,312,146415,1,0
328,320,146590,2,0,B|408:312,1,70
472,264,146939,1,0
256,96,147462,1,0
256,184,147636,5,0
192,248,147811,1,0
256,312,147985,1,0
320,240,148160,2,0,B|400:272|400:368,1,140
304,344,148683,1,0
216,344,148857,2,0,B|216:200,1,140
104,56,149555,1,0
192,56,149729,1,0
280,56,149904,1,8
368,56,150078,2,0,B|440:56|480:168,1,140
472,232,150601,2,0,B|472:304|360:344,1,140,8|0
296,344,151125,2,0,B|232:376|128:328,1,140
104,264,151647,5,0
128,176,151822,2,0,L|295:152|352:336,1,350
168,328,153042,1,0
72,328,153217,1,0
72,240,153391,1,0
72,144,153566,1,0
232,64,153915,1,0
280,64,154002,1,0
328,64,154089,1,0
256,192,154438,12,0,154961
256,192,155136,12,0,155659
256,192,155833,12,0,156706
256,192,156880,5,0
264,296,157229,2,0,B|184:328|88:280|88:144|72:40|216:16|328:8|456:40|440:216|368:288|296:296,1,770
256,192,173973,12,0,175194
256,192,175368,6,0,B|256:48,1,140
120,48,175979,2,0,B|80:144|192:312,1,280
280,312,176851,1,0
280,312,177025,1,0
344,248,177200,1,0
344,248,177374,1,0
408,184,177549,1,2
408,184,177723,1,2
464,256,177897,2,0,B|448:328|408:312,1,70
336,328,178246,1,0
336,328,178421,1,0
248,320,178595,1,0
248,320,178769,1,0
168,272,178944,1,2
96,320,179118,2,0,B|40:232|64:248,1,70,2|0
104,128,179554,6,0,B|176:168|408:128,1,280
440,304,180601,1,0
256,304,180950,1,0
104,72,181473,2,0,B|152:32|192:16|248:72|208:152,1,210
152,320,182345,2,0,B|152:200|152:200|240:160|240:120|216:88|216:88|168:48|120:48|80:128,1,420
48,288,183740,2,0,B|200:200,1,140
176,312,184264,2,0,B|392:312,1,210,0|0
400,80,185223,6,0,B|328:40|96:80,1,280
176,200,186226,1,0
256,360,186575,1,0
440,160,187054,2,0,L|480:208|480:256|440:304|384:272,1,210
240,208,187926,2,0,L|232:136|192:72|144:56|88:72|64:128|88:168,1,420
256,192,189322,12,0,190368
152,160,190717,6,0,L|152:80|224:80,1,140
304,80,191240,2,0,L|384:80|384:168,1,140
256,192,191763,1,0
152,216,192113,2,0,L|152:288|224:288,1,140,0|0
312,288,192636,2,0,L|384:288|384:208,1,140
384,128,193159,1,0
304,168,193333,1,0
256,192,193508,12,0,194903
256,128,195252,5,0
160,280,195601,1,8
352,280,195950,1,8
336,96,196299,5,0
240,96,196474,2,0,B|192:160,1,70
136,216,196823,1,0
208,272,196997,1,0
296,280,197172,1,0
384,256,197346,2,0,B|360:168,1,70
352,96,197695,1,0
256,96,197870,1,0
168,96,198043,1,0
72,264,198392,1,0
160,216,198567,1,0
344,160,198916,2,0,B|376:160|416:176|440:232|432:264|416:288|368:312|320:336|304:232,1,280
216,224,199788,2,0,B|184:224|72:256|216:120|40:136,1,210
80,40,200485,2,0,B|184:40,1,70
328,112,201009,1,0
472,240,201358,2,0,B|448:344|336:264|272:296,1,210
96,256,202230,1,0
112,160,202404,1,0
136,64,202578,1,0
232,64,202753,1,0
328,64,202927,2,0,B|360:56|400:64,1,70
432,152,203276,5,0
392,240,203451,1,0
344,328,203625,1,0
264,272,203799,1,0
264,176,203974,1,0
264,80,204148,1,0
64,80,204497,2,0,B|24:168|16:208|24:248|48:312,1,210
136,288,205195,2,0,B|176:200|184:160|176:120|152:56,1,210
248,264,206067,1,0
256,64,206416,1,0
328,136,206590,1,0
464,272,206939,1,0
168,272,207461,1,0
72,272,207636,1,0
72,176,207810,1,0
72,80,207985,1,0
256,80,208159,1,0
352,80,208333,1,0
448,80,208509,2,0,B|448:152,1,70
432,248,208857,5,0
392,280,208944,1,0
352,304,209031,1,0
312,328,209119,1,0
272,352,209206,1,0
88,288,209555,1,0
176,240,209730,1,0
128,48,210078,2,0,C|128:88|120:168|216:160,1,210
240,248,210776,1,0
320,192,210950,2,0,C|320:232|312:312|408:304,1,210
424,208,211648,1,0
368,128,211823,1,0
184,64,212171,1,0
80,232,212520,2,0,C|136:280|200:216,1,140
280,232,213044,1,0
376,232,213218,1,0
464,56,213567,1,0
264,48,213916,2,0,B|176:104|264:184,1,140
256,264,214439,5,0
176,320,214613,1,0
176,224,214788,1,0
256,48,215137,1,0
256,144,215311,1,0
256,336,215660,2,0,B|256:264|256:32,1,280,4|0
160,88,216532,1,0
336,168,216881,1,0
424,344,217230,1,0
328,336,217404,1,0
232,336,217578,1,0
136,320,217753,2,0,B|88:352|56:312,1,70
64,224,218102,1,0
288,32,218625,1,0
256,120,218799,5,0
328,192,218974,1,0
256,264,219148,1,0
184,192,219322,2,0,B|240:176|360:200|368:104,1,210
256,192,220019,12,0,220717
168,64,239554,5,0
352,64,239903,1,0
208,176,240252,2,0,B|40:48|24:288|360:264|40:352,1,420
224,344,241647,2,0,B|296:216,1,140
368,344,242345,6,0,B|288:224,1,140
464,272,243043,1,0
440,184,243217,5,0
384,112,243392,1,0
208,64,243740,2,0,B|112:64|144:104,1,70
88,248,244264,2,0,B|144:296|168:288,1,70
240,296,244613,1,0
328,296,244787,2,0,B|496:256|360:72,1,280
184,72,245833,1,0
112,128,246008,2,0,B|40:400|288:280,1,350
256,192,247229,12,0,248275
256,192,248624,5,0
176,144,248798,1,0
96,192,248973,1,0
176,32,249322,1,0
264,24,249496,1,0
392,344,249845,1,0
256,224,250194,1,0
336,184,250368,1,0
152,152,250717,1,0
216,80,250892,2,0,B|288:112,1,70
416,176,251415,5,0
328,160,251589,1,0
240,136,251763,1,0
56,136,252112,1,0
112,64,252287,1,0
384,104,252810,5,0
208,160,253159,1,0
384,208,253508,1,0
208,256,253856,1,0
40,176,254205,5,0
96,104,254380,1,0
184,80,254554,1,0
368,80,254903,1,0
448,48,255077,1,0
456,320,255426,1,0
296,232,255774,1,0
224,176,255949,1,0
64,88,256298,1,0
152,48,256473,2,0,B|192:48|192:192,1,140
240,216,256996,5,0
312,264,257170,1,0
392,216,257345,1,0
312,56,257694,1,0
224,40,257868,1,0
256,336,258435,1,0
144,192,258784,1,0
256,48,259133,1,0
368,192,259481,1,0
440,336,259787,5,0
352,336,259961,1,0
256,336,260136,1,0
72,280,260310,5,0
160,280,260484,1,0
248,280,260659,1,0
200,200,260833,1,0
104,200,261008,1,0
152,120,261182,6,0,B|224:120,1,70
312,120,261531,1,0
256,192,261880,12,0,262316
256,328,262665,5,0
256,240,262839,1,0
256,144,263014,1,0
256,56,263188,1,0
168,192,263362,1,0
256,192,263537,1,0
344,192,263711,1,0
256,192,263886,1,0
