osu file format v5

[General]
AudioFilename: 2-31 Live & Learn ...Main Theme Of _.mp3
AudioLeadIn: 0
PreviewTime: 91307
Countdown: 1
SampleSet: Normal
StackLeniency: 0.7
Mode: 0
LetterboxInBreaks: 1
EditorBookmarks: 12121,37238,48400,54854,59563,91656,102819,148865,159679,173982,179563,196307,220028,247238

[Metadata]
Title:Live & Learn
Artist:Crush 40
Creator:K2J
Version:Hedgehog
Source:Sonic Adventure 2
Tags:

[Difficulty]
HPDrainRate:4
CircleSize:4
OverallDifficulty:4
SliderMultiplier:1
SliderTickRate:1

[Events]
//Background and Video events
0,0,"SA2B Placeholder.jpg"
//Break Periods
2,36557,47770
2,89057,101491
2,159871,178235
2,220220,238933
//Storyboard Layer 0 (Background)
//Storyboard Layer 1 (Failing)
//Storyboard Layer 2 (Passing)
//Storyboard Layer 3 (Foreground)
//Storyboard Sound Samples
//Background Colour Transformations
3,100,163,162,255

[TimingPoints]
12113,348.837209302326,4,1,0,100,1

[Colours]
Combo1 : 215,0,107
Combo2 : 0,0,255
Combo3 : 255,255,0
Combo4 : 255,0,0
Combo5 : 192,192,192

[HitObjects]
112,176,12113,2,0,B|176:176,2,50
160,264,12811,2,0,B|224:264,1,50
352,200,13509,1,0
320,104,13857,1,0
280,64,14032,2,0,B|112:64,1,150
104,160,14904,6,0,B|249:131|353:176|352:336,2,350
88,56,17695,1,0
88,56,17869,1,0
184,56,18218,2,0,B|304:56,1,100
384,56,18916,2,0,B|360:152|280:240,1,200
408,304,21009,6,0,B|344:375|245:364|240:280,1,200
240,200,22055,2,0,B|192:176,4,50
328,248,23102,2,0,B|376:208|376:112|248:48,1,250
88,160,24671,1,0
160,224,25020,1,0
232,288,25369,1,0
384,152,26067,6,0,B|239:123|135:168|136:328,2,350
424,56,28857,1,0
424,56,29032,1,0
328,88,29381,2,0,L|288:160|215:150|136:344,1,350
112,200,32171,6,0,B|41:136|52:37|136:32,1,200
200,80,33217,2,0,B|248:104,4,50
168,176,34264,2,0,B|208:224|304:224|368:96,1,250
256,272,35834,2,0,B|256:216,3,50
64,192,49090,6,0,B|272:192,1,200
424,80,50485,1,0
256,192,51183,2,0,B|216:272|96:336,1,200
112,128,52578,2,0,B|204:158|240:72,2,150
432,272,54846,5,0
384,272,55020,2,0,B|280:272,2,100
432,184,56067,1,0
432,184,56241,1,0
392,88,56590,2,0,B|136:88,1,250
88,176,57811,1,0
88,176,57985,2,0,B|464:176,1,350
392,264,59555,5,0
256,112,60253,1,0
120,264,60950,2,0,B|120:320,2,50
216,272,61648,5,0
216,224,61823,1,0
216,120,62171,2,0,B|304:56|440:216,1,250
256,288,63741,1,0
256,288,63916,1,0
256,184,64264,1,0
256,80,64613,2,0,B|88:32,1,150
104,136,65485,1,0
104,184,65660,1,0
104,184,65834,2,0,B|320:184,1,200
184,344,67230,5,0
216,304,67404,1,0
256,208,67753,2,0,B|168:144|32:304,1,250
40,192,68974,1,0
72,96,69323,1,0
160,48,69671,1,0
160,48,69846,1,0
256,48,70195,1,0
408,48,70718,2,0,B|408:168,1,100
408,248,71416,2,0,B|408:128,1,100
336,216,72113,5,0
336,168,72288,1,0
336,120,72462,1,0
256,56,72811,1,0
256,104,72985,1,0
248,184,73334,2,0,B|160:248|24:88,1,250
56,304,74904,1,0
56,304,75078,1,0
144,248,75427,1,0
224,192,75776,2,0,B|224:264|296:336,1,150
336,328,76474,1,0
408,264,76823,1,0
408,264,77171,2,0,B|408:144|272:64,1,250
192,120,78392,5,0
192,168,78567,1,0
192,264,78916,1,4
432,328,79788,2,0,B|368:248,1,100
312,168,80485,1,0
312,168,80834,1,0
312,168,81009,1,0
256,80,81357,1,0
128,152,81881,2,0,B|128:264,1,100
200,184,82578,2,0,B|200:296,1,100
296,288,83276,6,0,B|400:288,1,100
416,192,83974,1,0
416,192,84148,1,0
368,104,84497,2,0,B|256:104,1,100
268,104,85020,1,0
72,336,86067,6,0,B|64:152|184:56,1,300
272,72,87462,2,0,B|280:256|160:352,1,300
80,296,88857,1,0
232,320,102811,6,0,B|232:256,2,50
152,256,103509,1,0
352,256,104206,1,0
256,80,104904,1,0
256,280,105602,1,0
184,96,106299,1,0
392,96,106996,2,0,B|348:179|272:208,1,150
168,296,108043,2,0,B|56:296,1,100
184,120,109090,5,0
256,312,109788,1,0
344,120,110485,1,0
144,64,111183,2,0,B|78:207|111:320|189:351|296:336,2,400
336,144,114671,1,0
136,144,115369,1,0
320,64,116067,1,0
256,256,116764,1,0
256,56,117462,1,0
424,160,118160,1,2
424,160,118682,2,0,B|392:256|336:288,1,150,2|0
56,80,120427,5,0
104,80,120601,2,0,B|208:80,2,100
56,168,121648,1,0
56,168,121822,1,0
96,264,122171,2,0,B|352:264,1,250
400,176,123392,1,0
400,176,123566,2,0,B|24:176,1,350
96,88,125137,5,0
192,88,125485,1,0
288,88,125834,1,0
384,88,126183,1,0
424,176,126532,2,0,B|376:136,2,50
320,168,127230,5,0
320,216,127405,1,0
320,312,127753,2,0,B|232:376|96:216,1,250
192,48,129323,1,0
192,48,129498,1,0
256,120,129846,1,0
328,48,130195,2,0,B|496:96,1,150
424,176,131067,1,0
424,224,131242,1,0
424,224,131416,2,0,B|208:224,1,200
96,64,132812,5,0
120,104,132986,1,0
200,168,133335,2,0,B|288:232|424:72,1,250
456,176,134556,1,0
400,256,134905,1,0
336,328,135253,1,0
336,328,135428,1,0
232,328,135777,1,0
80,336,136300,2,0,B|80:216,1,100
80,136,136998,2,0,B|80:256,1,100
160,176,137695,5,0
160,224,137870,1,0
160,272,138044,1,0
256,264,138393,1,0
256,216,138567,1,0
256,112,138916,2,0,B|344:48|480:208,1,250
320,328,140486,1,0
320,328,140660,1,0
216,328,141009,1,0
256,240,141358,2,0,B|256:168|184:96,1,150
160,64,142056,1,0
80,128,142405,1,0
80,128,142753,2,0,B|80:248|216:328,1,250
288,264,143974,5,0
288,216,144149,1,0
288,112,144498,1,4
472,280,145370,2,0,B|368:336,1,100
296,280,146067,1,0
296,280,146416,1,0
296,280,146591,1,0
192,280,146939,1,0
40,264,147463,2,0,B|40:152,1,100
104,232,148160,2,0,B|104:120,1,100
176,200,148857,6,0,B|176:88,1,100
272,80,149555,2,0,B|344:80,1,50
424,80,150078,1,0
376,168,150427,1,0
376,168,150602,2,0,B|314:272|216:296,1,200
136,240,151648,5,0
136,240,151823,2,0,B|159:116|424:48,2,350
256,192,154439,12,0,156881
256,192,157230,6,0,B|176:136|40:176|32:184|32:184|152:251|232:336|232:336|136:360|24:288,1,700
96,192,179555,6,0,B|312:192,1,200
392,192,180602,1,0
328,112,180950,1,0
176,112,181474,2,0,B|176:280,1,150
248,328,182346,2,0,B|472:328,1,200
440,224,183392,1,0
336,216,183741,1,0
232,200,184090,1,0
184,192,184264,2,0,B|104:192|32:104|64:48,1,200
104,48,185137,6,0,B|288:152,1,200
368,192,186183,1,0
312,272,186532,1,0
184,192,187055,1,0
280,72,187578,1,0
280,72,187927,2,0,B|336:144|248:256,1,200
160,296,188974,1,0
80,232,189323,2,0,B|80:128,1,100
80,80,189846,2,0,B|296:80,1,200
280,128,190718,5,0
192,248,191241,1,0
344,248,191764,1,0
440,248,192113,2,0,B|440:96,1,150
256,192,193509,12,0,195950
160,104,196299,6,0,B|368:104,2,200
256,280,198392,5,0
256,232,198567,1,0
256,128,198915,2,0,B|344:64|480:224,1,250
296,312,200485,1,0
296,312,200660,1,0
192,312,201008,1,0
192,208,201357,2,0,B|24:160,1,150
136,120,202229,1,0
184,120,202404,1,0
232,120,202578,2,0,B|16:120,1,200
216,48,203974,5,0
240,88,204148,1,0
264,184,204497,2,0,B|352:248|488:88,1,250
384,56,205718,1,0
280,56,206067,1,0
176,56,206415,1,0
128,56,206590,1,0
128,152,206939,1,0
232,256,207462,2,0,B|352:256,1,100
416,208,208160,2,0,B|416:328,1,100
320,336,208857,5,0
320,288,209032,1,0
320,240,209206,1,0
320,136,209555,1,0
320,88,209729,1,0
232,40,210078,2,0,B|144:-24|8:136,1,250
192,232,211648,1,0
232,264,211822,1,0
320,312,212171,1,0
416,320,212520,2,0,B|416:248|344:176,1,150
312,160,213218,1,0
216,120,213567,1,0
216,120,213915,2,0,B|216:240|352:320,1,250
400,232,215136,5,0
400,184,215311,1,0
400,80,215660,1,4
256,192,216532,12,0,220020
256,80,240253,5,0
256,280,240950,1,0
80,192,241648,1,0
176,192,241997,1,0
272,192,242346,1,0
440,296,243043,2,0,B|328:296,4,100
400,200,244788,1,0
120,88,245834,5,0
120,88,246009,1,0
464,48,247230,2,0,B|440:168|272:288,1,300,4|0
184,280,248668,5,0
184,232,248842,1,0
184,184,249017,1,0
256,120,249366,1,0
304,120,249540,1,0
376,184,249889,1,0
376,280,250238,1,0
328,280,250412,1,0
224,280,250761,2,0,B|120:280,1,100
112,176,251459,5,0
112,128,251633,1,0
112,80,251807,1,0
208,72,252156,1,0
256,72,252331,1,0
416,72,252854,1,0
360,160,253203,1,0
416,240,253552,1,0
352,320,253900,1,0
256,280,254249,5,0
256,232,254424,1,0
256,184,254598,1,0
256,80,254947,1,0
208,80,255121,1,0
104,80,255470,1,0
104,176,255818,1,0
104,224,255993,1,0
176,296,256342,2,0,B|280:296,1,100
368,256,257040,5,0
368,208,257214,1,0
368,160,257389,1,0
280,112,257738,1,0
232,112,257912,1,0
80,72,258479,1,0
144,144,258828,1,0
80,224,259177,1,0
144,296,259525,1,0
232,296,259831,5,0
232,296,260005,5,0
232,296,260180,6,0,B|232:128,2,150
328,296,261575,5,0
256,192,261881,12,0,263887
