osu file format v5

[General]
AudioFilename: 2-31 Live & Learn ...Main Theme Of _.mp3
AudioLeadIn: 0
PreviewTime: 91307
Countdown: 1
SampleSet: Normal
StackLeniency: 0.7
Mode: 0
LetterboxInBreaks: 1
EditorBookmarks: 12121,37238,48400,54854,59563,91656,102819,148865,159679,173982,179563,196307,220028,247238

[Metadata]
Title:Live & Learn
Artist:Crush 40
Creator:K2J
Version:Faker
Source:Sonic Adventure 2
Tags:

[Difficulty]
HPDrainRate:3
CircleSize:3
OverallDifficulty:3
SliderMultiplier:0.8
SliderTickRate:1

[Events]
//Background and Video events
0,0,"SA2B Placeholder.jpg"
//Break Periods
2,37079,47649
2,89056,102068
2,151848,152998
2,157429,178114
2,220219,238812
2,245858,251370
2,254405,256951
//Storyboard Layer 0 (Background)
//Storyboard Layer 1 (Failing)
//Storyboard Layer 2 (Passing)
//Storyboard Layer 3 (Foreground)
//Storyboard Sound Samples
//Background Colour Transformations
3,100,163,162,255

[TimingPoints]
12113,348.837209302326,4,1,1,100,1

[Colours]
Combo1 : 215,0,107
Combo2 : 0,0,255
Combo3 : 255,255,0
Combo4 : 255,0,0
Combo5 : 192,192,192

[HitObjects]
80,192,12112,2,0,C|168:192,1,80
232,192,12810,2,0,C|272:192,1,40
360,128,13508,1,0
416,88,13856,1,0
320,288,14903,6,0,B|176:272|80:192|56:168,2,280
392,280,17694,2,0,B|376:136|296:40|272:16,2,280
208,320,20920,6,0,B|66:282|36:150|74:107|168:56,1,360
264,48,23013,2,0,B|368:264,1,220
272,312,24671,2,0,B|104:312,1,160
136,168,26066,6,0,B|280:152|376:72|400:48,2,280
64,168,28856,2,0,B|208:184|304:264|320:288,2,280
184,296,32345,6,0,B|66:282|36:150|74:107|168:72,1,320
224,80,34089,1,0
224,80,34263,2,0,B|224:296,1,200
80,304,35833,2,0,B|80:168,2,120
120,128,49089,6,0,B|296:128,4,160
120,272,52577,2,0,B|248:272,1,120
440,64,55368,6,0,B|352:64,2,80
368,144,56589,2,0,B|248:264|112:312,2,300
344,72,59554,2,0,B|176:72,1,160
256,352,61647,6,0,B|256:304,1,40
256,240,62170,2,0,B|256:24,1,200
120,88,63740,2,0,B|120:176,4,80
256,136,65833,1,0
320,112,66182,1,0
112,192,67229,6,0,B|160:192,1,40
224,192,67752,2,0,B|312:192|376:144|392:80,1,200
408,240,69322,2,0,B|248:296,1,160
112,328,70717,2,0,B|112:232,3,80
256,80,72810,6,0,B|256:136,1,40
256,192,73333,2,0,B|256:280|304:344|368:360,1,200
400,216,74903,2,0,B|96:72,2,320
256,192,78391,5,0
256,192,78566,1,0
256,120,78915,2,0,B|244:45|136:48|88:128,1,200
104,256,80484,2,0,B|272:256,1,160
384,336,81880,2,0,B|448:272|464:200|456:144|408:72|336:48|216:56|152:64|176:80,1,480
408,264,86066,2,0,B|344:328|272:344|216:336|144:288|104:264,2,320,0|0|4
176,192,103508,6,0,B|352:192,4,160
184,336,106996,2,0,B|312:336,2,120
96,136,109089,2,0,B|272:136,2,160
136,272,111182,2,0,B|408:80,2,320
256,344,114670,5,0
256,200,115368,1,0
256,56,116066,1,0
136,136,116763,2,0,B|136:312,1,160
256,224,118159,1,2
256,224,118682,2,0,B|256:88,1,120,2|0
80,80,120601,6,0,B|176:80,1,80
224,80,121299,2,0,B|360:80,1,120
408,88,122170,2,0,B|400:168|352:264|264:304|224:320,2,300
320,80,125136,6,0,B|224:80,3,80
64,200,127229,6,0,B|112:200,1,40
176,200,127752,2,0,B|392:200,1,200
328,64,129322,2,0,B|240:64,4,80
280,200,131415,1,0
304,264,131764,1,0
224,56,132811,6,0,B|224:104,1,40
224,168,133334,2,0,B|224:256|272:320|336:336,1,200
176,352,134904,2,0,B|120:192,1,160
88,56,136299,2,0,B|184:56,3,80
336,200,138392,6,0,B|280:200,1,40
224,200,138915,2,0,B|136:200|72:248|56:312,1,200
200,344,140485,2,0,B|344:40,2,320
224,200,143973,5,0
224,200,144148,1,0
296,200,144497,2,0,B|371:188|368:80|288:32,1,200
160,48,146066,2,0,B|160:216,1,160
256,320,147462,2,0,B|320:256|336:184|328:128|280:56|208:32|88:40|24:48|48:64,2,480
256,192,154438,12,4,157229
80,312,179554,6,0,B|232:224,1,160
280,192,180601,1,0
328,136,180949,1,0
416,72,181473,6,0,B|416:200,1,120
376,248,182345,2,0,B|216:64,1,240
184,168,183740,2,0,B|312:168,2,120
112,168,185136,6,0,B|160:240|248:248,1,160
312,240,186182,1,0
384,224,186531,1,0
472,160,187054,6,0,B|352:104,1,120
288,96,187926,2,0,B|120:96,1,160
56,96,188973,1,0
56,168,189322,2,0,B|56:304,1,120
232,296,190717,6,0,B|312:192,1,120
376,128,191763,1,0
368,48,192112,2,0,B|232:48,1,120
256,192,193508,12,0,196298
256,344,198391,5,0
256,304,198566,1,0
256,232,198915,2,0,B|256:24,1,200
136,112,200484,2,0,B|136:240,1,120
136,304,201356,2,0,B|272:304,1,120
328,304,202229,2,0,B|328:48,1,240
416,184,203973,5,0
392,216,204148,1,0
320,240,204497,2,0,B|112:240,1,200
88,168,205717,1,0
136,112,206066,1,0
192,64,206415,2,0,B|272:104|312:192,1,160
352,264,207461,5,0
288,304,207810,1,0
208,304,208159,1,0
136,264,208508,1,0
368,320,209554,5,0
368,280,209729,1,0
368,208,210077,2,0,B|240:40,1,200,0|0
120,120,211647,2,0,B|120:208,2,80
168,64,212694,1,0
272,64,213217,2,0,B|360:88,1,80
416,128,213915,2,0,B|350:217|328:328,1,200
256,320,215136,5,0
240,288,215310,1,0
208,224,215659,2,0,B|57:223|57:223|115:102|256:56|256:56|390:105|432:224|432:224|303:224|303:224|239:339|239:339|208:256,1,1000
96,192,240252,5,4
240,192,240949,1,4
384,192,241647,2,4,B|384:280,3,80
336,328,243042,2,0,B|32:361|40:146|253:32|368:48,1,600
144,96,252810,5,0
200,144,253159,1,0
256,192,253508,1,0
304,240,253856,1,0
352,288,254205,1,0
376,96,258391,5,0
320,144,258740,1,0
264,192,259089,1,0
216,240,259437,1,0
168,288,259786,1,0
256,192,260136,12,0,262229
