osu file format v5

[General]
AudioFilename: movie_01_h.flv.MP3
AudioLeadIn: 0
PreviewTime: -1
Countdown: 1
SampleSet: Normal
StackLeniency: 0
Mode: 0
LetterboxInBreaks: 1

[Metadata]
Title:Knight of the Wind
Artist:Crush 40
Creator:Ekaru
Version:Normal
Source:Sonic and the Black Knight
Tags:Sega Sonic Team Hopes Disappointment

[Difficulty]
HPDrainRate:2
CircleSize:4
OverallDifficulty:4
SliderMultiplier:1.4
SliderTickRate:2

[Events]
//Background and Video events
0,0,"sonic-unleashed-20081008094000740_640w.jpg"
//Break Periods
//Storyboard Layer 0 (Background)
//Storyboard Layer 1 (Failing)
//Storyboard Layer 2 (Passing)
//Storyboard Layer 3 (Foreground)
//Storyboard Sound Samples
//Background Colour Transformations
3,100,163,162,255

[TimingPoints]
5720,352.941176470588,4,1,0,80,1

[Colours]
Combo1 : 217,217,0
Combo2 : 0,0,255
Combo3 : 234,0,0
Combo4 : 255,255,255
Combo5 : 255,128,64

[HitObjects]
488,192,5190,1,0
376,192,5543,2,0,B|312:240|240:240|176:184,1,210
72,72,6602,5,0
176,72,6955,2,0,B|240:24|320:24|384:80,1,210
256,312,8367,6,0,B|256:96,2,210,12|12|12
312,312,9602,2,0,B|392:288|432:208|440:136|344:24,1,350
240,32,10837,5,0
240,136,11190,2,2,B|16:136,1,210
32,296,12249,5,0
32,184,12602,2,2,B|264:184,1,210
480,312,14014,6,0,B|392:264,2,70
480,256,14543,6,0,B|480:176,2,70
480,144,15249,6,0,B|40:144,1,420
56,200,16484,5,0
160,200,16837,2,0,B|400:200,1,210
312,48,17896,5,0
312,152,18249,2,0,B|312:368,1,210
256,64,19837,6,0,B|88:64|88:64|88:256,1,350,0|4
144,248,20896,2,0,B|376:248|376:248|376:96,1,350,0|4
376,72,21955,2,0,B|488:72|488:72|488:352|488:352|488:384,2,420
192,192,24778,5,0
192,296,25131,1,0
296,296,25484,2,0,B|368:264|408:160|352:80|280:48|208:48|144:56,1,420
96,56,26719,2,0,B|40:136|64:224|104:256|192:264,1,280,0|4
288,264,27778,5,0
288,152,28131,2,0,B|440:152,1,140
256,368,29367,2,0,B|256:56,1,280
96,112,30602,1,0
96,216,30955,2,0,B|96:264|104:280|160:304|232:304|280:288|304:208,1,280
496,136,32367,6,0,B|432:200|352:120,2,140
496,136,33249,1,0
496,24,33602,1,0
384,24,33955,1,0
312,168,34484,1,0
224,24,35014,1,0
104,136,35543,1,0
104,240,35896,1,0
104,240,36072,2,0,B|248:240,1,140
352,240,36778,6,0,B|424:168|448:112|416:56|376:40|256:80|264:144,1,350,2|2
280,248,38014,2,0,B|264:320|248:352|160:360|96:352|64:344|16:304|40:240,1,350
92,235,39072,5,0
88,128,39425,2,0,B|148:25|216:168,1,140
384,232,40484,5,0
272,232,40837,2,0,B|200:288|136:224,1,140
256,40,41896,5,0
144,40,42249,2,0,B|72:120|96:208|144:232,1,210,8|0
192,224,42955,2,0,B|248:304|192:352,1,140,8|0
192,352,43484,2,0,B|310:371|430:307|414:203|392:160,1,280,8|0
256,64,44896,5,0
144,64,45249,2,0,B|200:128|136:208,5,140
256,312,47543,5,0
360,312,47896,2,0,B|409:245|352:176,7,140
248,184,50719,2,0,B|192:112|248:56,4,140
408,328,52837,5,4
352,328,53014,1,4
296,328,53190,1,4
184,328,53543,1,4
128,328,53719,2,4,B|64:272|56:224|80:160|136:112|224:88|368:88|328:136,1,420
