osu file format v5

[General]
AudioFilename: 1 - 01 - I Am...All of Me - Opening Ver..mp3
AudioLeadIn: 0
PreviewTime: -1
Countdown: 1
SampleSet: Normal
StackLeniency: 0.7
Mode: 0
LetterboxInBreaks: 1

[Metadata]
Title:I AM... ALL OF ME / OPENING VER.
Artist:Crush 40
Creator:soku
Version:Hard
Source:
Tags:

[Difficulty]
HPDrainRate:5
CircleSize:4
OverallDifficulty:5
SliderMultiplier:0.4
SliderTickRate:0.5

[Events]
//Background and Video events
0,0,"wallpaper_shadow_the_hedgehog_01_1600.jpg"
//Break Periods
//Storyboard Layer 0 (Background)
//Storyboard Layer 1 (Failing)
//Storyboard Layer 2 (Passing)
//Storyboard Layer 3 (Foreground)
//Storyboard Sound Samples
//Background Colour Transformations
3,100,163,162,255

[TimingPoints]
28666.6248059341,161.290322580645,4,1,0,100,1

[Colours]
Combo1 : 255,255,0
Combo2 : 0,0,0
Combo3 : 192,192,192
Combo4 : 240,5,5

[HitObjects]
257,192,29150,5,0
216,166,29473,1,0
325,134,29795,1,0
393,194,30118,1,0
323,269,30602,1,0
323,269,31085,1,0
247,172,31569,5,0
331,134,32053,1,0
362,251,32376,1,0
264,269,32698,1,0
176,196,33182,1,0
256,186,34150,5,0
352,125,34473,1,0
397,224,34795,1,0
301,289,35118,1,0
116,188,35602,1,0
116,188,36085,1,0
254,197,36892,5,0
334,128,37053,1,0
175,96,37376,1,0
118,183,37698,1,0
251,305,38182,1,0
71,203,38827,6,0,B|245:196|239:198,4,160
64,96,41408,6,0,B|416:320|384:320,5,360
249,196,49795,5,0
356,98,50279,1,0
133,88,50924,1,0
75,211,51892,6,0,B|451:210,1,360
214,127,54795,5,0
349,135,55118,1,0
314,250,55440,1,0
149,237,55763,1,0
135,138,56085,1,0
302,132,56731,1,0
385,192,57376,1,0
298,249,57698,1,0
146,176,58021,1,0
72,114,58344,1,0
130,230,60924,6,0,B|435:223,3,280
210,131,64795,5,0
297,149,64956,1,0
304,252,65440,1,0
163,241,65763,1,0
77,134,66085,1,0
95,57,66408,1,0
263,139,67053,5,0
420,204,67376,1,0
317,288,67698,1,0
149,215,68021,1,0
96,116,68344,1,0
304,112,68666,1,0
256,192,69311,12,0,71408
210,141,72215,5,0
331,161,72537,1,0
344,286,72698,1,0
164,246,73182,1,0
81,141,73666,1,0
253,109,74150,1,0
367,199,74634,1,0
306,248,74956,1,0
161,188,75279,1,0
119,244,75602,2,0,B|262:200|262:198,2,120
289,303,76892,5,0
241,205,77376,1,0
406,115,77537,1,0
319,196,78182,5,0
264,182,78344,1,0
133,185,78827,1,0
180,292,79311,1,0
261,199,80924,5,0
402,88,81247,1,0
177,81,81569,1,0
86,207,81892,1,0
148,199,82376,6,0,B|237:195|245:201,9,80
100,121,85924,1,0
162,162,86408,1,0
287,142,86892,1,0
217,96,87215,1,0
162,162,87537,1,0
243,284,87860,1,0
381,247,88505,1,0
256,192,89150,12,0,92537
256,192,92698,12,0,95118
256,192,95279,12,0,97537
256,192,98505,12,0,100118
