osu file format v12

[General]
AudioFilename: Cro - Einmal um die Welt.mp3
AudioLeadIn: 0
PreviewTime: 7156
Countdown: 0
SampleSet: Normal
StackLeniency: 0.7
Mode: 0
LetterboxInBreaks: 1

[Editor]
Bookmarks: 6835,18781,24781,30781,36781,42406,48781,55156,66781,72969,79156,84781,91156,103156,114781
DistanceSpacing: 1.1
BeatDivisor: 8
GridSize: 8

[Metadata]
Title:Einmal Um Die Welt
TitleUnicode:Einmal Um Die Welt
Artist:Cro
ArtistUnicode:Cro
Creator:Hawkii
Version:Hard
Source:
Tags:Rap, deutsch, german
BeatmapID:198412
BeatmapSetID:68281

[Difficulty]
HPDrainRate:5
CircleSize:4
OverallDifficulty:3
ApproachRate:7
SliderMultiplier:1.4
SliderTickRate:1

[Events]
//Background and Video events
0,0,"Sunshine BG.jpg",0,0
//Break Periods
2,66981,72069
//Storyboard Layer 0 (Background)
//Storyboard Layer 1 (Fail)
//Storyboard Layer 2 (Pass)
//Storyboard Layer 3 (Foreground)
//Storyboard Sound Samples
//Background Colour Transformations
3,100,163,162,255

[TimingPoints]
1156.7288779591,375,4,1,0,30,1,0
6781,-100,4,1,0,30,0,1
8281,-100,4,1,0,30,0,0
9781,-100,4,1,0,30,0,1
18781,-100,4,1,0,30,0,0
55156,-100,4,1,0,30,0,1
56281,-100,4,1,0,30,0,0
57781,-100,4,1,0,30,0,1
66781,-100,4,1,0,30,0,0
91156,-100,4,1,0,30,0,1
92281,-100,4,1,0,30,0,0
93781,-100,4,1,0,30,0,1
102031,-100,4,1,0,30,0,0
102969,-100,4,1,0,30,0,0
103156,-100,4,1,0,30,0,1
104281,-100,4,1,0,30,0,0
105781,-100,4,1,0,30,0,1
114781,-100,4,1,0,30,0,0

[Colours]
Combo1 : 0,128,255
Combo2 : 255,255,0
Combo3 : 255,255,255
Combo4 : 255,128,64

[HitObjects]
384,264,3781,1,2,0:0:0:0:
128,264,4531,1,8,0:0:0:0:
256,40,5281,5,2,0:0:0:0:
352,128,5656,1,8,0:0:0:0:
256,216,6031,1,2,0:0:0:0:
160,128,6406,1,8,0:0:0:0:
64,40,6781,6,0,P|48:112|56:184,1,140,6|8,0:0|0:0,0:0:0:0:
104,232,7344,2,0,P|112:256|120:312,2,70,8|0|0,0:0|0:0|0:0,0:0:0:0:
128,160,7906,2,0,L|168:88,1,70,8|0,0:0|0:0,0:0:0:0:
224,136,8281,6,0,P|264:120|296:120,1,70,2|0,0:0|0:0,0:0:0:0:
288,192,8656,2,0,P|321:188|360:198,1,70,2|0,0:0|0:0,0:0:0:0:
320,264,9031,2,2,P|395:259|432:202,2,140,2|0|4,0:0|0:0|0:0,0:0:0:0:
240,272,9969,5,0,0:0:0:0:
168,296,10156,1,8,0:0:0:0:
96,280,10344,2,2,P|24:240|32:192,1,140,8|0,0:0|0:0,0:0:0:0:
88,136,10906,2,2,P|112:64|56:32,1,140,8|2,0:0|0:0,0:0:0:0:
16,88,11469,5,0,0:0:0:0:
88,136,11656,1,8,0:0:0:0:
160,152,11844,1,8,0:0:0:0:
240,144,12031,2,0,L|304:112,1,70
288,40,12406,2,0,L|224:72,1,70,10|0,0:0|0:0,0:0:0:0:
208,224,12969,6,0,P|216:264|232:296,1,70,0|8,0:0|0:0,0:0:0:0:
304,288,13344,2,0,P|296:248|280:216,1,70,8|2,0:0|0:0,0:0:0:0:
248,152,13719,1,0,0:0:0:0:
256,72,13906,1,10,0:0:0:0:
320,32,14094,1,0,0:0:0:0:
392,64,14281,6,2,B|440:128|440:128|464:184,1,140,6|8,0:0|0:0,0:0:0:0:
480,256,14844,1,8,0:0:0:0:
408,280,15031,2,2,B|360:216|360:216|336:160,1,140,2|8,0:0|0:0,0:0:0:0:
208,80,15781,1,6,0:0:0:0:
72,152,16156,5,8,0:0:0:0:
56,232,16344,2,0,L|96:296,1,70,8|0,0:0|0:0,0:0:0:0:
168,280,16719,2,2,L|192:208,1,70,2|0,0:0|0:0,0:0:0:0:
152,144,17094,1,2,0:0:0:0:
256,192,17281,12,6,18781,0:0:0:0:
304,144,19156,5,8,0:0:0:0:
376,112,19344,1,8,0:0:0:0:
456,120,19531,2,0,P|496:184|488:256,2,140,2|8|2,0:0|0:0|0:0,0:0:0:0:
328,40,20656,5,8,0:0:0:0:
256,64,20844,1,8,0:0:0:0:
192,112,21031,2,2,P|120:144|64:128,1,140,2|8,0:0|0:0,0:0:0:0:
40,56,21594,1,0,0:0:0:0:
120,64,21781,6,0,P|120:144|88:224,1,140,6|8,0:0|0:0,0:0:0:0:
88,280,22344,1,8,0:0:0:0:
168,280,22531,2,0,P|256:264|304:280,1,140,2|8,0:0|0:0,0:0:0:0:
376,248,23094,1,0,0:0:0:0:
432,192,23281,6,0,L|472:56,1,140,2|8,0:0|0:0,0:0:0:0:
392,64,23844,2,0,L|368:136,1,70,8|2,0:0|0:0,0:0:0:0:
296,112,24219,2,0,L|320:40,1,70,0|2,0:0|0:0,0:0:0:0:
336,200,24781,6,0,P|320:232|320:272,1,70,6|0,0:0|0:0,0:0:0:0:
304,344,25156,2,0,P|256:368|160:352,1,140,8|0,0:0|0:0,0:0:0:0:
104,320,25719,1,0,0:0:0:0:
56,256,25906,1,8,0:0:0:0:
168,152,26281,2,0,P|224:208|256:280,2,140,2|8|2,0:0|0:0|0:0,0:0:0:0:
40,72,27406,2,8,P|72:56|112:48,1,70
184,56,27781,6,0,P|240:88|336:96,1,140,6|8,0:0|0:0,0:0:0:0:
392,80,28344,1,8,0:0:0:0:
384,160,28531,2,0,P|352:215|344:312,1,140,0|8,0:0|0:0,0:0:0:0:
400,344,29094,1,0,0:0:0:0:
416,272,29281,6,0,P|344:248|272:232,1,140,6|8,0:0|0:0,0:0:0:0:
208,240,29844,1,8,0:0:0:0:
128,248,30031,1,6,0:0:0:0:
64,224,30219,1,0,0:0:0:0:
32,160,30406,2,0,P|24:112|32:80,2,70,10|0|6,0:0|0:0|0:0,0:0:0:0:
80,304,31156,6,8,L|136:360,1,70
200,312,31531,2,0,L|272:312,1,70,2|0,0:0|0:0,0:0:0:0:
264,232,31906,2,0,L|312:176,1,70,2|0,0:0|0:0,0:0:0:0:
256,120,32281,2,0,L|256:40,2,70,0|0|8,0:0|0:0|0:0,0:0:0:0:
200,176,32844,1,8,0:0:0:0:
120,184,33031,1,2,0:0:0:0:
200,312,33406,1,2,0:0:0:0:
352,312,33781,6,0,P|432:304|456:248,1,140,6|8,0:0|0:0,0:0:0:0:
416,192,34344,1,8,0:0:0:0:
360,144,34531,2,0,P|336:104|344:72,1,70,2|0,0:0|0:0,0:0:0:0:
392,32,34906,1,2,0:0:0:0:
464,56,35094,1,0,0:0:0:0:
472,136,35281,6,0,L|432:200,1,70,2|0,0:0|0:0,0:0:0:0:
368,232,35656,2,8,L|296:224,1,70,10|8,0:0|0:0,0:0:0:0:
240,176,36031,2,0,L|168:176,2,70,2|0|2,0:0|0:0|0:0,0:0:0:0:
320,312,36781,6,0,P|248:344|176:344,1,140,4|8,0:0|0:0,0:0:0:0:
104,328,37344,1,8,0:0:0:0:
56,264,37531,2,0,P|40:192|72:136,1,140,2|0,0:0|0:0,0:0:0:0:
136,96,38094,1,0,0:0:0:0:
216,104,38281,6,0,P|240:176|216:232,1,140,6|8,0:0|0:0,0:0:0:0:
168,168,38844,2,2,L|312:168,1,140,8|0,0:0|0:0,0:0:0:0:
384,152,39406,1,2,0:0:0:0:
440,96,39594,1,0,0:0:0:0:
408,24,39781,6,0,L|336:40,1,70,6|0,0:0|0:0,0:0:0:0:
296,104,40156,2,0,P|280:168|328:232,1,140,8|2,0:0|0:0,0:0:0:0:
384,264,40719,1,0,0:0:0:0:
432,320,40906,2,0,L|368:368,1,70,8|0,0:0|0:0,0:0:0:0:
320,312,41281,6,0,P|248:304|176:320,1,140,6|8,0:0|0:0,0:0:0:0:
104,320,41844,2,0,P|16:288|80:216,1,210,0|6,0:0|0:0,0:0:0:0:
224,216,42781,1,6,0:0:0:0:
344,120,43156,6,8,L|304:56,1,70
248,104,43531,2,0,L|176:72,1,70,2|0,0:0|0:0,0:0:0:0:
136,136,43906,2,0,L|64:128,2,70,2|0|0,0:0|0:0|0:0,0:0:0:0:
256,232,44656,1,0,0:0:0:0:
336,224,44844,1,8,0:0:0:0:
408,240,45031,2,0,P|472:272|480:336,1,140,2|2,0:0|0:0,0:0:0:0:
400,344,45594,1,2,0:0:0:0:
320,352,45781,6,0,L|248:344,1,70,4|0,0:0|0:0,0:0:0:0:
216,280,46156,2,8,L|152:240,1,70
192,176,46531,2,0,L|176:88,1,70
256,96,46906,2,0,L|304:32,1,70
352,96,47281,6,0,L|424:96,1,70,2|0,0:0|0:0,0:0:0:0:
456,168,47656,2,0,L|384:168,1,70,2|0,0:0|0:0,0:0:0:0:
352,240,48031,2,0,L|424:240,2,70,0|0|8,0:0|0:0|0:0,0:0:0:0:
272,240,48594,1,8,0:0:0:0:
192,240,48781,5,4,0:0:0:0:
56,168,49156,1,2,0:0:0:0:
128,136,49344,1,0,0:0:0:0:
200,112,49531,2,2,P|264:72|232:24,1,140,0|8,0:0|0:0,0:0:0:0:
128,136,50281,1,0,0:0:0:0:
160,288,50656,5,2,0:0:0:0:
232,304,50844,1,0,0:0:0:0:
312,304,51031,2,2,P|384:296|424:240,1,140,0|8,0:0|0:0,0:0:0:0:
432,168,51594,1,8,0:0:0:0:
376,120,51781,6,0,P|304:128|264:184,1,140,6|8,0:0|0:0,0:0:0:0:
208,232,52344,1,0,0:0:0:0:
136,264,52531,2,0,P|79:293|10:270,1,140,2|8,0:0|0:0,0:0:0:0:
0,192,53094,1,8,0:0:0:0:
56,136,53281,6,0,L|128:144,1,70,2|0,0:0|0:0,0:0:0:0:
184,96,53656,2,0,L|248:144,1,70,2|0,0:0|0:0,0:0:0:0:
312,104,54031,2,2,P|344:144|270:258,1,210,2|0,0:0|0:0,0:0:0:0:
240,328,54781,6,0,P|304:328|371:291,1,140,6|8,0:0|0:0,0:0:0:0:
424,240,55344,2,0,P|445:226|497:203,2,70,8|0|0,0:0|0:0|0:0,0:0:0:0:
352,224,55906,2,0,L|272:203,1,70,8|0,0:0|0:0,0:0:0:0:
208,200,56281,6,0,P|182:165|173:134,1,70,2|0,0:0|0:0,0:0:0:0:
216,80,56656,2,0,P|242:115|251:146,1,70,2|0,0:0|0:0,0:0:0:0:
285,208,57031,2,2,P|260:280|181:288,2,140,2|0|4,0:0|0:0|0:0,0:0:0:0:
296,128,57969,5,0,0:0:0:0:
344,64,58156,1,8,0:0:0:0:
424,64,58344,2,2,P|470:69|490:149,1,140,8|0,0:0|0:0,0:0:0:0:
424,192,58906,2,2,P|380:223|404:295,1,140,8|2,0:0|0:0,0:0:0:0:
464,344,59469,5,0,0:0:0:0:
488,272,59656,1,8,0:0:0:0:
496,200,59844,1,8,0:0:0:0:
488,120,60031,2,0,L|424:88,1,70
352,88,60406,2,0,L|288:120,1,70,10|0,0:0|0:0,0:0:0:0:
152,192,60969,6,0,P|142:231|143:267,1,70,0|8,0:0|0:0,0:0:0:0:
216,272,61344,2,0,P|225:232|224:196,1,70,8|2,0:0|0:0,0:0:0:0:
200,128,61719,1,0,0:0:0:0:
152,64,61906,1,10,0:0:0:0:
72,56,62094,1,0,0:0:0:0:
32,120,62281,6,2,B|24:192|24:192|54:252,1,140,6|8,0:0|0:0,0:0:0:0:
120,288,62844,1,8,0:0:0:0:
200,296,63031,2,2,B|272:304|272:304|336:272,1,140,2|8,0:0|0:0,0:0:0:0:
464,192,63781,1,6,0:0:0:0:
312,208,64156,5,8,0:0:0:0:
232,216,64344,2,0,L|172:178,1,70,8|0,0:0|0:0,0:0:0:0:
184,104,64719,2,2,L|250:81,1,70,2|0,0:0|0:0,0:0:0:0:
328,72,65094,2,0,P|384:120|464:96,1,140,2|0,0:0|0:0,0:0:0:0:
464,40,65656,5,8,0:0:0:0:
384,24,65844,1,8,0:0:0:0:
328,72,66031,1,2,0:0:0:0:
296,144,66219,2,0,L|296:216,1,70,8|2,0:0|0:0,0:0:0:0:
296,288,66594,1,0,0:0:0:0:
296,368,66781,5,4,0:0:0:0:
416,168,72969,6,0,L|352:128,1,70,2|8,0:0|0:0,0:0:0:0:
320,200,73344,2,2,L|248:176,1,70,8|0,0:0|0:0,0:0:0:0:
232,256,73719,2,0,L|160:256,1,70,0|2,0:0|0:0,0:0:0:0:
88,256,74094,1,0,0:0:0:0:
72,184,74281,2,0,L|56:112,1,70,0|8,0:0|0:0,0:0:0:0:
48,40,74656,1,8,0:0:0:0:
128,40,74844,2,0,L|208:40,1,70,2|0,0:0|0:0,0:0:0:0:
352,64,75406,6,0,P|432:88|456:144,1,140,2|2,0:0|0:0,0:0:0:0:
448,208,75969,1,0,0:0:0:0:
408,280,76156,2,0,L|344:328,1,70,8|8,0:0|0:0,0:0:0:0:
280,304,76531,2,0,L|256:232,1,70
232,160,76906,1,8,0:0:0:0:
192,96,77094,1,0,0:0:0:0:
128,56,77281,6,0,P|64:56|48:128,1,140,2|8,0:0|0:0,0:0:0:0:
96,184,77844,1,8,0:0:0:0:
160,232,78031,2,2,P|181:296|112:344,1,140,2|8,0:0|0:0,0:0:0:0:
24,248,78781,1,4,0:0:0:0:
72,312,78969,2,0,L|136:344,1,70,0|8,0:0|0:0,0:0:0:0:
208,352,79344,1,8,0:0:0:0:
280,336,79531,1,2,0:0:0:0:
472,88,80281,1,4,0:0:0:0:
400,56,80469,6,0,P|363:49|328:56,1,70,0|8,0:0|0:0,0:0:0:0:
264,88,80844,1,8,0:0:0:0:
208,144,81031,1,2,0:0:0:0:
416,352,81781,1,4,0:0:0:0:
464,288,81969,6,0,P|480:248|480:216,1,70,0|8,0:0|0:0,0:0:0:0:
464,144,82344,1,8,0:0:0:0:
408,88,82531,1,2,0:0:0:0:
104,152,83281,6,0,L|104:224,1,70,4|0,0:0|0:0,0:0:0:0:
184,224,83656,2,0,L|184:152,1,70,8|8,0:0|0:0,0:0:0:0:
182,76,84031,2,0,L|110:76,2,70,2|0|10,0:0|0:0|0:0,0:0:0:0:
408,136,84969,5,0,0:0:0:0:
408,216,85156,2,0,P|408:248|384:288,1,70,8|8,0:0|0:0,0:0:0:0:
312,296,85531,2,0,P|285:277|266:235,1,70,2|0,0:0|0:0,0:0:0:0:
288,168,85906,2,0,P|317:154|363:159,2,70,2|0|2,0:0|0:0|0:0,0:0:0:0:
216,192,86469,1,0,0:0:0:0:
144,224,86656,2,0,P|96:232|64:224,1,70,8|8,0:0|0:0,0:0:0:0:
32,168,87031,2,0,P|24:120|32:88,1,70,0|0,0:0|0:0,0:0:0:0:
80,40,87406,1,2,0:0:0:0:
160,32,87594,1,2,0:0:0:0:
232,40,87781,6,0,P|272:40|304:56,1,70,6|0,0:0|0:0,0:0:0:0:
288,128,88156,2,2,P|323:140|352:160,1,70,8|8,0:0|0:0,0:0:0:0:
344,232,88531,2,0,P|368:257|392:304,1,70,2|0,0:0|0:0,0:0:0:0:
400,368,88906,2,2,P|336:360|288:288,1,140,0|2,0:0|0:0,0:0:0:0:
256,232,89469,6,0,P|231:199|203:176,1,70,2|8,0:0|0:0,0:0:0:0:
152,136,89844,1,8,0:0:0:0:
80,144,90031,2,0,P|13:175|2:247,1,140,0|8,0:0|0:0,0:0:0:0:
32,304,90594,1,8,0:0:0:0:
104,328,90781,1,4,0:0:0:0:
256,328,91156,6,0,L|328:312,1,70,2|0,0:0|0:0,0:0:0:0:
392,272,91531,1,0,0:0:0:0:
440,208,91719,1,8,0:0:0:0:
440,128,91906,2,0,P|416:80|392:64,1,70,8|0,0:0|0:0,0:0:0:0:
328,48,92281,2,0,P|291:52|248:72,1,70,2|0,0:0|0:0,0:0:0:0:
192,88,92656,2,0,P|112:80|48:32,2,140,0|2|2,0:0|0:0|0:0,0:0:0:0:
328,152,93781,5,0,0:0:0:0:
400,168,93969,1,0,0:0:0:0:
456,216,94156,1,8,0:0:0:0:
448,296,94344,2,2,P|424:344|344:344,1,140,8|0,0:0|0:0,0:0:0:0:
280,304,94906,2,2,P|216:280|144:296,1,140,8|2,0:0|0:0,0:0:0:0:
80,336,95469,5,0,0:0:0:0:
24,280,95656,1,8,0:0:0:0:
56,208,95844,1,8,0:0:0:0:
112,152,96031,2,2,L|176:104,1,70,0|0,0:0|0:0,0:0:0:0:
232,152,96406,2,0,L|176:200,1,70,2|10,0:0|0:0,0:0:0:0:
32,136,96969,5,2,0:0:0:0:
64,64,97156,1,8,0:0:0:0:
144,56,97344,2,0,P|179:60|216:56,1,70,8|2,0:0|0:0,0:0:0:0:
288,40,97719,2,0,P|323:35|368:40,1,70,0|2,0:0|0:0,0:0:0:0:
432,56,98094,1,0,0:0:0:0:
472,120,98281,6,2,B|416:248,1,140,6|8,0:0|0:0,0:0:0:0:
344,224,98844,1,8,0:0:0:0:
272,200,99031,2,2,B|216:328,1,140,0|0,0:0|0:0,0:0:0:0:
72,272,99781,5,6,0:0:0:0:
144,136,100156,5,8,0:0:0:0:
200,88,100344,2,0,L|260:50,1,70,8|0,0:0|0:0,0:0:0:0:
296,120,100719,2,2,L|362:97,1,70,2|0,0:0|0:0,0:0:0:0:
424,144,101094,2,0,P|424:217|354:263,1,140,2|0,0:0|0:0,0:0:0:0:
304,280,101656,5,8,0:0:0:0:
224,280,101844,1,8,0:0:0:0:
184,216,102031,1,2,0:0:0:0:
112,248,102219,2,0,L|72:184,1,70,8|2,0:0|0:0,0:0:0:0:
32,120,102594,1,0,0:0:0:0:
256,64,103156,6,0,L|320:96,1,70,6|0,0:0|0:0,0:0:0:0:
320,176,103531,2,0,L|256:208,1,70
184,240,103906,1,8,0:0:0:0:
104,248,104094,1,8,0:0:0:0:
48,192,104281,6,0,P|37:117|86:76,2,140,2|0|2,0:0|0:0|0:0,0:0:0:0:
136,320,105406,1,8,0:0:0:0:
216,328,105594,1,0,0:0:0:0:
256,328,105687,1,0,0:0:0:0:
296,320,105781,6,0,P|360:264|360:208,1,140,2|8,0:0|0:0,0:0:0:0:
304,160,106344,2,0,P|240:104|240:48,1,140,8|0,0:0|0:0,0:0:0:0:
312,32,106906,2,2,L|384:32,1,70,0|2,0:0|0:0,0:0:0:0:
424,184,107468,2,2,L|488:136,1,70,0|0,0:0|0:0,0:0:0:0:
504,216,107843,2,0,L|440:264,1,70,2|10,0:0|0:0,0:0:0:0:
384,296,108219,1,0,0:0:0:0:
312,320,108406,1,2,0:0:0:0:
232,312,108594,1,6,0:0:0:0:
112,216,108969,6,0,L|80:144,1,70,2|8,0:0|0:0,0:0:0:0:
160,136,109344,2,0,L|160:64,1,70,8|0,0:0|0:0,0:0:0:0:
240,80,109719,1,0,0:0:0:0:
312,64,109906,1,8,0:0:0:0:
384,96,110094,1,0,0:0:0:0:
440,152,110281,6,0,P|466:218|399:262,1,140,6|8,0:0|0:0,0:0:0:0:
368,320,110844,1,8,0:0:0:0:
352,248,111031,2,0,P|422:271|430:360,2,140,2|2|4,0:0|0:0|0:0,0:0:0:0:
200,280,112156,5,8,0:0:0:0:
128,296,112344,2,0,L|56:288,1,70,8|0,0:0|0:0,0:0:0:0:
56,208,112719,2,2,L|125:200,1,70,0|0,0:0|0:0,0:0:0:0:
200,208,113094,1,10,0:0:0:0:
256,192,113281,12,4,114828,0:0:0:0:
