osu file format v11

[General]
AudioFilename: End Time.mp3
AudioLeadIn: 1000
PreviewTime: 77334
Countdown: 0
SampleSet: Soft
StackLeniency: 0.4
Mode: 0
LetterboxInBreaks: 0

[Editor]
Bookmarks: 1335,13334,34668,38334,56001,77334,98668,109334,120001
DistanceSpacing: 0.7
BeatDivisor: 4
GridSize: 4

[Metadata]
Title:End Time
TitleUnicode:End Time
Artist:Cres
ArtistUnicode:Cres
Creator:Maddy
Version:Standard
Source:BMS
Tags:of Fighters 2006 ReQuiEm tRanCe Philippines -kevincela- Mr Color
BeatmapID:209618
BeatmapSetID:73474

[Difficulty]
HPDrainRate:3
CircleSize:4
OverallDifficulty:3
ApproachRate:5
SliderMultiplier:1.1
SliderTickRate:1

[Events]
//Background and Video events
0,0,"endtime.jpg"
//Break Periods
2,9541,12141
//Storyboard Layer 0 (Background)
//Storyboard Layer 1 (Fail)
//Storyboard Layer 2 (Pass)
//Storyboard Layer 3 (Foreground)
//Storyboard Sound Samples
//Background Colour Transformations
3,100,0,0,0

[TimingPoints]
1342,333.333333333333,4,2,0,100,1,0
1342,-200,4,2,0,50,0,0
13341,-100,4,1,0,50,0,0
13675,-100,4,1,0,70,0,0
32008,-100,4,2,0,100,0,1
33341,-100,4,2,0,75,0,1
34008,-100,4,2,0,50,0,1
34675,-200,4,2,0,100,0,0
35675,-200,4,2,0,70,0,0
56008,-100,4,2,0,100,0,0
56008,-100,4,2,0,100,0,0
77341,-100,4,2,0,75,0,0
78008,-100,4,2,0,60,0,0
78175,-100,4,2,0,75,0,0
78341,-100,4,2,0,90,0,0
78508,-100,4,2,0,100,0,0
78675,-100,4,2,0,75,0,0
79341,-100,4,2,0,60,0,0
79508,-100,4,2,0,75,0,0
79675,-100,4,2,0,90,0,0
79841,-100,4,2,0,100,0,0
80008,-100,4,2,0,75,0,0
80675,-100,4,2,0,60,0,0
80841,-100,4,2,0,75,0,0
81008,-100,4,2,0,90,0,0
81341,-100,4,2,0,100,0,0
82008,-100,4,2,0,90,0,0
82175,-100,4,2,0,75,0,0
82675,-100,4,2,0,75,0,0
83341,-100,4,2,0,60,0,0
83508,-100,4,2,0,75,0,0
83675,-100,4,2,0,90,0,0
83841,-100,4,2,0,100,0,0
84008,-100,4,2,0,75,0,0
85008,-100,4,2,0,75,0,0
85175,-100,4,2,0,90,0,0
85341,-100,4,2,0,100,0,0
86341,-100,4,2,0,90,0,0
86508,-100,4,2,0,75,0,0
87675,-100,4,2,0,100,0,0
88008,-100,4,2,0,75,0,0
89008,-100,4,2,0,80,0,0
89175,-100,4,2,0,100,0,0
89341,-100,4,2,0,75,0,0
90341,-100,4,2,0,80,0,0
90508,-100,4,2,0,100,0,0
90675,-100,4,2,0,75,0,0
91341,-100,4,2,0,50,0,0
91675,-100,4,2,0,65,0,0
91841,-100,4,2,0,80,0,0
92008,-100,4,2,0,100,0,0
93341,-100,4,2,0,75,0,0
94341,-100,4,2,0,50,0,0
94508,-100,4,2,0,80,0,0
94675,-100,4,2,0,75,0,0
95341,-100,4,2,0,60,0,0
95508,-100,4,2,0,75,0,0
95675,-100,4,2,0,90,0,0
95841,-100,4,2,0,100,0,0
96008,-100,4,2,0,75,0,0
97341,-100,4,2,0,50,0,0
98008,-100,4,2,0,15,0,0
98175,-100,4,2,0,75,0,0
98341,-100,4,2,0,90,0,0
98508,-100,4,2,0,100,0,0
98675,-100,4,2,0,100,0,1
107341,-100,4,2,0,75,0,1
108008,-100,4,2,0,100,0,1
109341,-100,4,2,0,100,0,0
117341,-100,4,2,0,80,0,0
117675,-100,4,2,0,65,0,0
118008,-100,4,2,0,50,0,0
118341,-100,4,2,0,35,0,0
118675,-100,4,1,0,35,0,0
119008,-100,4,1,0,50,0,0
119341,-100,4,1,0,75,0,0
119675,-100,4,1,0,100,0,0
120008,-200,4,2,0,50,0,0
124001,375,4,2,0,50,1,0
124001,-200,4,2,0,50,0,0
124751,400,4,2,0,50,1,0
125551,352.941176470588,4,2,0,50,1,0
125551,-200,4,2,0,50,0,0
126256,375,4,2,0,50,1,0
127024,428.571428571429,4,2,0,50,1,0
127024,-200,4,2,0,50,0,0
128756,500,4,2,0,50,1,0
128756,-200,4,2,0,50,0,0

[Colours]
Combo1 : 85,202,143
Combo2 : 126,192,214
Combo3 : 196,192,233

[HitObjects]
64,72,1342,6,0,P|80:120|136:144,1,110,2|0,0:0|0:0,0:0:0
200,128,2341,1,2,0:0:0
268,108,2675,2,2,P|296:104|336:120,1,55
348,176,3341,2,2,P|320:180|280:164,1,55
348,176,4008,6,0,P|340:296,1,110,2|0,0:0|0:0,0:0:0
296,340,5008,1,2,0:0:0
224,352,5341,2,2,P|196:360|168:356,1,55
136,292,6008,2,2,P|164:284|192:288,1,55
224,352,6675,5,2,0:0:0
396,124,8008,1,2,0:0:0
112,96,9341,1,2,0:0:0
284,76,13341,6,0,P|336:60|388:76,1,110,4|0,0:0|0:0,0:0:0
344,176,14008,2,0,P|292:192|240:176,1,110
212,152,14508,6,0,P|130:150|84:211,1,165,4|0,0:0|0:0,0:0:0
100,320,15341,1,0,0:0:0
200,368,15675,5,0,0:0:0
200,368,15841,2,0,P|232:375|256:355|280:324|256:284|232:323|256:355|280:375|312:368,1,165,4|0,0:0|0:0,0:0:0
412,320,16675,1,0,0:0:0
320,260,17008,5,0,0:0:0
320,260,17175,2,0,P|256:216|192:260,1,165,4|0,0:0|0:0,0:0:0
100,320,18008,1,0,0:0:0
44,224,18341,2,0,P|20:244|-4:248,2,55,0|4|0,0:0|0:0|0:0,0:0:0
92,124,19008,5,0,0:0:0
16,44,19341,2,0,P|64:16|128:24,1,110
148,40,19841,6,0,P|204:84|300:68,1,165,4|0,0:0|0:0,0:0:0
396,32,20675,1,0,0:0:0
444,132,21008,2,0,P|468:124|488:104,2,55,0|4|0,0:0|0:0|0:0,0:0:0
396,32,21675,5,0,0:0:0
292,72,22008,2,0,P|276:116|276:188,1,110
284,216,22508,6,0,P|224:244|128:196,1,165,4|0,0:0|0:0,0:0:0
144,100,23341,2,0,P|100:100|68:120,2,82.5
184,116,24008,5,0,0:0:0
256,32,24341,1,0,0:0:0
328,116,24675,2,0,P|372:136|440:116,1,110
448,88,25175,6,0,P|436:172|436:172|456:216|428:260,1,165,4|0,0:0|0:0,0:0:0
348,316,26008,1,0,0:0:0
244,276,26341,5,0,0:0:0
244,276,26508,2,0,P|280:216|368:208,1,165,4|0,0:0|0:0,0:0:0
348,316,27341,1,0,0:0:0
244,276,27675,5,0,0:0:0
244,276,27841,2,0,P|160:280|104:208,1,165,4|0,0:0|0:0,0:0:0
208,176,28675,1,0,0:0:0
140,92,29008,2,0,P|128:60|128:28,2,55,0|4|0,0:0|0:0|0:0,0:0:0
208,176,29675,5,0,0:0:0
316,160,30008,1,0,0:0:0
248,72,30341,1,0,0:0:0
208,176,30675,6,0,P|184:224|112:232,1,110
32,196,31341,2,0,P|56:148|128:140,1,110,0|0,0:0|0:0,0:0:0
208,176,32008,5,2,0:0:0
268,84,32341,1,2,0:0:0
168,40,32675,1,2,0:0:0
108,132,33008,2,2,P|76:128|48:116,1,55,2|0,0:0|0:0,0:0:0
256,192,33341,12,2,34675,0:0:0
140,272,35675,6,0,P|136:300,2,27.5,2|2|2,0:0|0:0|0:0,0:0:0
256,92,37008,2,0,P|256:56,2,27.5,2|2|2,0:0|0:0|0:0,0:0:0
372,272,38341,2,0,P|376:300,2,27.5,2|2|2,0:0|0:0|0:0,0:0:0
256,192,39341,1,2,0:0:0
140,272,40008,6,0,P|80:252|60:204,1,110,2|0,0:0|0:0,0:0:0
164,116,41341,2,0,P|224:136|244:184,1,110,2|2,0:0|0:0,0:0:0
256,316,42675,2,0,P|320:340|408:232,1,220,2|2,0:0|0:0,0:0:0
192,52,45341,6,2,P|152:84|156:144,1,110,2|2,0:0|0:0,0:0:0
268,224,46675,2,2,P|318:218|348:166,1,110,2|2,0:0|0:0,0:0:0
332,32,48008,5,2,0:0:0
256,308,49341,1,2,0:0:0
140,224,50008,1,2,0:0:0
32,316,50675,6,2,P|-8:252|20:164,1,165
84,156,52008,2,2,P|56:112|0:100,1,110
72,232,53341,5,2,0:0:0
340,332,54675,1,2,0:0:0
416,212,55341,2,2,P|418:183|408:152,1,55
332,104,56008,6,2,P|384:64|476:88,2,165,6|2|2,0:0|0:0|0:0,0:0:0
316,212,57341,2,2,P|254:189|226:98,2,165
416,168,58675,5,2,0:0:0
296,56,59175,2,2,P|216:24|148:68,1,165
228,140,60008,2,2,P|308:172|376:128,1,165,2|0,0:0|0:0,0:0:0
384,100,60675,2,2,P|400:212,1,110
360,312,61341,6,2,P|384:328|424:328|448:312|448:312|500:368,2,165,6|2|2,0:0|0:0|0:0,0:0:0
400,208,62675,2,2,P|376:192|336:192|312:208|312:208|260:152,2,165
360,312,64008,6,2,P|328:340|280:336|260:312|260:312|216:260,1,165
200,240,64675,2,2,P|144:224|96:248,1,110
51,344,65341,6,2,P|107:360|152:340,2,110
99,245,66341,1,2,0:0:0
36,156,66675,6,2,P|124:140|184:180,1,165,6|2,0:0|0:0,0:0:0
200,216,67341,2,2,P|192:160|216:112,1,110
312,64,68008,2,2,P|391:71|425:144,1,165
424,180,68675,1,2,0:0:0
320,172,69008,6,2,P|311:202|290:230,2,55
312,64,69675,1,2,0:0:0
212,108,70008,2,2,P|160:116|100:84,1,110
28,20,70675,2,2,P|0:80|32:172,1,165
29,169,71341,1,2,0:0:0
108,92,71675,2,2,P|124:64|128:36,2,55
72,252,72508,6,2,P|140:272|212:208,1,165
216,108,73341,2,2,P|298:137|317:205,1,165
304,240,74008,2,2,P|344:216|404:224,1,110
372,328,74675,6,2,P|300:352|216:296,1,165
208,280,75341,2,2,P|168:244|108:240,1,110
128,348,76008,5,2,0:0:0
232,380,76341,1,0,0:0:0
312,304,76675,1,2,0:0:0
268,204,77008,1,0,0:0:0
164,184,77341,6,2,P|196:112|280:100,1,165
312,112,78008,2,2,P|348:146|413:150,1,110
496,92,78675,6,2,P|459:57|402:51,1,110
312,112,79341,2,2,P|288:224,1,110
256,240,79841,1,2,0:0:0
223,219,80008,6,2,P|200:112,1,110
256,16,80675,1,2,0:0:0
312,112,81008,1,2,0:0:0
412,68,81341,6,2,P|432:120|412:172,1,110
372,272,82008,2,2,P|425:286|475:261,1,110
415,169,82675,6,2,P|332:164|272:224,1,165
256,248,83341,2,2,P|216:276|152:272,1,110
80,196,84008,6,2,P|120:168|184:172,2,110
88,308,85008,2,2,P|56:308|28:296,1,55
88,308,85341,6,2,P|128:344|188:348,2,110
172,236,86341,1,2,0:0:0
156,128,86675,5,2,0:0:0
256,84,87008,2,2,P|256:28,2,55
356,128,87675,1,2,0:0:0
340,236,88008,6,2,P|408:236|456:156,1,165
460,120,88675,2,2,P|444:72|396:40,1,110
288,40,89341,5,2,0:0:0
356,128,89675,1,2,0:0:0
308,228,90008,2,2,P|256:244|204:228,1,110
172,204,90508,1,2,0:0:0
144,180,90675,6,2,P|148:304,1,110
44,272,91341,2,2,P|40:148,1,110
112,76,92008,5,2,0:0:0
144,180,92341,1,2,0:0:0
252,156,92675,1,2,0:0:0
224,48,93008,1,2,0:0:0
112,76,93341,6,2,P|48:80|8:168,1,165
36,188,94008,2,2,P|24:304,1,110
124,344,94675,6,2,P|160:312|232:312,1,110
256,316,95175,1,2,0:0:0
292,307,95341,2,2,P|352:312|388:344,1,110
256,192,96008,12,2,98008,0:0:0
60,96,98675,6,2,P|94:140|195:103,1,165
202,80,99341,2,2,P|213:123|276:152,1,110
376,132,100008,5,2,0:0:0
304,48,100341,1,2,0:0:0
268,152,100675,2,2,P|256:280,1,110
236,292,101175,1,2,0:0:0
208,320,101341,6,2,P|160:340|100:312,1,110
48,228,102008,2,2,P|96:208|156:236,1,110
208,320,102675,5,2,0:0:0
308,272,103008,1,2,0:0:0
236,188,103341,2,2,P|264:160|308:156,2,82.5
212,220,104008,6,2,P|156:232|108:200,1,110
64,108,104675,1,2,0:0:0
172,120,105008,1,2,0:0:0
212,220,105341,6,2,P|200:340,1,110
310,329,106008,2,2,P|300:220,1,110
312,184,106508,1,2,0:0:0
348,168,106675,6,2,P|416:168|456:248,2,165
252,220,108008,2,2,P|196:232|148:204,1,110
120,184,108508,2,2,P|100:160|92:132,1,55
108,100,108841,2,2,P|164:88|212:116,1,110
232,144,109341,6,2,P|256:88|304:68,1,110
396,88,110008,1,2,0:0:0
456,172,110341,1,2,0:0:0
456,172,110508,2,2,P|382:194|309:141,1,165
396,88,111341,1,2,0:0:0
456,172,111675,1,2,0:0:0
456,172,111841,2,2,P|468:252|412:312,1,165
312,352,112675,6,2,P|264:320|208:316,1,110
176,324,113175,2,2,P|112:280|136:196,1,165
208,128,114008,2,2,P|200:64,1,55
312,76,114508,2,2,P|305:130,1,55
256,228,115008,5,2,0:0:0
208,328,115341,2,2,P|256:352|304:328,1,110
324,296,115841,2,2,P|395:248|470:293,1,165
404,372,116675,1,2,0:0:0
324,296,117008,1,2,0:0:0
216,320,117341,6,2,P|164:340|104:328,1,110
84,304,117841,1,2,0:0:0
64,272,118008,2,2,P|76:152,1,110
128,56,118675,5,0,0:0:0
236,108,119008,1,0,0:0:0
184,216,119341,1,0,0:0:0
76,164,119675,2,0,P|48:160|16:160,2,55,0|0|4,0:0|0:0|0:0,0:0:0
256,288,121008,5,2,0:0:0
324,316,121341,2,2,P|356:308|380:284,1,55
376,224,122008,2,2,P|397:226|425:244,1,55,2|2,0:0|0:0,0:0:0
444,312,122675,5,2,0:0:0
256,208,123675,1,2,0:0:0
204,260,124001,2,2,P|176:268|156:264,1,41.25
124,208,124563,2,2,P|120:172,1,27.5
140,112,125151,1,2,0:0:0
208,136,125551,6,0,P|266:133|312:100,1,110,2|0,0:0|0:0,0:0:0
428,64,127024,2,0,P|428:120|444:176,1,110,2|2,0:0|0:0,0:0:0
508,264,128756,5,2,0:0:0
