osu file format v11

[General]
AudioFilename: End Time.mp3
AudioLeadIn: 1000
PreviewTime: 77334
Countdown: 0
SampleSet: Soft
StackLeniency: 0.4
Mode: 0
LetterboxInBreaks: 0

[Editor]
Bookmarks: 1335,13334,34668,56001,77334,98668,109334,120001
DistanceSpacing: 1.2
BeatDivisor: 4
GridSize: 4

[Metadata]
Title:End Time
TitleUnicode:End Time
Artist:Cres
ArtistUnicode:Cres
Creator:Maddy
Version:Beginner
Source:BMS
Tags:of Fighters 2006 ReQuiEm tRanCe Philippines -kevincela- Mr Color
BeatmapID:209550
BeatmapSetID:73474

[Difficulty]
HPDrainRate:1
CircleSize:3
OverallDifficulty:2
ApproachRate:3
SliderMultiplier:0.799999999999999
SliderTickRate:1

[Events]
//Background and Video events
0,0,"endtime.jpg"
//Break Periods
2,10677,11901
//Storyboard Layer 0 (Background)
//Storyboard Layer 1 (Fail)
//Storyboard Layer 2 (Pass)
//Storyboard Layer 3 (Foreground)
//Storyboard Sound Samples
//Background Colour Transformations
3,100,0,0,0

[TimingPoints]
1342,333.333333333333,4,2,0,100,1,0
1342,-200,4,2,0,50,0,0
13341,-100,4,1,0,50,0,0
13675,-100,4,1,0,85,0,0
32008,-100,4,2,0,85,0,1
33341,-100,4,2,0,75,0,1
34008,-100,4,2,0,50,0,1
34675,-200,4,2,0,70,0,0
56008,-100,4,2,0,85,0,0
77341,-100,4,2,0,75,0,0
78008,-100,4,2,0,60,0,0
78175,-100,4,2,0,75,0,0
78341,-100,4,2,0,90,0,0
78508,-100,4,2,0,100,0,0
78675,-100,4,2,0,75,0,0
79341,-100,4,2,0,60,0,0
79508,-100,4,2,0,75,0,0
79675,-100,4,2,0,90,0,0
79841,-100,4,2,0,100,0,0
80008,-100,4,2,0,75,0,0
80675,-100,4,2,0,60,0,0
80841,-100,4,2,0,75,0,0
81008,-100,4,2,0,90,0,0
81341,-100,4,2,0,100,0,0
82008,-100,4,2,0,90,0,0
82175,-100,4,2,0,75,0,0
82675,-100,4,2,0,75,0,0
83341,-100,4,2,0,60,0,0
83508,-100,4,2,0,75,0,0
83675,-100,4,2,0,90,0,0
83841,-100,4,2,0,100,0,0
84008,-100,4,2,0,75,0,0
85008,-100,4,2,0,75,0,0
85175,-100,4,2,0,90,0,0
85341,-100,4,2,0,100,0,0
86341,-100,4,2,0,90,0,0
86508,-100,4,2,0,75,0,0
87675,-100,4,2,0,100,0,0
88008,-100,4,2,0,75,0,0
89008,-100,4,2,0,80,0,0
89175,-100,4,2,0,100,0,0
89341,-100,4,2,0,75,0,0
90341,-100,4,2,0,80,0,0
90508,-100,4,2,0,100,0,0
90675,-100,4,2,0,75,0,0
91341,-100,4,2,0,50,0,0
91675,-100,4,2,0,65,0,0
91841,-100,4,2,0,80,0,0
92008,-100,4,2,0,100,0,0
93341,-100,4,2,0,75,0,0
94341,-100,4,2,0,50,0,0
94508,-100,4,2,0,80,0,0
94675,-100,4,2,0,75,0,0
95341,-100,4,2,0,60,0,0
95508,-100,4,2,0,75,0,0
95675,-100,4,2,0,90,0,0
95841,-100,4,2,0,100,0,0
96008,-100,4,2,0,75,0,0
97341,-100,4,2,0,50,0,0
98008,-100,4,2,0,60,0,0
98175,-100,4,2,0,75,0,0
98341,-100,4,2,0,90,0,0
98508,-100,4,2,0,100,0,0
98675,-100,4,2,0,85,0,1
107341,-100,4,2,0,75,0,1
108008,-100,4,2,0,85,0,1
109341,-100,4,2,0,70,0,0
109508,-100,4,2,0,85,0,0
117341,-100,4,2,0,80,0,0
117675,-100,4,2,0,65,0,0
118008,-100,4,2,0,50,0,0
118341,-100,4,2,0,35,0,0
118675,-100,4,2,0,35,0,0
119008,-100,4,2,0,50,0,0
119341,-100,4,2,0,75,0,0
119675,-100,4,2,0,85,0,0
120008,-200,4,2,0,50,0,0
124001,375,4,2,0,50,1,0
124001,-200,4,2,0,50,0,0
124751,400,4,2,0,50,1,0
125551,352.941176470588,4,2,0,50,1,0
125551,-200,4,2,0,50,0,0
126256,375,4,2,0,50,1,0
127024,428.571428571429,4,2,0,50,1,0
127024,-200,4,2,0,50,0,0
128756,500,4,2,0,50,1,0
128756,-200,4,2,0,50,0,0
129256,-200,4,2,0,30,0,0
129756,-200,4,2,0,15,0,0

[Colours]
Combo1 : 85,202,143
Combo2 : 126,192,214
Combo3 : 196,192,233

[HitObjects]
112,104,1342,6,0,P|168:84|224:116,1,120,2|2,0:0|0:0,0:0:0
276,164,2675,2,0,P|404:148,1,120,2|2,0:0|0:0,0:0:0
468,180,4008,6,0,P|472:244|432:280,1,120,2|2,0:0|0:0,0:0:0
356,260,5341,2,0,P|292:256|232:280,1,120,2|2,0:0|0:0,0:0:0
160,284,6675,6,0,P|120:160,1,120,2|0,0:0|0:0,0:0:0
192,128,8008,2,0,P|232:252,1,120,2|0,0:0|0:0,0:0:0
304,272,9341,6,0,P|360:284|416:256,1,120,2|0,0:0|0:0,0:0:0
256,96,13341,6,0,P|192:136|112:112,2,160,4|8|0,0:0|0:0|0:0,0:0:0
348,64,15341,1,8,0:0:0
340,160,16008,2,0,P|368:328,2,160,0|8|0,0:0|0:0|0:0,0:0:0
252,120,18008,1,8,0:0:0
160,144,18675,6,0,P|96:188|16:164,2,160,0|8|0,0:0|0:0|0:0,0:0:0
188,52,20675,1,8,0:0:0
260,116,21341,2,0,P|324:84|412:84,1,160,0|8,0:0|0:0,0:0:0
384,176,22675,2,0,P|432:240|416:324,1,160,0|8,0:0|0:0,0:0:0
340,264,24008,6,0,P|288:236|288:236|184:236,2,160,0|8|0,0:0|0:0|0:0,0:0:0
272,332,26008,1,8,0:0:0
176,332,26675,2,0,P|96:332|96:332|52:332|24:304,1,160,0|8,0:0|0:0,0:0:0
36,208,28008,2,0,P|100:240|188:220,1,160,0|8,0:0|0:0,0:0:0
240,144,29341,6,0,P|288:212|248:296,2,160,8|8|8,0:0|0:0|0:0,0:0:0
144,136,31341,1,8,0:0:0
168,44,32008,6,2,P|200:56|264:56,2,79.9999999999999
88,100,33008,1,2,0:0:0
96,196,33341,2,2,P|84:240|96:280,2,79.9999999999999
180,136,34341,1,2,0:0:0
180,136,34675,6,0,P|200:122|216:104,1,40,2|0,0:0|0:0,0:0:0
316,152,35675,2,2,P|336:152|364:144,1,40
256,252,37008,6,2,P|236:266|220:284,1,40
124,176,38341,2,2,P|104:176|76:184,1,40
88,84,39341,6,2,P|152:80|176:92,1,79.9999999999999
356,76,41341,2,2,P|320:92|272:92,2,79.9999999999999
256,240,44008,1,2,0:0:0
80,164,45341,6,2,P|120:168|168:144,1,79.9999999999999
216,80,46675,2,2,P|248:160,1,79.9999999999999
340,160,48008,6,0,P|308:80,1,79.9999999999999,2|0,0:0|0:0,0:0:0
408,84,49341,2,0,P|440:108|484:120,1,79.9999999999999,2|2,0:0|0:0,0:0:0
428,200,50675,6,0,P|456:240|452:288,1,79.9999999999999,2|0,0:0|0:0,0:0:0
428,308,51675,2,0,P|388:320,1,40,2|2,0:0|0:0,0:0:0
316,256,52675,1,2,0:0:0
256,332,53341,6,0,P|208:336|148:320,2,79.9999999999999,2|0|2,0:0|0:0|0:0,0:0:0
216,244,55341,2,2,P|188:208,1,40
168,120,56008,6,0,P|244:96|316:136,1,160,4|0,0:0|0:0,0:0:0
360,212,57008,1,2,0:0:0
360,212,57341,2,0,P|400:136|376:64,1,160,4|0,0:0|0:0,0:0:0
284,60,58341,1,2,0:0:0
268,156,58675,6,0,P|172:160|172:160|104:140,1,160,4|0,0:0|0:0,0:0:0
152,56,59675,1,2,0:0:0
152,56,60008,2,0,P|68:56|16:116,1,160,4|0,0:0|0:0,0:0:0
110,141,61008,1,2,0:0:0
184,204,61341,6,0,P|196:284|152:356,1,160,4|0,0:0|0:0,0:0:0
104,264,62341,1,2,0:0:0
104,264,62675,2,0,P|264:308,1,160,4|0,0:0|0:0,0:0:0
348,344,63675,1,2,0:0:0
412,272,64008,6,0,P|408:192|448:112,1,160,4|0,0:0|0:0,0:0:0
344,116,65008,1,2,0:0:0
288,40,65341,2,0,P|208:68|128:56,1,160,4|0,0:0|0:0,0:0:0
48,20,66341,1,2,0:0:0
40,116,66675,6,0,P|36:204,2,79.9999999999999,4|0|0,0:0|0:0|0:0,0:0:0
128,156,67675,1,2,0:0:0
196,100,68008,2,0,P|248:172,2,79.9999999999999,4|0|0,0:0|0:0|0:0,0:0:0
248,20,69008,1,2,0:0:0
308,92,69341,6,0,P|384:120|456:96,1,160,4|0,0:0|0:0,0:0:0
472,192,70341,1,2,0:0:0
380,224,70675,2,0,P|376:264|392:304,2,79.9999999999999,4|0|0,0:0|0:0|0:0,0:0:0
396,128,71675,1,2,0:0:0
308,164,72008,6,0,P|232:184|144:184,1,160,4|0,0:0|0:0,0:0:0
60,156,73008,1,2,0:0:0
60,156,73341,2,0,P|88:324,1,160,4|0,0:0|0:0,0:0:0
176,344,74341,1,2,0:0:0
220,260,74675,6,2,P|256:252|308:260,2,79.9999999999999
124,264,75675,1,0,0:0:0
172,180,76008,2,2,P|172:140|196:100,2,79.9999999999999
268,164,77008,1,0,0:0:0
304,76,77341,6,2,P|340:72|388:80,2,79.9999999999999
208,88,78341,1,2,0:0:0
112,96,78675,2,2,P|64:88|32:68,2,79.9999999999999
208,88,79675,1,2,0:0:0
168,176,80008,6,2,P|180:264,2,79.9999999999999
260,204,81008,1,2,0:0:0
308,120,81341,2,2,P|388:108|476:148,1,160
412,220,82341,1,2,0:0:0
472,296,82675,6,2,P|432:320|392:316,2,79.9999999999999
412,220,83675,1,2,0:0:0
320,196,84008,2,2,P|312:240|328:280,2,79.9999999999999
388,128,85008,1,2,0:0:0
312,72,85341,6,2,P|228:88|144:80,1,160
64,52,86341,1,2,0:0:0
80,148,86675,2,2,P|96:232|76:316,1,160
172,336,87675,1,2,0:0:0
208,248,88008,6,2,P|248:244|296:260,2,79.9999999999999
136,184,89008,1,2,0:0:0
220,136,89341,2,2,P|260:140|308:124,2,79.9999999999999
252,44,90341,1,2,0:0:0
348,48,90675,6,2,P|440:48,1,79.9999999999999
404,140,91341,2,2,P|488:140,1,79.9999999999999
464,232,92008,1,2,0:0:0
424,320,92341,1,2,0:0:0
328,320,92675,1,2,0:0:0
296,228,93008,1,2,0:0:0
380,172,93341,6,2,P|376:128|356:92,2,79.9999999999999
380,268,94341,1,2,0:0:0
296,320,94675,2,2,P|252:328|212:312,2,79.9999999999999
260,232,95675,1,2,0:0:0
164,248,96008,6,2,P|144:168|176:96,2,160
240,308,97675,1,2,0:0:0
328,272,98008,2,2,P|360:256|408:256,1,79.9999999999999
476,192,98675,6,2,P|452:120|372:84,1,160,6|2,0:0|0:0,0:0:0
324,164,99675,1,2,0:0:0
228,148,100008,2,2,P|140:152|56:124,1,160
4,60,101008,1,2,0:0:0
100,40,101341,6,2,P|184:60|264:44,1,160
352,44,102341,1,2,0:0:0
420,112,102675,2,2,P|448:284,1,160
448,368,103675,1,2,0:0:0
360,316,104008,6,2,P|332:144,1,160
320,64,105008,1,2,0:0:0
244,124,105341,2,2,P|144:120|144:120|76:92,1,160
32,176,106341,1,2,0:0:0
120,216,106675,6,2,P|144:288|116:368,1,160
56,292,107675,1,2,0:0:0
56,292,108008,2,2,P|224:312,1,160
256,224,109008,1,2,0:0:0
220,136,109341,6,2,P|300:140|348:200,1,160,6|2,0:0|0:0,0:0:0
328,288,110341,1,0,0:0:0
256,224,110675,2,2,P|176:228|128:300,1,160
220,308,111675,1,0,0:0:0
316,304,112008,6,2,P|348:224|324:156,1,160
256,224,113008,1,0,0:0:0
184,156,113341,2,2,P|161:222|193:302,1,160
256,224,114341,1,0,0:0:0
256,224,114675,6,2,P|256:60,1,160
344,104,115675,1,0,0:0:0
432,64,116008,2,2,P|432:228,1,160,2|2,0:0|0:0,0:0:0
348,272,117008,1,0,0:0:0
260,308,117341,6,2,P|220:320|176:312,1,79.9999999999999
216,224,118008,2,2,P|224:188|216:140,1,79.9999999999999
132,100,118675,2,0,P|124:136|132:184,1,79.9999999999999
124,272,119341,1,0,0:0:0
212,316,119675,1,0,0:0:0
212,316,120008,6,2,P|272:328|336:308,1,120
320,232,121341,2,2,P|448:256,1,120
468,180,122675,6,2,P|464:116|424:80,1,120
356,72,124001,2,2,P|320:84|276:88,1,79.9999999999999
196,136,125151,1,2,0:0:0
108,104,125551,6,0,P|108:148|120:184,1,79.9999999999999,2|0,0:0|0:0,0:0:0
200,276,127024,6,0,P|160:356,1,79.9999999999999,2|2,0:0|0:0,0:0:0
346,348,128756,6,0,P|312:276,1,79.9999999999999,2|0,0:0|0:0,0:0:0
