osu file format v13

[General]
AudioFilename: End Time.mp3
AudioLeadIn: 1500
PreviewTime: 77341
Countdown: 0
SampleSet: Soft
StackLeniency: 0.7
Mode: 0
LetterboxInBreaks: 0
WidescreenStoryboard: 1

[Editor]
DistanceSpacing: 1.2
BeatDivisor: 4
GridSize: 4
TimelineZoom: 1

[Metadata]
Title:End Time
TitleUnicode:End Time
Artist:Cres
ArtistUnicode:Cres
Creator:Kyshiro
Version:Extra
Source:BMS
Tags:of fighters 2006 requiem trance ami
BeatmapID:432839
BeatmapSetID:140691

[Difficulty]
HPDrainRate:6
CircleSize:4.3
OverallDifficulty:8.5
ApproachRate:9.2
SliderMultiplier:1.6
SliderTickRate:1

[Events]
//Background and Video events
0,0,"IMG_06012014_212845.jpg",0,0
//Break Periods
//Storyboard Layer 0 (Background)
//Storyboard Layer 1 (Fail)
//Storyboard Layer 2 (Pass)
//Storyboard Layer 3 (Foreground)
Sprite,Foreground,Centre,"alex2.png",320,240 M,0,128756,,322,240 F,1,128756,129756,0,1 S,1,128756,131756,0.2610911,0.4298182 F,0,129756,131506,1 F,0,131506,131756,1,0
//Storyboard Sound Samples
//Background Colour Transformations
3,100,163,162,255

[TimingPoints]
1342,333.333333333333,4,2,1,100,1,0
1342,-200,4,2,1,50,0,0
2008,-200,4,2,1,5,0,0
2341,-200,4,2,1,50,0,0
4675,-200,4,2,1,5,0,0
5008,-200,4,2,1,50,0,0
7341,-200,4,2,1,5,0,0
8008,-200,4,2,1,50,0,0
8675,-200,4,2,1,5,0,0
9341,-200,4,2,1,50,0,0
9675,-200,4,2,1,45,0,0
10008,-200,4,2,1,40,0,0
10341,-200,4,2,1,30,0,0
10675,-200,4,2,1,20,0,0
11341,-200,4,2,1,5,0,0
11841,-200,4,2,0,50,0,0
13341,-100,4,2,0,80,0,0
35675,-200,4,2,1,50,0,0
36675,-200,4,2,1,5,0,0
37008,-200,4,2,1,50,0,0
38008,-200,4,2,1,5,0,0
38341,-200,4,2,1,50,0,0
40675,-200,4,2,1,5,0,0
41341,-200,4,2,1,50,0,0
41841,-200,4,2,1,5,0,0
42008,-200,4,2,1,50,0,0
42508,-200,4,2,1,5,0,0
42675,-200,4,2,1,50,0,0
43341,-200,4,2,1,5,0,0
44008,-200,4,2,1,50,0,0
44675,-200,4,2,1,5,0,0
45341,-200,4,2,1,50,0,0
49008,-200,4,2,1,5,0,0
49341,-200,4,2,1,50,0,0
51341,-200,4,2,1,5,0,0
51675,-200,4,2,1,50,0,0
52508,-200,4,2,1,5,0,0
52675,-200,4,2,1,50,0,0
53175,-200,4,2,1,5,0,0
53341,-200,4,2,1,50,0,0
54008,-200,4,2,1,5,0,0
54675,-200,4,2,0,50,0,0
55341,-100,4,2,0,50,0,0
77341,-100,4,2,0,80,0,1
109341,-100,4,2,0,80,0,0
121008,-200,4,2,1,50,0,0
123341,-200,4,2,1,5,0,0
123675,-200,4,2,1,50,0,0
124001,375,4,2,1,50,1,0
124001,-200,4,2,1,50,0,0
124751,400,4,2,1,50,1,0
125551,352.941176470588,4,2,1,50,1,0
125551,-200,4,2,1,50,0,0
125639,-200,4,2,1,20,0,0
126256,375,4,2,1,5,1,0
126537,-100,4,2,1,5,0,0
127024,428.571428571429,4,2,1,50,1,0
127024,-200,4,2,1,50,0,0
128756,500,4,2,1,50,1,0
128756,-133.333333333333,4,2,1,50,0,0
129256,-133.333333333333,4,2,1,40,0,0
129756,-133.333333333333,4,2,1,30,0,0
130256,-133.333333333333,4,2,1,20,0,0
130756,-133.333333333333,4,2,1,15,0,0
131256,-133.333333333333,4,2,1,10,0,0

[Colours]
Combo1 : 114,141,184
Combo2 : 101,186,167
Combo3 : 193,232,231
Combo4 : 142,172,170

[HitObjects]
24,188,1342,6,0,P|100:256|156:248,1,160,2|0,0:0|0:0,0:0:0:0:
248,176,2341,2,0,L|256:96,2,80,0|2|0,0:0|0:0|0:0,0:0:0:0:
348,240,3341,2,0,L|340:320,1,80,2|0,0:0|0:0,0:0:0:0:
340,319,4008,2,0,B|262:350|262:287|184:319,1,160,2|0,0:0|0:0,0:0:0:0:
93,240,5008,6,0,P|82:209|89:162,2,80,0|2|0,0:0|0:0|0:0,0:0:0:0:
155,117,6008,2,0,P|124:91|86:82,1,80,2|0,0:0|0:0,0:0:0:0:
168,200,6675,2,0,B|208:192|231:155|231:155|252:192|296:200,1,160,2|0,0:0|0:0,0:0:0:0:
433,114,8008,2,0,B|393:122|370:159|370:159|349:122|306:114,1,160,2|0,0:0|0:0,0:0:0:0:
68,228,9341,6,0,P|236:348|452:228,1,480,2|0,0:0|0:0,0:0:0:0:
256,192,11841,12,4,13341,1:0:0:0:
60,116,13508,5,0,0:0:0:0:
77,194,13675,1,2,0:0:0:0:
135,248,13841,1,0,0:0:0:0:
213,263,14008,1,2,0:0:0:0:
289,238,14175,1,0,0:0:0:0:
338,175,14341,1,2,0:0:0:0:
341,94,14508,1,2,0:0:0:0:
289,238,14675,6,0,P|300:291|330:318,1,80,0|0,1:0|0:0,0:0:0:0:
416,107,15008,2,0,P|405:54|375:27,1,80,2|0,0:0|0:0,0:0:0:0:
178,47,15341,1,2,0:0:0:0:
162,125,15508,1,0,0:0:0:0:
241,140,15675,1,2,0:0:0:0:
256,63,15841,1,2,0:0:0:0:
78,30,16008,6,0,L|-4:14,1,80,0|0,1:0|0:0,0:0:0:0:
7,189,16341,2,0,L|88:173,1,80,2|0,0:0|0:0,0:0:0:0:
241,140,16675,1,2,0:0:0:0:
300,192,16841,1,0,0:0:0:0:
308,271,17008,1,2,0:0:0:0:
262,337,17175,1,2,0:0:0:0:
120,344,17341,6,0,P|107:306|117:262,1,80,0|0,1:0|0:0,0:0:0:0:
308,94,17675,2,0,P|321:132|311:176,1,80,2|0,0:0|0:0,0:0:0:0:
110,192,18008,2,0,L|58:128,1,80,2|0,0:0|0:0,0:0:0:0:
310,234,18341,2,0,L|362:298,1,80,2|2,0:0|0:0,0:0:0:0:
512,168,18675,5,0,1:0:0:0:
440,202,18841,1,0,0:0:0:0:
363,176,19008,1,2,0:0:0:0:
334,100,19175,1,0,0:0:0:0:
372,30,19341,2,0,L|464:21,1,80,2|0,0:0|0:0,0:0:0:0:
363,176,19675,2,0,L|271:167,1,80,2|2,0:0|0:0,0:0:0:0:
123,109,20008,5,0,1:0:0:0:
59,158,20175,1,0,0:0:0:0:
49,237,20341,1,2,0:0:0:0:
86,307,20508,1,0,0:0:0:0:
160,337,20675,2,0,P|203:337|238:321,1,80,2|0,0:0|0:0,0:0:0:0:
357,235,21008,2,0,P|320:219|280:220,1,80,2|2,0:0|0:0,0:0:0:0:
374,343,21341,6,0,L|455:333,1,80,0|0,1:0|0:0,0:0:0:0:
492,159,21675,2,0,L|411:169,1,80,2|0,0:0|0:0,0:0:0:0:
258,188,22008,1,2,0:0:0:0:
183,221,22174,1,0,0:0:0:0:
218,293,22342,1,2,0:0:0:0:
291,260,22508,1,2,0:0:0:0:
183,221,22675,6,0,L|94:220,1,80,0|0,1:0|0:0,0:0:0:0:
65,56,23008,1,2,0:0:0:0:
155,87,23175,1,0,1:0:0:0:
233,34,23341,2,0,P|251:47|279:53,1,40,2|0,0:0|1:0,0:0:0:0:
406,125,23591,2,0,P|387:131|371:143,1,40,2|0,0:0|1:0,0:0:0:0:
291,260,23841,1,2,0:0:0:0:
291,260,23925,1,0,0:0:0:0:
291,260,24008,1,0,1:0:0:0:
339,323,24175,5,0,0:0:0:0:
415,296,24342,1,2,0:0:0:0:
412,216,24507,1,0,0:0:0:0:
334,194,24675,1,2,0:0:0:0:
291,261,24841,1,0,0:0:0:0:
216,291,25008,1,2,0:0:0:0:
136,279,25175,1,2,0:0:0:0:
42,175,25341,6,0,P|29:133|36:96,1,80,0|0,1:0|0:0,0:0:0:0:
211,36,25675,2,0,P|224:78|217:115,1,80,2|0,0:0|0:0,0:0:0:0:
267,285,26008,2,0,P|254:243|261:206,1,80,2|0,0:0|0:0,0:0:0:0:
444,293,26341,1,2,0:0:0:0:
367,314,26507,1,2,0:0:0:0:
267,285,26675,5,0,1:0:0:0:
190,306,26841,1,0,0:0:0:0:
54,212,27008,1,2,0:0:0:0:
131,233,27174,1,0,0:0:0:0:
190,178,27341,1,2,0:0:0:0:
172,99,27508,1,0,0:0:0:0:
112,154,27675,1,2,0:0:0:0:
208,256,27841,1,2,0:0:0:0:
308,152,28008,6,0,P|317:103|301:68,1,80,0|0,1:0|0:0,0:0:0:0:
208,256,28341,2,0,P|199:305|215:340,1,80,2|0,0:0|0:0,0:0:0:0:
298,366,28675,2,0,L|380:358,1,80,2|0,0:0|0:0,0:0:0:0:
162,136,29008,1,2,0:0:0:0:
162,136,29175,1,2,0:0:0:0:
32,90,29341,5,0,1:0:0:0:
102,24,29508,1,0,0:0:0:0:
198,19,29675,1,2,0:0:0:0:
280,68,29841,1,0,0:0:0:0:
299,162,30008,2,0,P|297:213|271:247,1,80,2|0,0:0|0:0,0:0:0:0:
173,358,30341,2,0,P|154:322|156:283,1,80,2|2,0:0|0:0,0:0:0:0:
208,134,30675,5,0,1:0:0:0:
208,134,30841,1,0,0:0:0:0:
299,162,31008,1,2,0:0:0:0:
299,162,31175,1,0,0:0:0:0:
271,253,31341,1,2,0:0:0:0:
271,253,31508,1,0,0:0:0:0:
180,225,31675,1,2,0:0:0:0:
180,225,31842,1,2,0:0:0:0:
117,152,32008,6,0,L|109:108,1,40,2|0,0:0|0:0,0:0:0:0:
46,231,32175,2,0,L|54:275,1,40,2|0,0:0|0:0,0:0:0:0:
101,142,32341,6,0,L|78:103,1,40,2|0,0:0|0:0,0:0:0:0:
61,240,32508,2,0,L|84:279,1,40,2|0,0:0|0:0,0:0:0:0:
83,138,32675,6,0,L|48:109,1,40,2|0,0:0|0:0,0:0:0:0:
79,244,32842,2,0,L|114:273,1,40,2|0,0:0|0:0,0:0:0:0:
65,141,33008,6,0,L|22:125,1,40,2|0,0:0|0:0,0:0:0:0:
97,241,33175,2,0,L|140:257,1,40,2|0,0:0|0:0,0:0:0:0:
222,209,33341,5,2,0:0:0:0:
245,194,33424,1,0,0:0:0:0:
271,182,33507,1,2,0:0:0:0:
298,175,33591,1,0,0:0:0:0:
326,172,33675,1,2,0:0:0:0:
354,173,33757,1,0,0:0:0:0:
381,178,33841,1,2,0:0:0:0:
407,187,33924,1,0,0:0:0:0:
432,200,34007,1,2,0:0:0:0:
455,217,34091,1,0,0:0:0:0:
475,237,34174,1,2,0:0:0:0:
491,259,34257,1,0,0:0:0:0:
503,284,34341,2,0,L|509:313,8,20,2|0|0|0|0|0|0|0|4,0:0|0:0|0:0|0:0|0:0|0:0|0:0|0:0|0:0,0:0:0:0:
121,293,35675,5,2,0:0:0:0:
71,353,35841,1,0,0:0:0:0:
121,293,36008,2,0,B|137:188|137:188|121:131,1,160,2|0,0:0|0:0,0:0:0:0:
285,42,37008,5,2,0:0:0:0:
341,99,37175,1,0,0:0:0:0:
411,61,37341,2,0,B|433:30|470:29|496:50|500:78|500:78|507:133,1,160,2|0,0:0|0:0,0:0:0:0:
221,329,38341,5,2,0:0:0:0:
143,309,38508,1,0,0:0:0:0:
64,290,38675,2,0,P|31:236|68:149,1,160,2|0,0:0|0:0,0:0:0:0:
202,51,40008,2,0,P|235:105|198:192,1,160,2|0,0:0|0:0,0:0:0:0:
325,295,41341,6,0,L|444:283,1,120,2|0,0:0|0:0,0:0:0:0:
489,217,42008,2,0,P|499:178|463:108,1,120,2|0,0:0|0:0,0:0:0:0:
388,83,42675,2,0,P|352:113|238:91,1,160,2|0,0:0|0:0,0:0:0:0:
23,279,44008,2,0,P|59:249|173:271,1,160
405,318,45341,5,2,0:0:0:0:
443,80,46008,1,0,0:0:0:0:
219,167,46675,1,2,0:0:0:0:
356,187,47341,1,0,0:0:0:0:
305,67,48008,6,0,P|255:40|99:109,1,240,2|0,0:0|0:0,0:0:0:0:
219,167,49341,2,0,B|339:162|339:162|379:144,1,160,2|0,0:0|0:0,0:0:0:0:
155,103,50675,2,0,P|130:151|175:247,1,160,2|0,0:0|0:0,0:0:0:0:
361,263,51675,5,0,0:0:0:0:
417,319,51841,1,0,0:0:0:0:
340,341,52008,2,0,L|219:332,1,120,2|0,0:0|0:0,0:0:0:0:
160,279,52675,2,0,P|112:258|44:284,1,120,2|0,0:0|0:0,0:0:0:0:
105,339,53341,2,0,B|106:219|106:219|88:173,1,160,2|0,0:0|0:0,0:0:0:0:
92,182,54675,1,2,0:0:0:0:
92,182,55341,5,2,0:0:0:0:
108,218,55424,1,0,0:0:0:0:
133,249,55507,1,2,0:0:0:0:
166,272,55591,1,0,0:0:0:0:
203,285,55674,1,2,0:0:0:0:
243,288,55757,1,0,0:0:0:0:
282,280,55841,1,2,0:0:0:0:
318,262,55924,1,0,0:0:0:0:
347,235,56008,6,0,P|368:190|367:161,1,80,4|0,3:0|0:0,0:0:0:0:
254,60,56341,1,0,0:0:0:0:
111,107,56508,2,0,P|90:152|91:181,1,80,2|0,0:0|0:0,0:0:0:0:
203,285,56841,1,0,0:0:0:0:
203,285,57008,2,0,L|284:280,1,80,2|0,0:0|0:0,0:0:0:0:
429,235,57341,5,4,3:0:0:0:
429,235,57508,2,0,P|456:179|415:88,1,160
354,25,58008,2,0,P|327:81|368:172,1,160,2|2,0:0|0:0,0:0:0:0:
336,198,58425,1,0,0:0:0:0:
296,196,58508,1,2,0:0:0:0:
256,195,58591,1,0,0:0:0:0:
216,194,58675,1,4,3:0:0:0:
135,246,58841,6,0,B|132:288|132:288|105:326,1,80,2|0,0:0|0:0,0:0:0:0:
34,212,59175,1,0,0:0:0:0:
34,212,59341,2,0,B|37:170|37:170|64:132,1,80,2|0,0:0|0:0,0:0:0:0:
235,102,59675,1,2,0:0:0:0:
141,87,59841,1,2,0:0:0:0:
292,178,60008,1,4,3:0:0:0:
331,179,60091,1,0,0:0:0:0:
368,163,60175,1,2,0:0:0:0:
393,132,60258,1,0,0:0:0:0:
481,78,60425,6,0,L|476:37,1,40,2|0,0:0|0:0,0:0:0:0:
313,59,60675,2,0,L|318:100,1,40,2|0,0:0|0:0,0:0:0:0:
231,142,60841,2,0,L|235:102,1,40,2|0,0:0|0:0,0:0:0:0:
196,34,61008,2,0,P|153:11|79:43,1,120,2|0,0:0|0:0,0:0:0:0:
60,67,61341,5,4,3:0:0:0:
56,161,61508,1,0,0:0:0:0:
56,161,61591,2,0,P|105:192|139:189,1,80,2|0,0:0|0:0,0:0:0:0:
196,165,61841,2,0,P|235:170|265:196,1,80,2|0,0:0|0:0,0:0:0:0:
327,238,62091,2,0,L|411:228,1,80,2|0,0:0|0:0,0:0:0:0:
444,235,62341,1,2,0:0:0:0:
443,333,62508,1,2,0:0:0:0:
348,351,62675,6,0,P|306:355|267:333,1,80,4|0,3:0|0:0,0:0:0:0:
249,299,62925,1,2,0:0:0:0:
211,210,63091,1,0,0:0:0:0:
211,210,63175,2,0,P|169:206|130:228,1,80,2|0,0:0|0:0,0:0:0:0:
112,262,63425,1,2,0:0:0:0:
13,38,63675,5,2,0:0:0:0:
85,100,63841,1,0,0:0:0:0:
180,108,64008,2,0,P|234:91|252:72,1,80,4|0,3:0|0:0,0:0:0:0:
273,36,64258,1,2,0:0:0:0:
349,94,64425,1,0,0:0:0:0:
349,94,64508,1,2,0:0:0:0:
434,49,64675,1,0,0:0:0:0:
434,49,64758,1,2,0:0:0:0:
508,110,64925,1,0,0:0:0:0:
508,110,65008,2,0,L|502:204,1,80,2|0,0:0|0:0,0:0:0:0:
428,298,65341,6,0,P|389:309|355:287,1,80,4|0,3:0|0:0,0:0:0:0:
322,224,65591,2,0,P|283:213|249:235,1,80,2|0,0:0|0:0,0:0:0:0:
252,232,65841,2,0,L|248:276,1,40,2|0,0:0|0:0,0:0:0:0:
188,198,66008,2,0,P|154:217|116:206,1,80,2|0,0:0|0:0,0:0:0:0:
44,142,66341,1,2,0:0:0:0:
26,236,66508,1,0,0:0:0:0:
87,310,66675,6,0,L|171:308,1,80,4|0,3:0|0:0,0:0:0:0:
229,341,66925,2,0,L|313:339,1,80,2|0,0:0|0:0,0:0:0:0:
376,366,67175,1,2,0:0:0:0:
474,272,67341,2,0,P|444:238|402:229,1,80,0|0,0:0|0:0,0:0:0:0:
210,117,67675,2,0,P|240:151|282:160,1,80,2|0,0:0|0:0,0:0:0:0:
243,43,68008,6,0,P|186:39|159:53,1,80,4|0,3:0|0:0,0:0:0:0:
134,84,68258,2,0,P|128:133|141:165,1,80,2|0,0:0|0:0,0:0:0:0:
151,207,68508,2,0,L|121:290,2,80,2|0|0,0:0|0:0|0:0,0:0:0:0:
246,199,69008,2,0,L|276:116,1,80,2|0,0:0|0:0,0:0:0:0:
357,77,69341,6,0,P|400:93|433:173,1,120,4|0,3:0|0:0,0:0:0:0:
433,204,69675,2,0,B|394:286|394:286|392:322,1,120,2|0,0:0|0:0,0:0:0:0:
357,282,70008,2,0,B|347:262|347:262|330:248,1,40,2|0,0:0|0:0,0:0:0:0:
161,177,70258,1,2,0:0:0:0:
161,177,70341,2,0,P|119:199|78:192,1,80
191,82,70675,6,0,L|275:90,1,80,4|0,3:0|0:0,0:0:0:0:
307,120,70925,1,2,0:0:0:0:
307,120,71008,1,0,0:0:0:0:
400,96,71175,1,0,0:0:0:0:
424,189,71342,1,2,0:0:0:0:
377,200,71425,1,0,0:0:0:0:
331,213,71509,1,0,0:0:0:0:
236,227,71675,1,2,0:0:0:0:
167,160,71841,1,0,0:0:0:0:
167,160,72008,6,0,P|101:125|23:165,1,160,4|0,3:0|0:0,0:0:0:0:
28,263,72508,2,0,P|94:298|172:258,1,160,2|0,0:0|0:0,0:0:0:0:
262,273,73008,2,0,L|216:352,1,80,2|0,0:0|0:0,0:0:0:0:
262,273,73341,6,0,B|340:242|340:305|418:273,1,160,4|0,3:0|0:0,0:0:0:0:
444,177,73841,1,0,0:0:0:0:
444,177,74008,2,0,P|396:187|377:214,1,80,2|0,0:0|0:0,0:0:0:0:
300,106,74341,2,0,P|273:77|234:72,1,80,2|0,0:0|0:0,0:0:0:0:
148,28,74675,5,4,3:0:0:0:
78,93,74841,1,0,0:0:0:0:
78,93,74925,1,2,0:0:0:0:
110,182,75091,1,0,0:0:0:0:
110,182,75175,1,2,0:0:0:0:
204,198,75341,1,0,0:0:0:0:
204,198,75425,1,0,0:0:0:0:
204,198,75508,1,2,0:0:0:0:
272,130,75675,1,0,0:0:0:0:
272,130,75758,1,0,0:0:0:0:
272,130,75841,1,2,0:0:0:0:
366,114,76008,6,0,P|421:124|437:140,1,80,4|0,3:0|0:0,0:0:0:0:
452,185,76258,2,0,P|437:238|419:253,1,80,2|0,0:0|0:0,0:0:0:0:
372,257,76508,2,0,L|279:246,1,80,2|2,0:0|0:0,0:0:0:0:
252,246,76758,1,0,0:0:0:0:
212,248,76841,1,2,0:0:0:0:
180,272,76925,1,0,0:0:0:0:
166,309,77008,1,2,0:0:0:0:
316,342,77175,1,2,0:0:0:0:
335,191,77341,5,4,1:0:0:0:
322,152,77425,1,0,0:0:0:0:
298,119,77508,1,0,0:0:0:0:
269,90,77591,1,0,0:0:0:0:
231,75,77675,1,2,0:0:0:0:
191,67,77758,1,0,0:0:0:0:
151,62,77841,1,0,0:0:0:0:
111,71,77925,1,0,0:0:0:0:
74,87,78008,2,0,P|58:102|44:125,1,40,2|0,0:0|0:0,0:0:0:0:
110,167,78175,2,0,P|107:188|111:215,1,40
190,225,78341,2,0,P|201:243|222:261,1,40,2|0,0:0|0:0,0:0:0:0:
275,203,78508,2,0,P|295:209|322:209,1,40,2|0,0:0|0:0,0:0:0:0:
420,173,78675,5,4,1:0:0:0:
459,170,78758,1,0,0:0:0:0:
494,188,78841,1,0,0:0:0:0:
511,224,78925,1,0,0:0:0:0:
507,263,79008,1,2,0:0:0:0:
486,297,79091,1,0,0:0:0:0:
447,307,79175,1,0,0:0:0:0:
408,297,79258,1,0,0:0:0:0:
370,282,79341,1,2,0:0:0:0:
331,270,79425,1,0,0:0:0:0:
291,271,79508,1,0,0:0:0:0:
252,279,79591,1,0,0:0:0:0:
219,302,79675,2,0,P|207:323|204:344,1,40,2|0,0:0|0:0,0:0:0:0:
142,263,79841,2,0,P|137:243|127:226,1,40,2|0,0:0|0:0,0:0:0:0:
38,122,80008,5,4,1:0:0:0:
73,141,80091,1,0,0:0:0:0:
112,146,80175,1,0,0:0:0:0:
151,143,80258,1,0,0:0:0:0:
188,129,80341,1,2,0:0:0:0:
221,105,80425,1,0,0:0:0:0:
248,76,80508,1,0,0:0:0:0:
270,43,80591,1,0,0:0:0:0:
282,4,80675,1,2,0:0:0:0:
298,40,80758,1,0,0:0:0:0:
329,64,80841,1,0,0:0:0:0:
367,76,80925,1,0,0:0:0:0:
406,79,81008,2,0,L|460:73,1,40,2|0,0:0|0:0,0:0:0:0:
494,158,81175,2,0,L|440:152,1,40,2|0,0:0|0:0,0:0:0:0:
370,181,81341,5,4,1:0:0:0:
333,199,81425,1,0,0:0:0:0:
309,230,81508,1,0,0:0:0:0:
294,267,81591,1,0,0:0:0:0:
270,234,81675,1,2,0:0:0:0:
239,208,81758,1,0,0:0:0:0:
204,187,81841,1,0,0:0:0:0:
163,182,81925,1,0,0:0:0:0:
153,220,82008,1,2,0:0:0:0:
131,253,82091,1,0,0:0:0:0:
100,279,82175,1,0,0:0:0:0:
63,295,82258,1,0,0:0:0:0:
23,297,82341,2,0,L|4:341,1,40,2|0,0:0|0:0,0:0:0:0:
0,224,82508,2,0,L|19:180,1,40,2|0,0:0|0:0,0:0:0:0:
79,120,82675,5,4,1:0:0:0:
115,104,82758,1,0,0:0:0:0:
154,103,82841,1,0,0:0:0:0:
191,117,82925,1,0,0:0:0:0:
218,145,83008,1,2,0:0:0:0:
236,180,83091,1,0,0:0:0:0:
263,208,83174,1,0,0:0:0:0:
300,222,83258,1,0,0:0:0:0:
339,221,83341,2,0,P|361:209|378:194,1,40,2|0,0:0|0:0,0:0:0:0:
469,212,83508,2,0,P|457:190|442:173,1,40
462,86,83675,2,0,P|440:98|423:113,1,40,2|0,0:0|0:0,0:0:0:0:
332,95,83841,2,0,P|344:117|359:134,1,40,2|0,0:0|0:0,0:0:0:0:
398,303,84008,5,4,1:0:0:0:
368,329,84091,1,0,0:0:0:0:
332,347,84174,1,0,0:0:0:0:
293,354,84257,1,0,0:0:0:0:
253,351,84341,1,2,0:0:0:0:
216,337,84424,1,0,0:0:0:0:
183,314,84507,1,0,0:0:0:0:
158,283,84591,1,0,0:0:0:0:
142,247,84674,1,2,0:0:0:0:
136,207,84757,1,0,0:0:0:0:
141,168,84841,1,0,0:0:0:0:
157,131,84924,1,0,0:0:0:0:
181,100,85008,2,0,P|208:80|229:75,1,40,2|0,0:0|0:0,0:0:0:0:
320,112,85175,2,0,P|293:132|272:137,1,40,2|0,0:0|0:0,0:0:0:0:
221,191,85341,5,4,1:0:0:0:
181,174,85425,1,0,0:0:0:0:
141,168,85508,1,0,0:0:0:0:
102,175,85591,1,0,0:0:0:0:
67,196,85675,1,2,0:0:0:0:
45,229,85758,1,0,0:0:0:0:
35,267,85841,1,0,0:0:0:0:
40,306,85925,1,0,0:0:0:0:
55,342,86008,2,0,L|96:374,1,40,2|0,0:0|0:0,0:0:0:0:
158,318,86175,2,0,L|199:350,1,40
263,295,86341,2,0,L|304:327,1,40,2|0,0:0|0:0,0:0:0:0:
366,271,86508,2,0,L|407:303,1,40,2|0,0:0|0:0,0:0:0:0:
483,213,86675,5,4,1:0:0:0:
481,173,86758,1,0,0:0:0:0:
460,139,86841,1,0,0:0:0:0:
427,114,86925,1,0,0:0:0:0:
389,100,87008,1,2,0:0:0:0:
367,133,87091,1,0,0:0:0:0:
334,157,87175,1,0,0:0:0:0:
295,166,87258,1,0,0:0:0:0:
256,157,87341,1,2,0:0:0:0:
246,117,87425,1,0,0:0:0:0:
220,86,87508,1,0,0:0:0:0:
183,69,87591,1,0,0:0:0:0:
145,65,87675,1,2,0:0:0:0:
106,75,87758,1,0,0:0:0:0:
77,102,87841,1,2,0:0:0:0:
62,139,87925,1,0,0:0:0:0:
61,178,88008,6,0,L|65:226,3,40,4|0|0|0,1:0|0:0|0:0|0:0,0:0:0:0:
141,280,88341,2,0,L|144:240,3,40,2|0|0|0,0:0|0:0|0:0|0:0,0:0:0:0:
185,144,88675,1,2,0:0:0:0:
218,123,88758,1,0,0:0:0:0:
257,118,88841,1,0,0:0:0:0:
294,133,88925,1,0,0:0:0:0:
321,161,89008,2,0,L|322:213,1,40,2|0,0:0|0:0,0:0:0:0:
393,235,89175,2,0,L|394:287,1,40,2|0,0:0|0:0,0:0:0:0:
488,197,89341,5,4,1:0:0:0:
472,160,89424,1,0,0:0:0:0:
451,126,89507,1,0,0:0:0:0:
425,96,89590,1,0,0:0:0:0:
394,70,89674,1,2,0:0:0:0:
359,51,89758,1,0,0:0:0:0:
322,37,89840,1,0,0:0:0:0:
282,29,89924,1,0,0:0:0:0:
242,28,90007,1,2,0:0:0:0:
203,34,90090,1,0,0:0:0:0:
165,46,90174,1,0,0:0:0:0:
129,64,90257,1,0,0:0:0:0:
97,88,90341,2,0,L|46:97,1,40,2|0,0:0|0:0,0:0:0:0:
0,186,90508,2,0,L|51:194,1,40,2|0,0:0|0:0,0:0:0:0:
101,268,90675,6,0,P|104:297|100:317,1,40,4|0,1:0|0:0,0:0:0:0:
196,270,90841,2,0,P|209:296|212:316,1,40,0|0,0:0|0:0,0:0:0:0:
283,235,91008,2,0,P|304:255|314:273,1,40,2|0,0:0|0:0,0:0:0:0:
357,174,91174,2,0,P|384:186|399:199,1,40,0|0,0:0|0:0,0:0:0:0:
497,120,91341,1,2,0:0:0:0:
475,85,91425,1,0,0:0:0:0:
441,64,91508,1,0,0:0:0:0:
403,50,91591,1,0,0:0:0:0:
362,50,91675,1,2,0:0:0:0:
325,67,91758,1,0,0:0:0:0:
289,85,91841,1,2,0:0:0:0:
249,91,91925,1,0,0:0:0:0:
210,79,92008,6,0,P|193:69|176:48,3,40,4|0|0|0,1:0|0:0|0:0|0:0,0:0:0:0:
94,68,92341,2,0,P|80:53|63:43,3,40,2|0|0|0,0:0|0:0|0:0|0:0,0:0:0:0:
29,119,92675,1,2,0:0:0:0:
32,158,92758,1,0,0:0:0:0:
58,188,92841,1,0,0:0:0:0:
96,199,92925,1,0,0:0:0:0:
135,196,93008,1,2,0:0:0:0:
169,176,93091,1,0,0:0:0:0:
208,169,93175,2,0,P|236:179|252:197,1,40,2|0,0:0|0:0,0:0:0:0:
323,258,93341,5,4,1:0:0:0:
347,226,93425,1,0,0:0:0:0:
385,214,93509,1,0,0:0:0:0:
421,230,93592,1,0,0:0:0:0:
443,262,93675,1,2,0:0:0:0:
444,302,93759,1,0,0:0:0:0:
423,335,93842,1,0,0:0:0:0:
387,352,93925,1,0,0:0:0:0:
348,337,94009,1,2,0:0:0:0:
322,306,94092,1,0,0:0:0:0:
291,280,94175,1,0,0:0:0:0:
254,265,94258,1,0,0:0:0:0:
214,261,94341,1,2,0:0:0:0:
174,268,94425,1,0,0:0:0:0:
142,292,94508,2,0,P|127:310|120:334,1,40,2|0,0:0|0:0,0:0:0:0:
44,261,94675,5,4,1:0:0:0:
48,221,94758,1,0,0:0:0:0:
60,183,94841,1,0,0:0:0:0:
80,148,94924,1,0,0:0:0:0:
106,118,95008,1,2,0:0:0:0:
139,95,95091,1,0,0:0:0:0:
175,78,95174,1,0,0:0:0:0:
214,70,95258,1,0,0:0:0:0:
254,70,95341,1,2,0:0:0:0:
293,78,95424,1,0,0:0:0:0:
330,94,95508,1,0,0:0:0:0:
362,117,95591,1,0,0:0:0:0:
389,147,95675,2,0,P|398:181|399:201,1,40,2|0,0:0|0:0,0:0:0:0:
471,117,95841,2,0,P|474:97|480:78,1,40,2|0,0:0|0:0,0:0:0:0:
484,218,96008,5,4,1:0:0:0:
463,251,96091,1,0,0:0:0:0:
430,273,96174,1,0,0:0:0:0:
390,279,96257,1,0,0:0:0:0:
353,267,96341,1,2,0:0:0:0:
324,240,96424,1,0,0:0:0:0:
306,204,96508,1,0,0:0:0:0:
277,177,96591,1,0,0:0:0:0:
239,165,96675,1,2,0:0:0:0:
200,170,96758,1,0,0:0:0:0:
166,192,96841,1,0,0:0:0:0:
146,226,96924,1,0,0:0:0:0:
142,266,97008,2,0,L|148:313,1,40,2|0,0:0|0:0,0:0:0:0:
43,266,97175,2,0,L|48:226,1,40,2|0,0:0|0:0,0:0:0:0:
90,145,97341,6,0,P|76:121|58:104,3,40,4|0|0|0,1:0|0:0|0:0|0:0,0:0:0:0:
148,87,97675,2,0,P|143:59|131:37,3,40,2|0|0|0,0:0|0:0|0:0|0:0,0:0:0:0:
226,61,98008,2,0,P|230:33|227:9,3,40,2|0|0|0,0:0|0:0|0:0|0:0,0:0:0:0:
312,55,98341,2,0,P|325:30|331:6,3,40,2|0|2|0,0:0|0:0|0:0|0:0,0:0:0:0:
420,68,98675,5,4,1:0:0:0:
441,101,98758,1,0,0:0:0:0:
454,139,98841,1,0,0:0:0:0:
457,178,98924,1,0,0:0:0:0:
449,218,99008,1,2,0:0:0:0:
431,253,99091,1,0,0:0:0:0:
405,284,99174,1,0,0:0:0:0:
372,306,99258,1,0,0:0:0:0:
334,319,99341,1,2,0:0:0:0:
295,322,99424,1,0,0:0:0:0:
255,315,99508,1,0,0:0:0:0:
219,298,99591,1,0,0:0:0:0:
189,272,99675,2,0,P|172:236|172:224,1,40,2|0,0:0|0:0,0:0:0:0:
271,146,99841,2,0,P|265:165|253:181,1,40,2|0,0:0|0:0,0:0:0:0:
160,136,100008,5,4,1:0:0:0:
120,124,100091,1,0,0:0:0:0:
80,129,100175,1,0,0:0:0:0:
51,156,100258,1,0,0:0:0:0:
37,193,100341,1,2,0:0:0:0:
44,232,100425,1,0,0:0:0:0:
69,263,100508,1,0,0:0:0:0:
106,277,100591,1,0,0:0:0:0:
146,273,100675,1,2,0:0:0:0:
181,254,100758,1,0,0:0:0:0:
217,237,100841,1,0,0:0:0:0:
257,240,100925,1,0,0:0:0:0:
292,258,101008,2,0,P|308:275|319:297,1,40,2|0,0:0|0:0,0:0:0:0:
379,210,101175,2,0,P|389:192|403:178,1,40,2|0,0:0|0:0,0:0:0:0:
510,89,101341,5,4,1:0:0:0:
471,99,101425,1,0,0:0:0:0:
431,99,101508,1,0,0:0:0:0:
393,85,101591,1,0,0:0:0:0:
363,57,101675,2,0,P|352:38|348:10,3,40,2|0|0|0,0:0|0:0|0:0|0:0,0:0:0:0:
259,59,102008,1,2,0:0:0:0:
220,49,102092,1,0,0:0:0:0:
180,49,102175,1,0,0:0:0:0:
142,63,102258,1,0,0:0:0:0:
112,91,102341,2,0,P|101:110|97:138,3,40,2|0|2|0,0:0|0:0|0:0|0:0,0:0:0:0:
87,214,102675,5,4,1:0:0:0:
113,243,102758,1,0,0:0:0:0:
152,250,102841,1,0,0:0:0:0:
192,246,102925,1,0,0:0:0:0:
223,221,103008,1,2,0:0:0:0:
245,187,103091,1,0,0:0:0:0:
250,147,103175,1,0,0:0:0:0:
272,113,103258,1,0,0:0:0:0:
303,88,103341,1,0,1:0:0:0:
343,84,103425,1,0,0:0:0:0:
382,91,103508,1,0,0:0:0:0:
408,120,103591,1,0,1:0:0:0:
424,156,103675,2,0,P|425:181|415:209,1,40,2|0,0:0|0:0,0:0:0:0:
330,255,103841,2,0,P|329:230|339:202,1,40,0|0,1:0|0:0,0:0:0:0:
411,307,104008,5,4,1:0:0:0:
383,335,104091,1,0,0:0:0:0:
346,350,104174,1,0,0:0:0:0:
306,349,104257,1,0,0:0:0:0:
270,332,104341,1,2,0:0:0:0:
244,302,104424,1,0,0:0:0:0:
232,265,104507,1,0,0:0:0:0:
236,225,104591,1,0,0:0:0:0:
256,191,104675,2,0,L|281:158,1,40,2|0,0:0|0:0,0:0:0:0:
199,127,104841,2,0,L|203:86,1,40
119,97,105008,2,0,L|102:59,1,40,2|0,0:0|0:0,0:0:0:0:
34,114,105174,2,0,L|0:89,1,40,2|0,0:0|0:0,0:0:0:0:
38,222,105341,5,4,1:0:0:0:
69,247,105425,1,0,0:0:0:0:
107,258,105508,1,0,0:0:0:0:
146,257,105591,1,0,0:0:0:0:
167,223,105675,1,2,0:0:0:0:
197,196,105758,1,0,0:0:0:0:
233,180,105841,1,0,0:0:0:0:
273,175,105925,1,0,0:0:0:0:
291,210,106008,1,2,0:0:0:0:
319,237,106091,1,0,0:0:0:0:
355,254,106175,1,0,0:0:0:0:
394,257,106258,1,0,0:0:0:0:
432,268,106341,2,0,L|442:313,1,40,2|0,0:0|0:0,0:0:0:0:
502,216,106508,2,0,L|492:171,1,40,2|0,0:0|0:0,0:0:0:0:
431,87,106675,5,4,1:0:0:0:
392,77,106758,1,0,0:0:0:0:
353,67,106841,1,0,0:0:0:0:
313,57,106925,1,0,0:0:0:0:
287,26,107008,1,2,0:0:0:0:
249,37,107091,1,0,0:0:0:0:
210,48,107174,1,0,0:0:0:0:
170,59,107258,1,0,0:0:0:0:
133,43,107341,1,2,0:0:0:0:
106,71,107424,1,0,0:0:0:0:
77,100,107507,1,0,0:0:0:0:
48,130,107591,1,0,0:0:0:0:
24,162,107675,2,0,P|19:184|22:214,1,40,2|0,0:0|0:0,0:0:0:0:
100,277,107841,2,0,P|105:255|102:225,1,40,2|0,0:0|0:0,0:0:0:0:
175,181,108008,5,4,1:0:0:0:
201,151,108091,1,0,0:0:0:0:
236,132,108174,1,0,0:0:0:0:
275,124,108257,1,0,0:0:0:0:
315,129,108341,1,2,0:0:0:0:
351,146,108424,1,0,0:0:0:0:
380,174,108507,1,0,0:0:0:0:
398,209,108591,1,0,0:0:0:0:
405,248,108674,1,2,0:0:0:0:
400,287,108757,1,0,0:0:0:0:
382,323,108841,1,0,0:0:0:0:
354,351,108924,1,0,0:0:0:0:
318,369,109007,1,2,0:0:0:0:
279,376,109091,1,0,0:0:0:0:
240,369,109174,1,2,0:0:0:0:
204,351,109257,1,0,0:0:0:0:
177,322,109341,5,4,1:0:0:0:
214,234,109508,1,0,0:0:0:0:
307,255,109675,2,0,P|326:297|317:334,1,80,2|0,0:0|0:0,0:0:0:0:
214,234,110008,2,0,P|195:192|204:155,1,80,2|0,0:0|0:0,0:0:0:0:
269,92,110341,1,2,0:0:0:0:
269,92,110508,1,2,0:0:0:0:
351,141,110675,6,0,L|431:134,1,80,0|0,1:0|0:0,0:0:0:0:
495,240,111008,1,2,0:0:0:0:
432,312,111175,1,0,0:0:0:0:
373,235,111341,2,0,L|293:228,1,80,2|0,0:0|0:0,0:0:0:0:
205,268,111675,2,0,P|190:311|201:356,1,80,2|2,0:0|0:0,0:0:0:0:
435,282,112008,6,0,P|450:239|439:194,1,80,0|0,1:0|0:0,0:0:0:0:
294,103,112341,1,2,0:0:0:0:
201,128,112508,1,0,0:0:0:0:
228,221,112675,1,2,0:0:0:0:
320,195,112841,1,0,0:0:0:0:
294,103,113008,2,0,L|270:20,1,80,2|2,0:0|0:0,0:0:0:0:
408,187,113341,6,0,L|384:270,1,80,0|0,1:0|0:0,0:0:0:0:
323,337,113675,1,2,0:0:0:0:
230,362,113841,1,0,0:0:0:0:
113,244,114008,1,2,0:0:0:0:
206,269,114174,1,0,0:0:0:0:
138,337,114341,1,2,0:0:0:0:
44,313,114508,1,2,0:0:0:0:
19,219,114675,6,0,P|31:175|27:132,1,80,0|0,1:0|0:0,0:0:0:0:
148,75,115008,1,2,0:0:0:0:
193,159,115175,1,0,0:0:0:0:
287,143,115341,2,0,P|333:132|369:143,1,80,2|0,0:0|0:0,0:0:0:0:
225,72,115675,2,0,P|179:83|143:72,1,80,2|2,0:0|0:0,0:0:0:0:
197,185,116008,6,0,L|204:271,1,80,0|0,1:0|0:0,0:0:0:0:
365,103,116341,2,0,L|358:17,1,80,0|0,1:0|0:0,0:0:0:0:
126,18,116675,1,0,1:0:0:0:
48,73,116841,1,0,0:0:0:0:
36,168,117008,1,0,1:0:0:0:
83,251,117175,1,0,0:0:0:0:
172,285,117341,5,2,0:0:0:0:
190,249,117424,1,0,0:0:0:0:
217,220,117507,1,2,0:0:0:0:
251,198,117590,1,0,0:0:0:0:
288,185,117674,1,2,0:0:0:0:
328,181,117757,1,0,0:0:0:0:
367,187,117840,1,2,0:0:0:0:
404,203,117924,1,0,0:0:0:0:
436,227,118008,2,0,L|451:273,3,40,2|0|2|0,0:0|0:0|0:0|0:0,0:0:0:0:
512,191,118341,2,0,L|497:145,3,40,2|0|2|0,0:0|0:0|0:0|0:0,0:0:0:0:
438,66,118675,5,2,0:0:0:0:
402,86,118758,1,0,0:0:0:0:
365,100,118841,1,2,0:0:0:0:
325,108,118925,1,0,0:0:0:0:
285,110,119008,1,2,0:0:0:0:
244,104,119091,1,0,0:0:0:0:
205,93,119175,1,2,0:0:0:0:
170,72,119258,1,0,0:0:0:0:
144,41,119341,2,0,L|136:15,16,20,2|0|0|0|0|0|0|0|0|0|0|0|0|0|0|0|4,0:0|0:0|0:0|0:0|0:0|0:0|0:0|0:0|0:0|0:0|0:0|0:0|0:0|0:0|0:0|0:0|0:0,0:0:0:0:
58,259,121008,5,0,0:0:0:0:
171,298,121341,1,2,0:0:0:0:
243,201,121675,1,0,0:0:0:0:
129,163,122008,2,0,P|84:158|55:140,1,80,2|0,0:0|0:0,0:0:0:0:
126,43,122675,2,0,B|204:12|204:75|282:43,1,160,2|0,0:0|0:0,0:0:0:0:
346,144,123675,1,0,0:0:0:0:
457,99,124001,6,0,P|471:65|465:34,1,60,2|0,0:0|0:0,0:0:0:0:
346,144,124563,2,0,P|336:167|336:192,1,40,2|0,0:0|0:0,0:0:0:0:
471,347,125151,1,2,0:0:0:0:
344,267,125551,1,0,0:0:0:0:
245,360,127024,5,2,0:0:0:0:
219,90,127881,1,0,0:0:0:0:
219,90,128756,6,0,B|163:54|118:68|87:145|87:176|163:222|240:253|256:298|256:298|270:253|347:222|424:176|424:145|392:68|347:54|292:90,1,720.000027465821,2|0,0:0|0:0,0:0:0:0:
