osu file format v12

[General]
AudioFilename: End Time.mp3
AudioLeadIn: 0
PreviewTime: 1335
Countdown: 0
SampleSet: Soft
StackLeniency: 0.7
Mode: 0
LetterboxInBreaks: 0
WidescreenStoryboard: 0

[Editor]
DistanceSpacing: 1
BeatDivisor: 4
GridSize: 4

[Metadata]
Title:End Time
TitleUnicode:End Time
Artist:Cres
ArtistUnicode:Cres
Creator:Fear
Version:Normal
Source:BMS
Tags:cyclia swish gowww soulfear Kanon TechnoBreak
BeatmapID:124303
BeatmapSetID:36382

[Difficulty]
HPDrainRate:4
CircleSize:3
OverallDifficulty:3
ApproachRate:5
SliderMultiplier:0.799999999999999
SliderTickRate:1

[Events]
//Background and Video events
0,0,"BG.jpg",0,0
Video,-4050,"BGA.avi"
//Break Periods
//Storyboard Layer 0 (Background)
//Storyboard Layer 1 (Fail)
//Storyboard Layer 2 (Pass)
//Storyboard Layer 3 (Foreground)
//Storyboard Sound Samples
//Background Colour Transformations
3,100,163,162,255

[TimingPoints]
1335,333.333333333333,4,2,1,70,1,0
11668,-100,4,2,1,50,0,0
12668,-100,4,2,1,60,0,0
13001,-100,4,2,1,70,0,0
13334,-100,4,2,1,80,0,0
23001,-100,4,1,1,80,0,0
24168,-100,4,2,1,80,0,0
25168,-100,4,1,1,80,0,0
25501,-100,4,2,1,80,0,0
26501,-100,4,1,1,80,0,0
26834,-100,4,2,1,80,0,0
27834,-100,4,1,1,80,0,0
28168,-100,4,2,1,80,0,0
29168,-100,4,1,1,80,0,0
33334,-100,4,2,2,70,0,0
34001,-100,4,2,2,60,0,0
34668,-100,4,2,1,80,0,0
35334,-100,4,2,1,70,0,0
55001,-100,4,2,1,80,0,0
77168,-100,4,2,1,75,0,0
93001,-100,4,2,1,80,0,0
94501,-100,4,2,1,85,0,0
97334,-100,4,2,1,85,0,1
98001,-100,4,2,1,90,0,1
98668,-100,4,2,1,90,0,0
103168,-100,4,1,1,95,0,0
104168,-100,4,2,1,95,0,0
109334,-100,4,2,1,95,0,0
117251,-100,4,1,1,75,0,0
118668,-100,4,1,1,85,0,0
119334,-100,4,1,1,95,0,0
120001,-100,4,2,1,95,0,0
120334,-100,4,2,1,70,0,0
124001,375,4,2,1,70,1,0
124751,400,4,2,1,70,1,0
125551,352.941176470588,4,2,1,70,1,0
126256,375,4,2,1,70,1,0
126818,413.793103448276,4,2,1,70,1,0
127024,428.571428571429,4,2,1,70,1,0
128631,500,4,2,1,70,1,0
128756,500,4,2,1,70,1,0

[Colours]
Combo1 : 0,255,255
Combo2 : 180,180,180
Combo3 : 255,255,255
Combo4 : 255,60,60

[HitObjects]
368,192,1335,1,0,0:0:0:0:
152,84,2334,1,0,0:0:0:0:
152,84,2668,2,0,B|76:188|160:324,1,240,2|0,0:0|0:0,0:0:0:0:
76,340,4001,1,2,0:0:0:0:
304,264,5001,5,0,0:0:0:0:
304,264,5334,2,0,B|296:196|232:160|148:160|112:208,1,240,2|0,0:0|0:0,0:0:0:0:
44,172,6668,1,2,0:0:0:0:
336,36,8001,37,0,0:0:0:0:
300,356,9334,1,2,0:0:0:0:
256,192,12001,12,4,13334,0:0:0:0:
360,128,14001,6,0,B|292:180|320:280,1,160,2|0,0:0|0:0,0:0:0:0:
260,328,15001,1,0,0:0:0:0:
180,320,15334,2,0,B|176:264|244:224|304:256,1,160,2|0,0:0|0:0,0:0:0:0:
376,248,16334,1,0,0:0:0:0:
436,196,16668,1,2,0:0:0:0:
448,116,17001,37,0,0:0:0:0:
448,116,17334,2,0,B|408:80|312:92|304:152,1,160,0|2,0:0|0:0,0:0:0:0:
256,200,18334,1,0,0:0:0:0:
244,280,18668,2,0,B|288:292|336:264|352:216|332:172,1,160,0|2,0:0|0:0,0:0:0:0:
284,124,19668,5,0,0:0:0:0:
284,124,20001,2,0,B|128:96,1,160,0|2,0:0|0:0,0:0:0:0:
64,144,21001,1,0,0:0:0:0:
96,216,21334,2,0,B|252:244,1,160,0|2,0:0|0:0,0:0:0:0:
320,200,22334,1,0,0:0:0:0:
284,124,22668,2,0,B|320:100|376:108|412:160|404:192,1,160
468,236,23668,1,0,0:0:0:0:
408,288,24001,38,0,B|332:336,1,79.9999999999999,4|0,0:0|0:0,0:0:0:0:
296,264,24668,2,0,B|220:312,1,79.9999999999999,2|0,0:0|0:0,0:0:0:0:
160,352,25334,1,4,0:0:0:0:
92,308,25668,1,0,0:0:0:0:
64,232,26001,1,2,0:0:0:0:
76,152,26334,1,0,0:0:0:0:
112,80,26668,6,0,B|272:48,1,160,4|2,0:0|0:0,0:0:0:0:
320,112,27668,1,0,0:0:0:0:
396,84,28001,2,0,B|416:132|396:172|360:200|304:192,1,160,4|2,0:0|0:0,0:0:0:0:
292,268,29001,1,0,0:0:0:0:
216,296,29334,38,0,B|231:339|272:346,2,79.9999999999999,0|0|2,0:0|0:0|0:0,0:0:0:0:
228,216,30334,1,0,0:0:0:0:
172,160,30668,2,0,B|92:160,2,79.9999999999999,0|0|2,0:0|0:0|0:0,0:0:0:0:
248,140,31668,1,0,0:0:0:0:
256,192,32001,12,6,34668,0:0:0:0:
352,224,35668,6,0,B|404:224,2,40,0|2|0,0:0|0:0|0:0,0:0:0:0:
160,88,37001,2,0,B|108:88,2,40,0|2|0,0:0|0:0|0:0,0:0:0:0:
256,308,38334,2,0,B|256:364,2,40,0|2|0,0:0|0:0|0:0,0:0:0:0:
176,168,39334,1,0,0:0:0:0:
336,168,40001,1,2,0:0:0:0:
48,308,41334,38,0,B|208:308,1,160,0|2,0:0|0:0,0:0:0:0:
208,308,42668,1,0,0:0:0:0:
452,100,44001,1,0,0:0:0:0:
136,60,45334,6,0,B|104:144|184:204,1,160,0|2,0:0|0:0,0:0:0:0:
340,180,46668,2,0,B|364:220|336:276|308:300|256:288,1,160,0|2,0:0|0:0,0:0:0:0:
112,328,48001,1,0,0:0:0:0:
320,88,49334,38,0,B|320:144|389:180|448:152,1,160,0|2,0:0|0:0,0:0:0:0:
368,300,50668,1,0,0:0:0:0:
172,164,51668,2,0,B|128:152,2,40,0|2|0,0:0|0:0|0:0,0:0:0:0:
324,208,52668,1,0,0:0:0:0:
476,252,53334,1,2,0:0:0:0:
256,20,54668,1,0,0:0:0:0:
256,180,55334,5,0,0:0:0:0:
256,260,55668,1,2,0:0:0:0:
294,330,56001,2,0,B|254:354|218:330,1,79.9999999999999,6|0,0:0|0:0,0:0:0:0:
144,360,56668,2,0,B|92:348|92:240|148:232,1,160,0|6,0:0|0:0,0:0:0:0:
196,172,57668,37,0,0:0:0:0:
196,172,58001,2,0,B|248:184|248:292|192:300,1,160,0|6,0:0|0:0,0:0:0:0:
148,236,59001,1,0,0:0:0:0:
148,236,59334,2,0,B|308:236,1,160,0|6,0:0|0:0,0:0:0:0:
364,180,60334,1,0,0:0:0:0:
312,120,60668,2,0,B|332:76,2,40,0|2|0,0:0|0:0|0:0,0:0:0:0:
236,100,61334,6,0,B|132:84|92:164,1,160,6|2,0:0|0:0,0:0:0:0:
164,300,62668,2,0,B|268:316|308:236,1,160,6|2,0:0|0:0,0:0:0:0:
376,280,63668,1,0,0:0:0:0:
376,280,64001,2,0,B|432:340,2,79.9999999999999,6|0|2,0:0|0:0|0:0,0:0:0:0:
368,200,65001,1,0,0:0:0:0:
440,164,65334,2,0,B|408:108|328:104|300:160,1,160,6|2,0:0|0:0,0:0:0:0:
256,212,66334,37,0,0:0:0:0:
280,288,66668,2,0,B|216:300|180:268|168:216|180:192,1,160,6|2,0:0|0:0,0:0:0:0:
228,136,67668,1,0,0:0:0:0:
228,136,68001,2,0,B|392:136,2,160,6|2|6,0:0|0:0|0:0,0:0:0:0:
76,192,70001,5,2,0:0:0:0:
76,192,70334,1,0,0:0:0:0:
144,232,70668,1,6,0:0:0:0:
144,232,71001,1,0,0:0:0:0:
212,192,71334,2,0,B|256:192,2,40,0|2|0,0:0|0:0|0:0,0:0:0:0:
176,120,72001,38,0,B|228:48|324:92,1,160,6|2,0:0|0:0,0:0:0:0:
360,156,73001,1,0,0:0:0:0:
436,128,73334,2,0,B|480:212|420:292,1,160,6|2,0:0|0:0,0:0:0:0:
412,360,74334,1,0,0:0:0:0:
352,308,74668,6,0,B|308:224|368:144,1,160,6|2,0:0|0:0,0:0:0:0:
300,100,75668,1,0,0:0:0:0:
220,84,76001,2,0,B|172:76,2,40,6|2|0,0:0|0:0|0:0,0:0:0:0:
216,164,76668,2,0,B|172:188,2,40,6|2|0,0:0|0:0|0:0,0:0:0:0:
284,204,77334,38,0,B|292:256|220:300|164:276,1,160,0|2,0:0|0:0,0:0:0:0:
112,336,78334,1,0,0:0:0:0:
112,336,78668,2,0,B|59:335|27:257|59:206,1,160,0|2,0:0|0:0,0:0:0:0:
16,144,79668,1,0,0:0:0:0:
16,144,80001,2,0,B|19:91|99:64|149:100,1,160,0|2,0:0|0:0,0:0:0:0:
212,56,81001,5,0,0:0:0:0:
276,104,81334,2,0,B|264:152,2,40,0|2|0,0:0|0:0|0:0,0:0:0:0:
356,96,82001,2,0,B|368:48,2,40,0|2|0,0:0|0:0|0:0,0:0:0:0:
420,144,82668,38,0,B|452:200|384:240|420:300,1,160,0|2,0:0|0:0,0:0:0:0:
356,344,83668,1,0,0:0:0:0:
280,316,84001,2,0,B|224:348|184:280|124:316,1,160,0|2,0:0|0:0,0:0:0:0:
84,248,85001,1,0,0:0:0:0:
136,184,85334,2,0,B|120:144,2,40,0|2|0,0:0|0:0|0:0,0:0:0:0:
208,148,86001,2,0,B|220:100,2,40,0|2|0,0:0|0:0|0:0,0:0:0:0:
204,228,86668,2,0,B|236:260|332:244|340:196,1,160,0|2,0:0|0:0,0:0:0:0:
416,220,87668,5,0,0:0:0:0:
416,140,88001,2,0,B|408:104|368:80|312:76|288:112,1,160,0|2,0:0|0:0,0:0:0:0:
212,144,89001,1,0,0:0:0:0:
212,144,89334,2,0,B|220:180|260:204|316:208|340:172,1,160,0|2,0:0|0:0,0:0:0:0:
404,224,90334,1,0,0:0:0:0:
340,272,90668,2,0,B|341:316|294:345|247:350|219:325,2,160,0|2|0,0:0|0:0|0:0,0:0:0:0:
256,136,92668,1,2,0:0:0:0:
176,272,93334,38,0,B|174:316|221:345|268:350|296:325,2,160,0|2|0,0:0|0:0|0:0,0:0:0:0:
256,136,95334,1,2,0:0:0:0:
256,192,96001,12,4,98668,0:0:0:0:
120,144,99334,22,0,B|148:236,1,79.9999999999999,0|0,0:0|0:0,0:0:0:0:
216,184,100001,2,0,B|244:276,1,79.9999999999999,2|0,0:0|0:0,0:0:0:0:
312,224,100668,2,0,B|340:316,2,79.9999999999999,0|0|2,0:0|0:0|0:0,0:0:0:0:
356,156,101668,1,0,0:0:0:0:
392,84,102001,2,0,B|444:100|464:196|400:224,1,160,0|2,0:0|0:0,0:0:0:0:
388,292,103001,1,0,0:0:0:0:
308,308,103334,2,0,B|256:328,2,40
260,244,104001,6,0,B|183:220,1,79.9999999999999,0|2,0:0|0:0,0:0:0:0:
220,147,104668,2,0,B|143:123,1,79.9999999999999,0|0,0:0|0:0,0:0:0:0:
180,51,105334,2,0,B|103:27,2,79.9999999999999,0|2|0,0:0|0:0|0:0,0:0:0:0:
256,76,106334,1,0,0:0:0:0:
332,51,106668,38,0,B|408:27,2,79.9999999999999,0|2|0,0:0|0:0|0:0,0:0:0:0:
256,76,107668,1,0,0:0:0:0:
256,156,108001,2,0,B|256:320,1,160,0|0,0:0|0:0,0:0:0:0:
332,344,109001,1,2,0:0:0:0:
428,192,109501,6,0,B|472:160,2,40,0|2|0,0:0|0:0|0:0,0:0:0:0:
316,152,110168,2,0,B|332:100,2,40,0|2|0,0:0|0:0|0:0,0:0:0:0:
196,172,110834,2,0,B|184:116,2,40,0|2|0,0:0|0:0|0:0,0:0:0:0:
96,236,111501,2,0,B|56:204,2,40,0|2|0,0:0|0:0|0:0,0:0:0:0:
200,296,112168,38,0,B|224:348,2,40,0|2|0,0:0|0:0|0:0,0:0:0:0:
316,264,112835,2,0,B|364:296,2,40,0|2|0,0:0|0:0|0:0,0:0:0:0:
352,152,113501,2,0,B|408:156,2,40,0|2|0,0:0|0:0|0:0,0:0:0:0:
288,52,114168,2,0,B|328:20,2,40,0|2|0,0:0|0:0|0:0,0:0:0:0:
172,76,114834,6,0,B|132:112,2,40,0|2|0,0:0|0:0|0:0,0:0:0:0:
176,196,115501,2,0,B|160:248,2,40,0|2|0,0:0|0:0|0:0,0:0:0:0:
284,244,116167,2,0,B|296:300,2,40,0|2|0,0:0|0:0|0:0,0:0:0:0:
392,196,116834,2,0,B|436:228,2,40,0|2|0,0:0|0:0|0:0,0:0:0:0:
256,192,117334,12,6,120001,0:0:0:0:
184,148,121001,21,0,0:0:0:0:
179,227,121334,1,2,0:0:0:0:
243,271,121668,1,0,0:0:0:0:
319,247,122001,1,2,0:0:0:0:
319,166,122334,1,0,0:0:0:0:
259,115,122668,1,2,0:0:0:0:
160,332,123668,37,0,0:0:0:0:
160,332,124001,2,0,P|96:300|96:220,1,160
160,168,125151,1,2,0:0:0:0:
240,124,125551,1,0,0:0:0:0:
428,188,127024,21,2,0:0:0:0:
308,292,127881,5,2,0:0:0:0:
256,164,128756,21,6,0:0:0:0:
