osu file format v12

[General]
AudioFilename: End Time.mp3
AudioLeadIn: 0
PreviewTime: 1335
Countdown: 0
SampleSet: Soft
StackLeniency: 0.7
Mode: 0
LetterboxInBreaks: 0
WidescreenStoryboard: 0

[Editor]
DistanceSpacing: 1
BeatDivisor: 4
GridSize: 8

[Metadata]
Title:End Time
TitleUnicode:End Time
Artist:Cres
ArtistUnicode:Cres
Creator:Fear
Version:Hyper
Source:BMS
Tags:cyclia swish gowww soulfear Kanon TechnoBreak
BeatmapID:124473
BeatmapSetID:36382

[Difficulty]
HPDrainRate:5
CircleSize:4
OverallDifficulty:6
ApproachRate:8
SliderMultiplier:1.4
SliderTickRate:1

[Events]
//Background and Video events
0,0,"BG.jpg",0,0
Video,-4050,"BGA.avi"
//Break Periods
2,34868,44584
//Storyboard Layer 0 (Background)
//Storyboard Layer 1 (Fail)
//Storyboard Layer 2 (Pass)
//Storyboard Layer 3 (Foreground)
//Storyboard Sound Samples
//Background Colour Transformations
3,100,163,162,255

[TimingPoints]
1335,333.333333333333,4,2,1,30,1,0
1335,-200,4,2,1,50,0,0
7334,-200,4,2,1,5,0,0
8001,-200,4,2,1,50,0,0
8668,-200,4,2,1,5,0,0
9334,-200,4,2,1,30,0,0
10001,-200,4,2,1,10,0,0
13334,-100,4,2,1,80,0,0
23334,-100,4,1,1,80,0,0
24084,-100,4,2,1,90,0,0
25334,-100,4,1,1,90,0,0
25418,-100,4,2,1,90,0,0
26668,-100,4,1,1,90,0,0
26751,-100,4,2,1,90,0,0
28001,-100,4,1,1,90,0,0
28084,-100,4,2,1,90,0,0
29334,-100,4,1,1,90,0,0
33418,-100,4,2,1,90,0,0
45334,-100,4,2,1,90,0,0
66001,-100,4,1,1,90,0,0
66834,-100,4,2,1,90,0,0
70668,-133.333333333333,4,2,1,90,0,0
71168,-100,4,2,1,90,0,0
77334,-100,4,2,1,90,0,0
88001,-100,4,2,1,90,0,0
89168,-100,4,1,1,90,0,0
89334,-100,4,2,1,90,0,0
91834,-100,4,1,1,90,0,0
91918,-100,4,2,1,90,0,0
94501,-100,4,1,1,90,0,0
94584,-100,4,2,1,90,0,0
97334,-100,4,2,1,90,0,1
98668,-100,4,2,1,90,0,0
103334,-100,4,1,1,90,0,0
104001,-100,4,2,1,90,0,0
124001,375,4,2,1,70,1,0
124751,400,4,2,1,70,1,0
124751,-200,4,2,1,70,0,0
125551,352.941176470588,4,2,1,70,1,0
126256,375,4,2,1,70,1,0
126818,413.793103448276,4,2,1,70,1,0
127024,428.571428571429,4,2,1,70,1,0
128631,500,4,2,1,70,1,0
128756,500,4,2,1,70,1,0

[Colours]
Combo1 : 0,255,255
Combo2 : 180,180,180
Combo3 : 255,255,255
Combo4 : 255,60,60

[HitObjects]
112,80,1335,1,0,0:0:0:0:
112,80,2334,5,0,0:0:0:0:
224,64,2667,1,2,0:0:0:0:
336,72,3000,1,0,0:0:0:0:
436,116,3334,2,0,B|472:136|512:116,2,70,2|0|2,0:0|0:0|0:0,0:0:0:0:
384,92,5001,37,0,0:0:0:0:
272,104,5334,1,2,0:0:0:0:
176,160,5668,1,0,0:0:0:0:
124,260,6001,2,0,B|160:272|192:264,2,70,2|0|0,0:0|0:0|0:0,0:0:0:0:
256,192,7334,5,0,0:0:0:0:
344,56,8001,2,0,B|496:56,1,140,2|0,0:0|0:0,0:0:0:0:
164,344,9334,2,0,B|20:344,1,140,2|0,0:0|0:0,0:0:0:0:
256,192,11834,12,0,13168,0:0:0:0:
256,192,13334,38,0,B|160:200,1,70,4|0,0:0|0:0,0:0:0:0:
108,208,13668,1,2,0:0:0:0:
64,144,13834,1,2,0:0:0:0:
116,88,14001,1,0,0:0:0:0:
188,120,14168,1,2,0:0:0:0:
188,196,14334,2,0,B|188:288,1,70,2|0,0:0|0:0,0:0:0:0:
312,184,14668,6,0,B|312:100,1,70,4|0,0:0|0:0,0:0:0:0:
312,36,15001,1,2,0:0:0:0:
312,36,15168,1,2,0:0:0:0:
376,80,15334,37,0,0:0:0:0:
391,155,15501,1,2,0:0:0:0:
463,127,15668,5,0,0:0:0:0:
476,202,15834,1,2,0:0:0:0:
480,280,16001,38,0,B|440:260|392:268,1,70,4|0,0:0|0:0,0:0:0:0:
336,276,16334,1,2,0:0:0:0:
272,320,16501,1,2,0:0:0:0:
196,332,16668,2,0,B|148:320|136:260,1,70,0|2,0:0|0:0,0:0:0:0:
195,244,17001,2,0,B|192:276|144:288,1,70,0|2,0:0|0:0,0:0:0:0:
80,160,17334,6,0,B|132:224,1,70,4|0,0:0|0:0,0:0:0:0:
156,144,17668,2,0,B|96:64,1,70,2|0,0:0|0:0,0:0:0:0:
68,25,18001,2,0,B|126:107,1,70,2|0,0:0|0:0,0:0:0:0:
184,68,18334,2,0,B|238:135,1,70,2|0,0:0|0:0,0:0:0:0:
324,235,18668,38,0,B|234:129,1,140,4|0,0:0|0:0,0:0:0:0:
184,68,19168,1,2,0:0:0:0:
184,68,19334,2,0,B|244:68,2,35
136,128,19668,1,2,0:0:0:0:
188,184,19834,1,2,0:0:0:0:
275,294,20001,6,0,B|175:166,1,140,4|0,0:0|0:0,0:0:0:0:
135,127,20501,1,0,0:0:0:0:
92,64,20668,2,0,B|24:104,1,70,2|0,0:0|0:0,0:0:0:0:
135,127,21001,2,0,B|215:83,1,70,0|2,0:0|0:0,0:0:0:0:
336,56,21501,37,0,0:0:0:0:
336,56,21668,1,2,0:0:0:0:
336,56,21834,1,0,0:0:0:0:
412,80,22001,1,2,0:0:0:0:
412,80,22168,1,0,0:0:0:0:
472,124,22334,1,2,0:0:0:0:
472,124,22501,1,2,0:0:0:0:
472,124,22834,5,0,0:0:0:0:
348,192,23001,1,2,0:0:0:0:
348,312,23168,1,0,0:0:0:0:
236,308,23334,37,0,0:0:0:0:
212,308,23418,1,0,0:0:0:0:
156,212,23585,1,0,0:0:0:0:
132,210,23668,1,0,0:0:0:0:
68,120,23834,1,0,0:0:0:0:
200,52,24001,6,0,B|148:52,2,35,0|0|2,0:0|0:0|0:0,0:0:0:0:
312,52,24334,2,0,B|384:52,1,70,2|0,0:0|0:0,0:0:0:0:
496,52,24668,1,2,0:0:0:0:
496,52,24834,1,2,0:0:0:0:
440,148,25001,1,2,0:0:0:0:
440,148,25168,1,0,0:0:0:0:
352,268,25334,38,0,B|352:316,2,35,0|0|2,0:0|0:0|0:0,0:0:0:0:
240,268,25668,2,0,B|144:268,1,70,2|0,0:0|0:0,0:0:0:0:
56,268,26001,1,2,0:0:0:0:
56,268,26168,1,2,0:0:0:0:
120,176,26334,1,2,0:0:0:0:
120,176,26501,1,0,0:0:0:0:
208,64,26668,6,0,B|268:64,2,35,0|0|0,0:0|0:0|0:0,0:0:0:0:
284,148,27001,2,0,B|376:148,1,70,2|0,0:0|0:0,0:0:0:0:
460,108,27334,2,0,B|460:208,1,70,2|0,0:0|0:0,0:0:0:0:
460,292,27668,1,0,0:0:0:0:
460,292,27834,1,2,0:0:0:0:
312,292,28001,38,0,B|260:292,2,35
200,292,28334,2,0,B|108:292,1,70,0|2,0:0|0:0,0:0:0:0:
200,204,28668,2,0,B|280:204,1,70,0|2,0:0|0:0,0:0:0:0:
200,116,29001,1,0,0:0:0:0:
88,116,29168,1,2,0:0:0:0:
52,224,29334,6,0,B|36:288,2,35
164,204,29668,2,0,B|204:248,2,35
224,116,30001,2,0,B|288:116,2,35
88,116,30334,1,4,0:0:0:0:
88,116,30501,1,0,0:0:0:0:
440,48,30668,38,0,B|384:48,2,35
352,116,31001,2,0,B|404:116,2,35
444,184,31334,2,0,B|392:184,2,35
440,320,31668,1,0,0:0:0:0:
440,320,31834,1,0,0:0:0:0:
440,320,32001,6,0,B|496:320,16,35
256,192,33418,12,4,34668,0:0:0:0:
72,64,45334,37,0,0:0:0:0:
168,96,46001,1,2,0:0:0:0:
132,184,46668,1,0,0:0:0:0:
128,280,47334,1,0,0:0:0:0:
128,280,48001,1,2,0:0:0:0:
168,280,49334,5,2,0:0:0:0:
256,236,50001,1,0,0:0:0:0:
348,276,50668,1,2,0:0:0:0:
348,276,51668,37,0,0:0:0:0:
348,276,51834,1,0,0:0:0:0:
348,276,52001,1,2,0:0:0:0:
332,180,52668,1,0,0:0:0:0:
428,216,53334,1,0,0:0:0:0:
472,236,54668,5,2,0:0:0:0:
444,128,55334,37,0,0:0:0:0:
392,72,55501,1,2,0:0:0:0:
328,116,55668,1,2,0:0:0:0:
276,56,55834,1,0,0:0:0:0:
208,92,56001,2,0,B|96:84|96:84|-4:20,1,210,4|0,0:0|0:0,0:0:0:0:
13,31,56668,1,2,0:0:0:0:
68,176,57001,1,2,0:0:0:0:
304,292,57334,6,0,B|416:300|416:300|516:364,1,210,4|0,0:0|0:0,0:0:0:0:
496,352,58001,1,2,0:0:0:0:
436,216,58168,1,2,0:0:0:0:
304,292,58334,1,0,0:0:0:0:
68,328,58668,38,0,B|240:208,1,210,4|0,0:0|0:0,0:0:0:0:
164,208,59334,2,0,B|288:120,1,140,2|0,0:0|0:0,0:0:0:0:
436,28,60001,6,0,B|476:128|476:128|432:248,1,210,4|0,0:0|0:0,0:0:0:0:
399,313,60668,1,2,0:0:0:0:
344,232,60834,1,0,0:0:0:0:
441,222,61001,1,2,0:0:0:0:
104,282,61334,38,0,B|64:190|64:190|98:76,1,210,4|0,0:0|0:0,0:0:0:0:
162,124,62001,2,0,B|137:222,2,70,0|0|2,0:0|0:0|0:0,0:0:0:0:
178,48,62501,1,2,0:0:0:0:
321,53,62668,6,0,B|417:102|417:102|458:210,1,210,4|0,0:0|0:0,0:0:0:0:
465,273,63334,1,0,0:0:0:0:
402,318,63501,1,0,0:0:0:0:
365,250,63668,1,2,0:0:0:0:
304,297,63834,1,2,0:0:0:0:
114,251,64001,38,0,B|269:227,1,140,4|0,0:0|0:0,0:0:0:0:
252,228,64501,1,2,0:0:0:0:
116,148,64668,1,2,0:0:0:0:
116,148,64834,1,0,0:0:0:0:
116,148,65001,2,0,B|263:125,1,140,2|0,0:0|0:0,0:0:0:0:
331,113,65501,1,0,0:0:0:0:
406,99,65668,1,2,0:0:0:0:
380,171,65834,1,2,0:0:0:0:
341,263,66001,5,0,0:0:0:0:
332,291,66084,1,0,0:0:0:0:
219,289,66251,1,0,0:0:0:0:
205,317,66334,1,0,0:0:0:0:
94,335,66501,1,0,0:0:0:0:
49,232,66668,37,0,0:0:0:0:
49,232,66834,1,2,0:0:0:0:
70,136,67001,2,0,B|84:58,1,70,0|2,0:0|0:0,0:0:0:0:
168,120,67334,1,0,0:0:0:0:
168,120,67501,1,2,0:0:0:0:
264,136,67668,2,0,B|348:164,1,70,0|2,0:0|0:0,0:0:0:0:
424,184,68001,1,0,0:0:0:0:
352,248,68168,1,2,0:0:0:0:
352,248,68334,1,2,0:0:0:0:
272,308,68501,1,0,0:0:0:0:
172,304,68668,5,2,0:0:0:0:
76,288,68834,1,0,0:0:0:0:
156,228,69001,37,2,0:0:0:0:
252,248,69168,1,0,0:0:0:0:
204,164,69334,6,0,B|80:132,1,105,2|0,0:0|0:0,0:0:0:0:
144,112,69668,2,0,B|272:148,1,105,2|0,0:0|0:0,0:0:0:0:
284,112,70001,2,0,B|172:80,1,105,2|0,0:0|0:0,0:0:0:0:
228,60,70334,2,0,B|352:96,1,105,2|0,0:0|0:0,0:0:0:0:
328,89,70668,38,0,B|424:116|392:216,1,157.499995306134,4|0,0:0|0:0,0:0:0:0:
364,304,71334,5,0,0:0:0:0:
364,304,71501,1,2,0:0:0:0:
268,320,71668,1,0,0:0:0:0:
268,320,71834,1,2,0:0:0:0:
176,280,72001,38,0,B|196:192,1,70,0|2,0:0|0:0,0:0:0:0:
212,116,72334,1,0,0:0:0:0:
212,116,72501,1,2,0:0:0:0:
108,240,72668,6,0,B|132:152,1,70,0|2,0:0|0:0,0:0:0:0:
148,76,73001,1,0,0:0:0:0:
148,76,73168,1,2,0:0:0:0:
20,280,73334,38,0,B|44:192,1,70,0|2,0:0|0:0,0:0:0:0:
60,116,73667,1,0,0:0:0:0:
60,116,73834,1,2,0:0:0:0:
180,100,74001,6,0,B|160:192,1,70,0|2,0:0|0:0,0:0:0:0:
292,96,74334,2,0,B|308:24,1,70,0|2,0:0|0:0,0:0:0:0:
236,172,74668,2,0,B|328:172,1,70,0|2,0:0|0:0,0:0:0:0:
196,236,75001,2,0,B|108:236,1,70,0|2,0:0|0:0,0:0:0:0:
360,236,75334,38,0,B|384:148,1,70,0|2,0:0|0:0,0:0:0:0:
276,236,75668,6,0,B|276:308,1,70,2|0,0:0|0:0,0:0:0:0:
168,320,76001,38,0,B|76:320,1,70,4|0,0:0|0:0,0:0:0:0:
372,236,76334,6,0,B|452:236,1,70,4|0,0:0|0:0,0:0:0:0:
164,128,76668,38,0,B|84:128,1,70,4|0,0:0|0:0,0:0:0:0:
368,48,77001,6,0,B|456:48,1,70,4|0,0:0|0:0,0:0:0:0:
256,192,77334,12,0,78334,0:0:0:0:
256,192,78501,37,2,0:0:0:0:
256,192,78668,12,0,79668,0:0:0:0:
256,192,80001,12,0,81001,0:0:0:0:
256,192,81168,5,2,0:0:0:0:
256,192,81334,12,0,82334,0:0:0:0:
256,192,82668,12,0,83668,0:0:0:0:
256,192,83834,37,2,0:0:0:0:
256,192,84001,12,0,85001,0:0:0:0:
256,192,85334,12,0,86334,0:0:0:0:
256,188,86501,5,2,0:0:0:0:
256,192,86668,12,2,87668,0:0:0:0:
76,160,88001,37,0,0:0:0:0:
76,160,88168,1,2,0:0:0:0:
132,108,88334,1,0,0:0:0:0:
132,108,88501,1,2,0:0:0:0:
188,160,88668,2,0,B|188:224,2,35,0|0|2,0:0|0:0|0:0,0:0:0:0:
248,108,89001,1,0,0:0:0:0:
320,84,89168,6,0,B|404:76|468:144,1,140
400,188,89668,1,0,0:0:0:0:
400,188,89834,1,2,0:0:0:0:
344,240,90001,2,0,B|344:292,2,35,0|0|2,0:0|0:0|0:0,0:0:0:0:
292,184,90334,1,0,0:0:0:0:
236,236,90501,38,0,B|164:272|76:228,1,140,4|0,0:0|0:0,0:0:0:0:
84,164,91001,1,0,0:0:0:0:
112,92,91167,1,2,0:0:0:0:
188,92,91334,2,0,B|252:92,2,35,0|0|2,0:0|0:0|0:0,0:0:0:0:
112,92,91668,1,0,0:0:0:0:
36,92,91834,6,0,B|0:164|44:256,1,140
84,284,92334,1,0,0:0:0:0:
84,284,92500,1,2,0:0:0:0:
160,284,92667,2,0,B|220:284,2,35,0|0|2,0:0|0:0|0:0,0:0:0:0:
120,216,93001,1,0,0:0:0:0:
196,212,93168,38,0,B|336:212,1,140,4|0,0:0|0:0,0:0:0:0:
400,172,93668,2,0,B|312:172,1,70,0|2,0:0|0:0,0:0:0:0:
288,108,94001,2,0,B|232:108,2,35,0|0|2,0:0|0:0|0:0,0:0:0:0:
364,108,94334,1,0,0:0:0:0:
440,108,94501,6,0,B|484:180|432:256,1,140,0|2,0:0|0:0,0:0:0:0:
441,240,95001,2,0,B|440:336,1,70,0|2,0:0|0:0,0:0:0:0:
368,284,95334,2,0,B|368:344,2,35,0|0|2,0:0|0:0|0:0,0:0:0:0:
308,232,95668,1,0,0:0:0:0:
244,272,95834,2,0,B|176:296|176:296|100:268,1,140,4|0,0:0|0:0,0:0:0:0:
64,212,96334,1,0,0:0:0:0:
64,212,96500,1,2,0:0:0:0:
60,136,96667,38,0,B|60:80,2,35,0|0|2,0:0|0:0|0:0,0:0:0:0:
160,236,97001,2,0,B|160:272,2,35,2|0|0,0:0|0:0|0:0,0:0:0:0:
256,136,97334,38,0,B|256:92,2,35,2|0|0,0:0|0:0|0:0,0:0:0:0:
364,232,97668,2,0,B|364:280,2,35,2|0|0,0:0|0:0|0:0,0:0:0:0:
460,136,98001,38,0,B|460:88,2,35,2|0|0,0:0|0:0|0:0,0:0:0:0:
256,304,98334,2,0,B|256:360,2,35,2|0|0,0:0|0:0|0:0,0:0:0:0:
256,264,98584,1,0,0:0:0:0:
256,224,98668,6,0,B|256:136,1,70,4|2,0:0|0:0,0:0:0:0:
304,96,99001,2,0,B|304:172,1,70,0|2,0:0|0:0,0:0:0:0:
356,224,99334,2,0,B|356:132,1,70,0|2,0:0|0:0,0:0:0:0:
408,96,99668,2,0,B|408:188,1,70
256,224,100001,38,0,B|256:136,1,70,4|2,0:0|0:0,0:0:0:0:
208,96,100334,2,0,B|208:172,1,70,0|2,0:0|0:0,0:0:0:0:
156,224,100667,2,0,B|156:132,1,70,0|2,0:0|0:0,0:0:0:0:
104,96,101001,2,0,B|104:188,1,70
160,308,101334,6,0,B|200:336|252:336,1,70,0|2,0:0|0:0,0:0:0:0:
300,336,101668,2,0,B|360:336,2,35,0|0|2,0:0|0:0|0:0,0:0:0:0:
360,208,102001,38,0,B|320:236|268:236,1,70,0|2,0:0|0:0,0:0:0:0:
220,236,102335,2,0,B|160:236,2,35,0|0|2,0:0|0:0|0:0,0:0:0:0:
156,112,102668,6,0,B|196:140|248:140,1,70,0|2,0:0|0:0,0:0:0:0:
296,140,103002,2,0,B|356:140,2,35,0|0|2,0:0|0:0|0:0,0:0:0:0:
340,36,103334,37,0,0:0:0:0:
340,36,103418,1,0,0:0:0:0:
224,48,103584,1,0,0:0:0:0:
224,48,103668,1,0,0:0:0:0:
104,64,103834,1,0,0:0:0:0:
12,152,104001,6,0,B|44:184|92:188,1,70,0|2,0:0|0:0,0:0:0:0:
192,140,104334,2,0,B|160:172|156:220,1,70,0|2,0:0|0:0,0:0:0:0:
208,316,104668,2,0,B|176:284|128:280,1,70,0|2,0:0|0:0,0:0:0:0:
32,336,105001,2,0,B|64:304|68:256,1,70,0|2,0:0|0:0,0:0:0:0:
104,64,105334,38,0,B|144:88|200:80,1,70,0|2,0:0|0:0,0:0:0:0:
384,40,105668,2,0,B|360:80|368:136,1,70,0|2,0:0|0:0,0:0:0:0:
408,320,106001,2,0,B|368:296|312:304,1,70,0|2,0:0|0:0,0:0:0:0:
128,344,106334,2,0,B|152:304|144:248,1,70,0|2,0:0|0:0,0:0:0:0:
176,156,106668,5,0,0:0:0:0:
292,112,106834,1,2,0:0:0:0:
336,228,107001,1,0,0:0:0:0:
220,272,107168,1,2,0:0:0:0:
228,120,107334,37,0,0:0:0:0:
328,164,107501,1,2,0:0:0:0:
284,264,107668,1,0,0:0:0:0:
184,220,107834,1,2,0:0:0:0:
256,192,108001,12,0,109168,0:0:0:0:
256,192,109334,5,4,0:0:0:0:
220,114,109501,1,2,0:0:0:0:
140,83,109668,1,0,0:0:0:0:
59,114,109834,1,2,0:0:0:0:
129,167,110001,1,0,0:0:0:0:
66,227,110168,1,2,0:0:0:0:
147,255,110334,1,0,0:0:0:0:
84,318,110501,1,2,0:0:0:0:
256,192,110668,37,4,0:0:0:0:
291,114,110835,1,2,0:0:0:0:
371,83,111002,1,0,0:0:0:0:
452,114,111168,1,2,0:0:0:0:
382,167,111335,1,0,0:0:0:0:
445,227,111502,1,2,0:0:0:0:
364,255,111668,1,0,0:0:0:0:
427,318,111835,1,2,0:0:0:0:
256,192,112001,5,4,0:0:0:0:
225,279,112168,1,2,0:0:0:0:
142,320,112334,1,0,0:0:0:0:
142,226,112501,1,2,0:0:0:0:
115,135,112668,1,0,0:0:0:0:
59,207,112834,1,2,0:0:0:0:
28,120,113001,1,0,0:0:0:0:
89,51,113168,1,2,0:0:0:0:
256,192,113334,37,4,0:0:0:0:
286,279,113501,1,2,0:0:0:0:
369,320,113667,1,0,0:0:0:0:
369,226,113834,1,2,0:0:0:0:
396,135,114001,1,0,0:0:0:0:
452,207,114167,1,2,0:0:0:0:
483,120,114334,1,0,0:0:0:0:
422,51,114501,1,2,0:0:0:0:
132,64,114668,5,4,0:0:0:0:
216,112,114834,1,2,0:0:0:0:
128,152,115001,1,0,0:0:0:0:
36,188,115168,1,2,0:0:0:0:
128,224,115334,1,0,0:0:0:0:
216,264,115501,1,2,0:0:0:0:
132,316,115668,1,0,0:0:0:0:
224,352,115834,1,2,0:0:0:0:
380,64,116001,37,4,0:0:0:0:
296,112,116167,1,2,0:0:0:0:
384,152,116334,1,0,0:0:0:0:
476,188,116501,1,2,0:0:0:0:
384,224,116667,1,0,0:0:0:0:
296,264,116834,1,2,0:0:0:0:
380,316,117001,1,0,0:0:0:0:
472,352,117167,1,2,0:0:0:0:
256,192,117334,6,0,B|256:252,15,35,2|0|2|0|2|0|2|0|2|0|2|0|2|0|2|0,0:0|0:0|0:0|0:0|0:0|0:0|0:0|0:0|0:0|0:0|0:0|0:0|0:0|0:0|0:0|0:0,0:0:0:0:
256,192,118668,12,4,120001,0:0:0:0:
256,192,121001,5,0,0:0:0:0:
163,140,121334,1,2,0:0:0:0:
256,99,121668,1,2,0:0:0:0:
348,140,122001,1,0,0:0:0:0:
351,239,122334,1,2,0:0:0:0:
256,284,122668,1,2,0:0:0:0:
256,300,123668,5,2,0:0:0:0:
160,224,124001,2,0,P|168:176|240:136,1,105
312,168,124563,1,2,0:0:0:0:
312,168,124751,2,0,B|360:168|384:188,2,70,2|0|2,0:0|0:0|0:0,0:0:0:0:
256,88,127024,5,2,0:0:0:0:
256,136,127881,5,2,0:0:0:0:
256,192,128756,21,6,0:0:0:0:
