osu file format v12

[General]
AudioFilename: End Time 2.mp3
AudioLeadIn: 0
PreviewTime: 1320
Countdown: 0
SampleSet: Soft
StackLeniency: 0.7
Mode: 0
LetterboxInBreaks: 0
WidescreenStoryboard: 0

[Editor]
DistanceSpacing: 0.5
BeatDivisor: 4
GridSize: 4

[Metadata]
Title:End Time
TitleUnicode:End Time
Artist:Cres
ArtistUnicode:Cres
Creator:Fear
Version:Fear
Source:BMS
Tags:cyclia swish gowww soulfear Kanon TechnoBreak
BeatmapID:117580
BeatmapSetID:36382

[Difficulty]
HPDrainRate:6
CircleSize:5
OverallDifficulty:8
ApproachRate:9
SliderMultiplier:1.8
SliderTickRate:1

[Events]
//Background and Video events
0,0,"BG.jpg",0,0
Video,-4035,"BGA.avi"
//Break Periods
//Storyboard Layer 0 (Background)
//Storyboard Layer 1 (Fail)
//Storyboard Layer 2 (Pass)
//Storyboard Layer 3 (Foreground)
//Storyboard Sound Samples
//Background Colour Transformations
3,100,163,162,255

[TimingPoints]
1320,333.333333333333,4,2,1,70,1,0
11653,-100,4,2,1,40,0,0
12153,-100,4,2,1,50,0,0
12319,-100,4,2,1,60,0,0
12486,-100,4,2,1,70,0,0
12653,-100,4,2,1,80,0,0
23236,-100,4,1,1,80,0,0
24069,-100,4,2,1,80,0,0
25236,-100,4,1,1,80,0,0
25403,-100,4,2,1,80,0,0
26569,-100,4,1,1,80,0,0
26736,-100,4,2,1,80,0,0
27903,-100,4,1,1,80,0,0
28069,-100,4,2,1,80,0,0
29236,-100,4,2,1,85,0,0
31903,-100,4,2,1,70,0,0
33278,-100,4,2,2,80,0,0
34611,-100,4,2,1,80,0,0
34986,-100,4,2,1,75,0,0
54986,-100,4,2,1,80,0,0
77236,-100,4,2,1,75,0,0
93236,-100,4,2,1,80,0,0
94569,-100,4,2,1,85,0,0
95903,-100,4,2,1,87,0,0
97278,-100,4,2,1,92,0,0
97319,-100,4,2,1,92,0,1
97944,-100,4,2,1,90,0,1
98028,-100,4,2,1,100,0,1
98486,-100,4,2,1,100,0,1
98569,-100,4,2,1,95,0,1
98653,-100,4,2,1,95,0,0
103236,-100,4,1,1,95,0,0
104028,-100,4,2,1,95,0,0
108611,-100,4,2,1,75,0,0
108694,-100,4,2,1,95,0,0
109319,-66.6666666666667,4,2,1,100,0,0
117236,-66.6666666666667,4,1,1,100,0,0
119944,-66.6666666666667,4,2,1,100,0,0
119986,-100,4,2,1,100,0,0
120319,-100,4,2,1,60,0,0
123986,375,4,2,1,60,1,0
124736,400,4,2,1,60,1,0
125536,352.941176470588,4,2,1,60,1,0
126241,375,4,2,1,60,1,0
126803,413.793103448276,4,2,1,60,1,0
127009,428.571428571429,4,2,1,60,1,0
128616,500,4,2,1,60,1,0
128741,500,4,2,1,60,1,0

[Colours]
Combo1 : 0,255,255
Combo2 : 180,180,180
Combo3 : 255,255,255
Combo4 : 255,60,60

[HitObjects]
256,192,1320,1,0,0:0:0:0:
256,192,2319,5,0,0:0:0:0:
112,192,2653,1,2,0:0:0:0:
112,336,2986,1,0,0:0:0:0:
24,224,3319,1,2,0:0:0:0:
168,192,3653,1,0,0:0:0:0:
256,304,3986,1,2,0:0:0:0:
256,192,4986,37,0,0:0:0:0:
380,120,5319,1,2,0:0:0:0:
488,216,5653,1,0,0:0:0:0:
396,328,5986,1,2,0:0:0:0:
344,192,6319,1,0,0:0:0:0:
204,224,6653,5,2,0:0:0:0:
256,192,7986,1,0,0:0:0:0:
256,192,9319,1,2,0:0:0:0:
256,192,11986,38,2,B|256:168,30,22.5,0|0|0|0|0|0|0|0|0|0|0|0|0|0|0|0|0|0|0|0|0|0|0|0|0|0|0|0|0|0|0,0:0|0:0|0:0|0:0|0:0|0:0|0:0|0:0|0:0|0:0|0:0|0:0|0:0|0:0|0:0|0:0|0:0|0:0|0:0|0:0|0:0|0:0|0:0|0:0|0:0|0:0|0:0|0:0|0:0|0:0|0:0,0:0:0:0:
184,192,13319,5,4,0:0:0:0:
92,192,13486,1,2,0:0:0:0:
32,260,13653,1,0,0:0:0:0:
32,172,13819,1,2,0:0:0:0:
84,100,13986,1,0,0:0:0:0:
176,100,14153,1,2,0:0:0:0:
212,184,14319,1,0,0:0:0:0:
164,260,14486,1,2,0:0:0:0:
332,192,14819,37,2,0:0:0:0:
420,164,14986,1,0,0:0:0:0:
372,88,15153,1,2,0:0:0:0:
288,52,15319,1,0,0:0:0:0:
252,136,15486,1,2,0:0:0:0:
168,164,15653,1,0,0:0:0:0:
224,232,15819,1,2,0:0:0:0:
44,220,16153,5,2,0:0:0:0:
116,272,16319,1,0,0:0:0:0:
200,300,16486,1,2,0:0:0:0:
288,272,16653,1,0,0:0:0:0:
372,236,16819,1,2,0:0:0:0:
300,184,16986,1,0,0:0:0:0:
384,148,17153,1,2,0:0:0:0:
256,24,17486,37,2,0:0:0:0:
300,104,17653,1,0,0:0:0:0:
236,168,17819,1,2,0:0:0:0:
164,224,17986,1,0,0:0:0:0:
228,288,18153,1,2,0:0:0:0:
292,224,18319,1,0,0:0:0:0:
220,168,18486,1,2,0:0:0:0:
400,188,18819,5,2,0:0:0:0:
360,108,18986,1,0,0:0:0:0:
316,188,19153,1,2,0:0:0:0:
268,112,19319,1,0,0:0:0:0:
196,164,19486,1,2,0:0:0:0:
196,72,19653,1,0,0:0:0:0:
124,128,19819,1,2,0:0:0:0:
256,252,20153,37,2,0:0:0:0:
324,312,20319,1,0,0:0:0:0:
388,248,20486,1,2,0:0:0:0:
368,160,20653,1,0,0:0:0:0:
388,248,20819,1,2,0:0:0:0:
448,180,20986,1,0,0:0:0:0:
448,92,21153,1,2,0:0:0:0:
312,212,21486,5,2,0:0:0:0:
256,284,21653,1,0,0:0:0:0:
256,192,21819,1,2,0:0:0:0:
188,248,21986,1,0,0:0:0:0:
168,160,22153,1,2,0:0:0:0:
104,224,22319,1,0,0:0:0:0:
56,148,22486,1,2,0:0:0:0:
232,184,22819,37,2,0:0:0:0:
144,212,22986,1,0,0:0:0:0:
60,244,23153,1,2,0:0:0:0:
72,332,23319,1,0,0:0:0:0:
72,332,23403,1,0,0:0:0:0:
160,340,23569,1,0,0:0:0:0:
160,340,23653,1,0,0:0:0:0:
240,304,23819,1,0,0:0:0:0:
240,304,23903,1,0,0:0:0:0:
240,304,23986,5,4,0:0:0:0:
192,232,24153,1,2,0:0:0:0:
184,220,24236,1,0,0:0:0:0:
184,208,24319,1,0,0:0:0:0:
188,196,24403,1,0,0:0:0:0:
196,184,24486,1,2,0:0:0:0:
208,176,24569,1,0,0:0:0:0:
220,172,24653,1,0,0:0:0:0:
232,172,24736,1,0,0:0:0:0:
244,180,24819,1,2,0:0:0:0:
252,192,24903,1,0,0:0:0:0:
256,204,24986,1,0,0:0:0:0:
256,216,25069,1,0,0:0:0:0:
252,228,25153,1,2,0:0:0:0:
168,192,25319,37,4,0:0:0:0:
256,184,25486,1,2,0:0:0:0:
248,172,25569,1,0,0:0:0:0:
248,160,25653,1,0,0:0:0:0:
252,148,25736,1,0,0:0:0:0:
260,136,25819,1,2,0:0:0:0:
272,128,25903,1,0,0:0:0:0:
284,124,25986,1,0,0:0:0:0:
296,124,26069,1,0,0:0:0:0:
308,132,26153,1,2,0:0:0:0:
316,144,26236,1,0,0:0:0:0:
320,156,26319,1,0,0:0:0:0:
320,168,26403,1,0,0:0:0:0:
316,180,26486,1,2,0:0:0:0:
256,248,26653,5,4,0:0:0:0:
172,284,26819,1,2,0:0:0:0:
160,292,26903,1,0,0:0:0:0:
148,292,26986,1,0,0:0:0:0:
136,288,27069,1,0,0:0:0:0:
124,280,27153,1,2,0:0:0:0:
116,268,27236,1,0,0:0:0:0:
112,256,27319,1,0,0:0:0:0:
112,244,27403,1,0,0:0:0:0:
120,232,27486,1,2,0:0:0:0:
132,224,27569,1,0,0:0:0:0:
144,220,27653,1,0,0:0:0:0:
156,220,27736,1,0,0:0:0:0:
168,224,27819,1,2,0:0:0:0:
100,284,27986,37,4,0:0:0:0:
48,212,28153,1,2,0:0:0:0:
40,200,28236,1,0,0:0:0:0:
40,188,28319,1,0,0:0:0:0:
44,176,28403,1,0,0:0:0:0:
52,164,28486,1,2,0:0:0:0:
64,156,28569,1,0,0:0:0:0:
76,152,28653,1,0,0:0:0:0:
88,152,28736,1,0,0:0:0:0:
100,160,28819,1,2,0:0:0:0:
108,172,28903,1,0,0:0:0:0:
112,184,28986,1,0,0:0:0:0:
112,196,29069,1,0,0:0:0:0:
108,208,29153,1,2,0:0:0:0:
196,220,29319,5,2,0:0:0:0:
196,220,29403,1,0,0:0:0:0:
196,220,29486,1,2,0:0:0:0:
284,192,29653,1,2,0:0:0:0:
284,192,29819,1,2,0:0:0:0:
212,140,29986,1,2,0:0:0:0:
212,140,30069,1,0,0:0:0:0:
212,140,30153,1,2,0:0:0:0:
124,164,30319,1,2,0:0:0:0:
52,220,30486,1,2,0:0:0:0:
96,300,30653,37,2,0:0:0:0:
96,300,30736,1,0,0:0:0:0:
96,300,30819,1,2,0:0:0:0:
176,260,30986,1,2,0:0:0:0:
176,260,31153,1,2,0:0:0:0:
216,180,31319,1,2,0:0:0:0:
216,180,31403,1,0,0:0:0:0:
216,180,31486,1,2,0:0:0:0:
124,180,31653,1,2,0:0:0:0:
124,180,31736,1,0,0:0:0:0:
124,180,31819,1,2,0:0:0:0:
220,132,31986,6,0,B|252:100,1,45,6|0,0:0|0:0,0:0:0:0:
104,148,32153,2,0,B|72:180,1,45,6|0,0:0|0:0,0:0:0:0:
220,228,32319,2,0,B|252:260,1,45,6|0,0:0|0:0,0:0:0:0:
104,280,32486,2,0,B|72:312,1,45,6|0,0:0|0:0,0:0:0:0:
304,132,32653,38,0,B|336:100,1,45,6|0,0:0|0:0,0:0:0:0:
188,148,32819,2,0,B|156:180,1,45,6|0,0:0|0:0,0:0:0:0:
304,228,32986,2,0,B|336:260,1,45,6|0,0:0|0:0,0:0:0:0:
188,280,33153,2,0,B|144:280,1,45,6|0,0:0|0:0,0:0:0:0:
304,324,33319,5,0,0:0:0:0:
316,324,33403,1,0,0:0:0:0:
328,320,33486,1,2,0:0:0:0:
340,312,33569,1,0,0:0:0:0:
352,304,33653,1,2,0:0:0:0:
360,292,33736,1,0,0:0:0:0:
368,280,33819,1,2,0:0:0:0:
372,268,33903,1,0,0:0:0:0:
372,256,33986,1,0,0:0:0:0:
372,244,34069,1,0,0:0:0:0:
372,232,34153,1,2,0:0:0:0:
372,220,34236,1,0,0:0:0:0:
372,208,34319,1,2,0:0:0:0:
372,196,34403,1,0,0:0:0:0:
372,184,34486,1,2,0:0:0:0:
372,172,34569,1,0,0:0:0:0:
372,160,34653,1,6,0:0:0:0:
112,80,35653,37,0,0:0:0:0:
84,88,35819,1,2,0:0:0:0:
104,108,35986,1,0,0:0:0:0:
316,140,36986,1,0,0:0:0:0:
340,148,37153,1,2,0:0:0:0:
320,168,37319,1,0,0:0:0:0:
256,356,38319,5,0,0:0:0:0:
236,336,38486,1,2,0:0:0:0:
264,332,38653,1,0,0:0:0:0:
32,192,39319,1,0,0:0:0:0:
104,108,39986,1,2,0:0:0:0:
224,32,41319,1,0,0:0:0:0:
256,32,41986,1,2,0:0:0:0:
288,32,42653,1,0,0:0:0:0:
256,192,45319,37,0,0:0:0:0:
184,184,45986,1,2,0:0:0:0:
116,164,46653,1,2,0:0:0:0:
156,104,47319,1,0,0:0:0:0:
156,32,47986,1,2,0:0:0:0:
476,192,49319,5,0,0:0:0:0:
416,232,49986,1,2,0:0:0:0:
344,220,50653,1,0,0:0:0:0:
76,192,51653,1,0,0:0:0:0:
52,176,51819,1,2,0:0:0:0:
76,164,51986,1,0,0:0:0:0:
256,192,52653,1,0,0:0:0:0:
256,192,53319,1,0,0:0:0:0:
176,268,55319,37,0,0:0:0:0:
196,256,55403,1,0,0:0:0:0:
216,244,55486,1,2,0:0:0:0:
236,232,55569,1,0,0:0:0:0:
224,212,55653,1,2,0:0:0:0:
244,200,55736,1,0,0:0:0:0:
264,188,55819,1,2,0:0:0:0:
284,180,55903,1,0,0:0:0:0:
304,192,55986,2,0,B|392:192,1,90,6|2,0:0|0:0,0:0:0:0:
394,192,56236,1,2,0:0:0:0:
256,344,56486,2,0,B|168:344,1,90,6|2,0:0|0:0,0:0:0:0:
166,344,56736,1,2,0:0:0:0:
136,212,56986,5,6,0:0:0:0:
116,124,57153,1,2,0:0:0:0:
196,80,57319,1,6,0:0:0:0:
288,80,57486,1,2,0:0:0:0:
288,80,57569,1,2,0:0:0:0:
384,176,57819,1,6,0:0:0:0:
400,264,57986,1,2,0:0:0:0:
400,264,58069,1,2,0:0:0:0:
272,312,58319,1,6,0:0:0:0:
180,312,58486,1,2,0:0:0:0:
88,312,58653,1,6,0:0:0:0:
40,236,58819,1,2,0:0:0:0:
40,236,58903,1,2,0:0:0:0:
136,140,59153,37,6,0:0:0:0:
216,104,59319,1,2,0:0:0:0:
216,104,59403,1,2,0:0:0:0:
216,104,59486,1,2,0:0:0:0:
308,104,59653,1,2,0:0:0:0:
392,136,59819,1,2,0:0:0:0:
448,208,59986,1,2,0:0:0:0:
312,208,60153,1,2,0:0:0:0:
312,208,60236,1,2,0:0:0:0:
176,208,60403,1,2,0:0:0:0:
176,208,60486,1,2,0:0:0:0:
256,320,60653,1,2,0:0:0:0:
256,320,60736,1,2,0:0:0:0:
256,320,60819,1,2,0:0:0:0:
128,288,60986,1,6,0:0:0:0:
256,160,61319,5,6,0:0:0:0:
348,160,61486,1,2,0:0:0:0:
348,160,61569,1,2,0:0:0:0:
256,260,61819,1,6,0:0:0:0:
356,260,61986,1,2,0:0:0:0:
356,260,62069,1,2,0:0:0:0:
240,192,62319,1,6,0:0:0:0:
148,192,62486,1,2,0:0:0:0:
56,192,62653,1,6,0:0:0:0:
60,76,62819,1,2,0:0:0:0:
60,76,62903,1,2,0:0:0:0:
180,136,63153,1,6,0:0:0:0:
184,20,63319,1,2,0:0:0:0:
184,20,63403,1,2,0:0:0:0:
296,120,63653,37,6,0:0:0:0:
384,112,63819,1,2,0:0:0:0:
440,184,63986,1,6,0:0:0:0:
324,184,64153,1,2,0:0:0:0:
324,184,64236,1,2,0:0:0:0:
212,184,64403,1,2,0:0:0:0:
212,184,64486,1,2,0:0:0:0:
168,260,64653,1,2,0:0:0:0:
168,260,64736,1,2,0:0:0:0:
80,232,64903,1,2,0:0:0:0:
80,232,64986,1,6,0:0:0:0:
80,232,65069,2,0,B|32:232,1,45,2|6,0:0|0:0,0:0:0:0:
80,152,65319,5,6,0:0:0:0:
80,60,65486,1,2,0:0:0:0:
80,60,65569,1,2,0:0:0:0:
172,60,65736,1,2,0:0:0:0:
172,60,65819,1,2,0:0:0:0:
172,60,65903,2,0,B|220:60,1,45,2|2,0:0|0:0,0:0:0:0:
308,60,66153,1,2,0:0:0:0:
396,60,66319,1,2,0:0:0:0:
400,152,66486,1,2,0:0:0:0:
400,244,66653,37,6,0:0:0:0:
284,244,66819,1,2,0:0:0:0:
284,244,66903,1,2,0:0:0:0:
148,244,67153,1,6,0:0:0:0:
32,244,67319,1,2,0:0:0:0:
32,244,67403,1,2,0:0:0:0:
36,108,67653,1,6,0:0:0:0:
116,72,67819,1,2,0:0:0:0:
208,72,67986,1,6,0:0:0:0:
316,72,68153,1,2,0:0:0:0:
316,72,68236,1,2,0:0:0:0:
452,72,68486,1,2,0:0:0:0:
480,160,68653,1,2,0:0:0:0:
480,160,68736,1,2,0:0:0:0:
480,160,68819,1,2,0:0:0:0:
372,160,68986,5,6,0:0:0:0:
288,128,69153,1,2,0:0:0:0:
200,128,69319,2,0,L|108:128,1,90,6|2,0:0|0:0,0:0:0:0:
110,128,69569,1,2,0:0:0:0:
110,128,69653,1,2,0:0:0:0:
68,208,69819,1,2,0:0:0:0:
68,208,69903,1,2,0:0:0:0:
68,208,69986,2,0,B|20:208,1,45,6|2,0:0|0:0,0:0:0:0:
76,280,70236,1,2,0:0:0:0:
76,280,70319,1,6,0:0:0:0:
76,280,70403,2,0,B|28:280,1,45,2|2,0:0|0:0,0:0:0:0:
88,348,70653,1,6,0:0:0:0:
156,292,70819,1,2,0:0:0:0:
156,292,70903,1,2,0:0:0:0:
156,292,70986,1,2,0:0:0:0:
244,304,71153,1,2,0:0:0:0:
332,304,71319,1,6,0:0:0:0:
332,304,71403,1,2,0:0:0:0:
332,304,71486,1,2,0:0:0:0:
404,248,71653,1,2,0:0:0:0:
408,160,71819,1,2,0:0:0:0:
368,80,71986,37,6,0:0:0:0:
276,80,72153,1,2,0:0:0:0:
276,80,72236,1,2,0:0:0:0:
140,80,72486,1,6,0:0:0:0:
48,80,72653,1,2,0:0:0:0:
48,80,72736,1,2,0:0:0:0:
52,216,72986,1,6,0:0:0:0:
140,200,73153,1,2,0:0:0:0:
228,192,73319,1,6,0:0:0:0:
320,192,73486,1,2,0:0:0:0:
320,192,73569,1,2,0:0:0:0:
456,192,73819,5,6,0:0:0:0:
456,284,73986,1,2,0:0:0:0:
456,284,74069,1,2,0:0:0:0:
456,284,74153,1,2,0:0:0:0:
368,280,74319,1,2,0:0:0:0:
368,280,74403,1,2,0:0:0:0:
368,280,74486,1,2,0:0:0:0:
276,280,74653,1,6,0:0:0:0:
188,280,74819,1,2,0:0:0:0:
188,280,74903,1,2,0:0:0:0:
100,280,75069,1,2,0:0:0:0:
100,280,75153,1,2,0:0:0:0:
12,280,75319,1,2,0:0:0:0:
12,280,75403,1,2,0:0:0:0:
12,280,75486,1,2,0:0:0:0:
12,188,75653,1,2,0:0:0:0:
12,188,75736,1,2,0:0:0:0:
12,188,75819,1,2,0:0:0:0:
12,96,75986,37,6,0:0:0:0:
104,96,76153,1,2,0:0:0:0:
104,96,76236,1,2,0:0:0:0:
196,96,76403,1,2,0:0:0:0:
196,96,76486,1,2,0:0:0:0:
288,96,76653,1,6,0:0:0:0:
288,96,76736,1,2,0:0:0:0:
288,96,76819,1,2,0:0:0:0:
288,96,76903,1,2,0:0:0:0:
288,96,76986,1,2,0:0:0:0:
380,96,77153,1,6,0:0:0:0:
440,164,77319,5,0,0:0:0:0:
428,172,77403,1,0,0:0:0:0:
416,180,77486,1,2,0:0:0:0:
404,184,77569,1,0,0:0:0:0:
392,188,77653,1,0,0:0:0:0:
380,188,77736,1,0,0:0:0:0:
368,184,77819,1,2,0:0:0:0:
356,176,77903,1,0,0:0:0:0:
344,172,77986,1,0,0:0:0:0:
332,168,78069,1,0,0:0:0:0:
320,168,78153,1,2,0:0:0:0:
308,172,78236,1,0,0:0:0:0:
296,176,78319,1,2,0:0:0:0:
284,180,78403,1,0,0:0:0:0:
272,188,78486,1,2,0:0:0:0:
216,272,78653,37,0,0:0:0:0:
228,264,78736,1,0,0:0:0:0:
240,256,78819,1,2,0:0:0:0:
252,252,78903,1,0,0:0:0:0:
264,248,78986,1,0,0:0:0:0:
276,248,79069,1,0,0:0:0:0:
288,252,79153,1,2,0:0:0:0:
300,260,79236,1,0,0:0:0:0:
312,264,79319,1,2,0:0:0:0:
324,268,79403,1,0,0:0:0:0:
336,268,79486,1,2,0:0:0:0:
348,264,79569,1,0,0:0:0:0:
360,260,79653,1,0,0:0:0:0:
372,256,79736,1,0,0:0:0:0:
384,248,79819,1,2,0:0:0:0:
472,200,79986,5,0,0:0:0:0:
472,214,80069,1,0,0:0:0:0:
473,228,80153,1,2,0:0:0:0:
471,241,80236,1,0,0:0:0:0:
468,253,80319,1,0,0:0:0:0:
462,263,80403,1,0,0:0:0:0:
453,272,80486,1,2,0:0:0:0:
440,278,80569,1,0,0:0:0:0:
430,287,80653,1,0,0:0:0:0:
421,295,80736,1,0,0:0:0:0:
415,305,80819,1,2,0:0:0:0:
412,318,80903,1,0,0:0:0:0:
410,330,80986,1,2,0:0:0:0:
407,343,81069,1,0,0:0:0:0:
408,357,81153,1,2,0:0:0:0:
340,288,81319,37,2,0:0:0:0:
340,274,81403,1,0,0:0:0:0:
341,260,81486,1,2,0:0:0:0:
339,247,81569,1,0,0:0:0:0:
336,235,81653,1,0,0:0:0:0:
330,225,81736,1,0,0:0:0:0:
321,216,81819,1,2,0:0:0:0:
308,210,81903,1,0,0:0:0:0:
298,201,81986,1,0,0:0:0:0:
289,193,82069,1,0,0:0:0:0:
283,183,82153,1,2,0:0:0:0:
280,170,82236,1,0,0:0:0:0:
278,158,82319,1,2,0:0:0:0:
275,145,82403,1,0,0:0:0:0:
276,131,82486,1,2,0:0:0:0:
188,84,82653,5,0,0:0:0:0:
176,88,82736,1,0,0:0:0:0:
172,100,82819,1,2,0:0:0:0:
160,100,82903,1,0,0:0:0:0:
156,112,82986,1,0,0:0:0:0:
144,112,83069,1,0,0:0:0:0:
140,124,83153,1,2,0:0:0:0:
128,124,83236,1,0,0:0:0:0:
124,136,83319,1,2,0:0:0:0:
112,136,83403,1,0,0:0:0:0:
108,148,83486,1,2,0:0:0:0:
96,148,83569,1,0,0:0:0:0:
88,160,83653,1,0,0:0:0:0:
76,160,83736,1,0,0:0:0:0:
68,172,83819,1,2,0:0:0:0:
168,184,83986,37,0,0:0:0:0:
172,196,84069,1,0,0:0:0:0:
184,200,84153,1,2,0:0:0:0:
184,212,84236,1,0,0:0:0:0:
196,216,84319,1,0,0:0:0:0:
196,228,84403,1,0,0:0:0:0:
208,232,84486,1,2,0:0:0:0:
208,244,84569,1,0,0:0:0:0:
220,248,84653,1,2,0:0:0:0:
220,260,84736,1,0,0:0:0:0:
232,264,84819,1,2,0:0:0:0:
232,276,84903,1,0,0:0:0:0:
244,284,84986,1,2,0:0:0:0:
244,296,85069,1,0,0:0:0:0:
256,304,85153,1,2,0:0:0:0:
280,208,85319,5,2,0:0:0:0:
284,220,85403,1,0,0:0:0:0:
296,224,85486,1,2,0:0:0:0:
296,236,85569,1,0,0:0:0:0:
308,240,85653,1,0,0:0:0:0:
308,252,85736,1,0,0:0:0:0:
320,256,85819,1,2,0:0:0:0:
320,268,85903,1,0,0:0:0:0:
332,272,85986,1,2,0:0:0:0:
332,284,86069,1,0,0:0:0:0:
344,288,86153,1,2,0:0:0:0:
344,300,86236,1,0,0:0:0:0:
356,308,86319,1,0,0:0:0:0:
356,320,86403,1,0,0:0:0:0:
368,328,86486,1,2,0:0:0:0:
360,224,86653,37,0,0:0:0:0:
372,220,86736,1,0,0:0:0:0:
376,208,86819,1,2,0:0:0:0:
388,208,86903,1,0,0:0:0:0:
392,196,86986,1,2,0:0:0:0:
404,196,87069,1,0,0:0:0:0:
408,184,87153,1,2,0:0:0:0:
420,184,87236,1,0,0:0:0:0:
424,172,87319,1,0,0:0:0:0:
436,172,87403,1,0,0:0:0:0:
440,160,87486,1,2,0:0:0:0:
452,160,87569,1,0,0:0:0:0:
460,148,87653,1,2,0:0:0:0:
472,148,87736,1,0,0:0:0:0:
480,136,87819,1,2,0:0:0:0:
420,56,87986,5,0,0:0:0:0:
408,56,88069,1,0,0:0:0:0:
396,56,88153,1,2,0:0:0:0:
384,56,88236,1,0,0:0:0:0:
372,56,88319,1,0,0:0:0:0:
360,56,88403,1,0,0:0:0:0:
348,56,88486,1,2,0:0:0:0:
336,56,88569,1,0,0:0:0:0:
324,56,88653,1,0,0:0:0:0:
312,56,88736,1,0,0:0:0:0:
300,56,88819,1,2,0:0:0:0:
288,56,88903,1,0,0:0:0:0:
276,56,88986,1,2,0:0:0:0:
264,56,89069,1,0,0:0:0:0:
252,56,89153,1,2,0:0:0:0:
180,124,89319,37,0,0:0:0:0:
192,124,89403,1,0,0:0:0:0:
204,124,89486,1,2,0:0:0:0:
216,124,89569,1,0,0:0:0:0:
228,124,89653,1,0,0:0:0:0:
240,124,89736,1,0,0:0:0:0:
252,124,89819,1,2,0:0:0:0:
264,124,89903,1,0,0:0:0:0:
276,124,89986,1,2,0:0:0:0:
288,124,90069,1,0,0:0:0:0:
300,124,90153,1,2,0:0:0:0:
312,124,90236,1,0,0:0:0:0:
324,124,90319,1,2,0:0:0:0:
336,124,90403,1,0,0:0:0:0:
348,124,90486,1,2,0:0:0:0:
420,192,90653,5,0,0:0:0:0:
408,192,90736,1,0,0:0:0:0:
396,192,90819,1,2,0:0:0:0:
384,192,90903,1,0,0:0:0:0:
372,192,90986,1,0,0:0:0:0:
360,192,91069,1,0,0:0:0:0:
348,192,91153,1,2,0:0:0:0:
336,192,91236,1,0,0:0:0:0:
324,192,91319,1,0,0:0:0:0:
312,192,91403,1,0,0:0:0:0:
300,192,91486,1,2,0:0:0:0:
288,192,91569,1,0,0:0:0:0:
276,192,91653,1,2,0:0:0:0:
264,192,91736,1,0,0:0:0:0:
252,192,91819,1,2,0:0:0:0:
180,260,91986,37,0,0:0:0:0:
192,260,92069,1,0,0:0:0:0:
204,260,92153,1,2,0:0:0:0:
216,260,92236,1,0,0:0:0:0:
228,260,92319,1,0,0:0:0:0:
240,260,92403,1,0,0:0:0:0:
252,260,92486,1,2,0:0:0:0:
264,260,92569,1,0,0:0:0:0:
276,260,92653,1,2,0:0:0:0:
288,260,92736,1,0,0:0:0:0:
300,260,92819,1,2,0:0:0:0:
312,260,92903,1,0,0:0:0:0:
324,260,92986,1,0,0:0:0:0:
336,260,93069,1,0,0:0:0:0:
348,260,93153,1,2,0:0:0:0:
420,192,93319,5,0,0:0:0:0:
408,192,93403,1,0,0:0:0:0:
396,192,93486,1,2,0:0:0:0:
384,192,93569,1,0,0:0:0:0:
372,192,93653,1,0,0:0:0:0:
360,192,93736,1,0,0:0:0:0:
348,192,93819,1,2,0:0:0:0:
336,192,93903,1,0,0:0:0:0:
324,192,93986,1,2,0:0:0:0:
312,192,94069,1,0,0:0:0:0:
300,192,94153,1,2,0:0:0:0:
288,192,94236,1,0,0:0:0:0:
276,192,94319,1,0,0:0:0:0:
264,192,94403,1,0,0:0:0:0:
252,192,94486,1,2,0:0:0:0:
180,124,94653,37,0,0:0:0:0:
192,124,94736,1,0,0:0:0:0:
204,124,94819,1,2,0:0:0:0:
216,124,94903,1,0,0:0:0:0:
228,124,94986,1,0,0:0:0:0:
240,124,95069,1,0,0:0:0:0:
252,124,95153,1,2,0:0:0:0:
264,124,95236,1,0,0:0:0:0:
276,124,95319,1,0,0:0:0:0:
288,124,95403,1,0,0:0:0:0:
300,124,95486,1,2,0:0:0:0:
312,124,95569,1,0,0:0:0:0:
324,124,95653,1,2,0:0:0:0:
336,124,95736,1,0,0:0:0:0:
348,124,95819,1,2,0:0:0:0:
444,104,95986,5,0,0:0:0:0:
444,104,96069,1,0,0:0:0:0:
444,104,96153,1,2,0:0:0:0:
444,104,96236,1,0,0:0:0:0:
444,104,96319,1,0,0:0:0:0:
444,104,96403,1,0,0:0:0:0:
444,104,96486,1,2,0:0:0:0:
444,104,96569,1,0,0:0:0:0:
444,104,96653,1,0,0:0:0:0:
444,104,96736,1,0,0:0:0:0:
444,104,96819,1,2,0:0:0:0:
444,104,96903,1,0,0:0:0:0:
444,104,96986,1,0,0:0:0:0:
444,104,97069,1,0,0:0:0:0:
444,104,97153,1,2,0:0:0:0:
444,104,97236,1,0,0:0:0:0:
452,124,97319,21,2,0:0:0:0:
452,148,97403,1,0,0:0:0:0:
452,172,97486,1,2,0:0:0:0:
452,196,97569,1,0,0:0:0:0:
452,220,97653,1,2,0:0:0:0:
452,244,97736,1,0,0:0:0:0:
452,268,97819,1,2,0:0:0:0:
452,292,97903,1,0,0:0:0:0:
420,320,97986,37,6,0:0:0:0:
380,340,98069,1,0,0:0:0:0:
336,340,98153,1,2,0:0:0:0:
292,340,98236,1,0,0:0:0:0:
248,340,98319,1,6,0:0:0:0:
204,340,98403,1,0,0:0:0:0:
160,340,98486,1,2,0:0:0:0:
360,160,98653,5,0,0:0:0:0:
360,160,98736,1,0,0:0:0:0:
360,160,98819,1,2,0:0:0:0:
360,160,98903,1,0,0:0:0:0:
360,160,98986,1,0,0:0:0:0:
248,220,99153,1,2,0:0:0:0:
128,184,99319,1,0,0:0:0:0:
128,184,99403,1,0,0:0:0:0:
128,184,99486,1,2,0:0:0:0:
128,184,99569,1,0,0:0:0:0:
128,184,99653,1,0,0:0:0:0:
8,224,99819,1,2,0:0:0:0:
68,112,99986,37,0,0:0:0:0:
68,112,100069,1,0,0:0:0:0:
68,112,100153,1,2,0:0:0:0:
68,112,100236,1,0,0:0:0:0:
68,112,100319,1,2,0:0:0:0:
68,112,100403,1,0,0:0:0:0:
68,112,100486,1,2,0:0:0:0:
172,40,100653,1,0,0:0:0:0:
204,40,100736,1,0,0:0:0:0:
236,40,100819,1,2,0:0:0:0:
268,40,100903,1,0,0:0:0:0:
300,40,100986,1,2,0:0:0:0:
332,40,101069,1,0,0:0:0:0:
364,40,101153,1,2,0:0:0:0:
468,108,101319,5,0,0:0:0:0:
468,108,101403,1,0,0:0:0:0:
468,108,101486,1,2,0:0:0:0:
468,108,101569,1,0,0:0:0:0:
468,108,101653,1,2,0:0:0:0:
468,108,101736,1,0,0:0:0:0:
468,108,101819,1,2,0:0:0:0:
468,108,101903,1,0,0:0:0:0:
436,108,101986,37,0,0:0:0:0:
404,108,102069,1,0,0:0:0:0:
372,108,102153,1,2,0:0:0:0:
340,108,102236,1,0,0:0:0:0:
308,108,102319,1,2,0:0:0:0:
276,108,102403,1,0,0:0:0:0:
244,108,102486,1,2,0:0:0:0:
148,192,102653,1,2,0:0:0:0:
176,208,102736,1,0,0:0:0:0:
208,212,102819,1,2,0:0:0:0:
240,212,102903,1,0,0:0:0:0:
272,212,102986,1,4,0:0:0:0:
304,212,103069,1,0,0:0:0:0:
336,212,103153,1,2,0:0:0:0:
352,88,103319,5,0,0:0:0:0:
328,108,103403,1,0,0:0:0:0:
452,164,103569,1,0,0:0:0:0:
428,184,103653,1,0,0:0:0:0:
484,284,103819,1,0,0:0:0:0:
460,308,103903,1,0,0:0:0:0:
444,236,103986,38,0,B|412:268,1,45,0|0,0:0|0:0,0:0:0:0:
380,248,104153,1,2,0:0:0:0:
348,252,104236,1,0,0:0:0:0:
316,256,104319,1,2,0:0:0:0:
284,256,104403,1,0,0:0:0:0:
252,256,104486,1,2,0:0:0:0:
220,256,104569,1,0,0:0:0:0:
188,252,104653,1,0,0:0:0:0:
156,248,104736,1,0,0:0:0:0:
124,240,104819,1,2,0:0:0:0:
92,232,104903,1,0,0:0:0:0:
64,220,104986,1,2,0:0:0:0:
36,204,105069,1,0,0:0:0:0:
16,180,105153,1,2,0:0:0:0:
144,184,105319,5,0,0:0:0:0:
176,192,105403,1,0,0:0:0:0:
208,200,105486,1,2,0:0:0:0:
240,200,105569,1,0,0:0:0:0:
272,200,105653,1,0,0:0:0:0:
304,200,105736,1,0,0:0:0:0:
336,196,105819,1,2,0:0:0:0:
368,192,105903,1,0,0:0:0:0:
360,224,105986,1,2,0:0:0:0:
328,232,106069,1,0,0:0:0:0:
296,236,106153,1,2,0:0:0:0:
264,240,106236,1,0,0:0:0:0:
232,240,106319,1,0,0:0:0:0:
200,240,106403,1,0,0:0:0:0:
168,236,106486,1,2,0:0:0:0:
64,164,106653,37,0,0:0:0:0:
64,164,106736,1,0,0:0:0:0:
64,164,106819,1,2,0:0:0:0:
64,164,106903,1,0,0:0:0:0:
64,164,106986,1,2,0:0:0:0:
168,236,107153,1,2,0:0:0:0:
140,112,107319,1,0,0:0:0:0:
140,112,107403,1,0,0:0:0:0:
140,112,107486,1,2,0:0:0:0:
140,112,107569,1,0,0:0:0:0:
140,112,107653,1,0,0:0:0:0:
168,236,107819,1,2,0:0:0:0:
228,84,107986,1,0,0:0:0:0:
260,88,108069,1,0,0:0:0:0:
292,96,108153,1,2,0:0:0:0:
320,108,108236,1,0,0:0:0:0:
348,124,108319,1,0,0:0:0:0:
372,144,108403,1,0,0:0:0:0:
388,172,108486,1,2,0:0:0:0:
396,204,108569,1,0,0:0:0:0:
396,236,108653,1,4,0:0:0:0:
396,268,108736,1,0,0:0:0:0:
388,300,108819,1,2,0:0:0:0:
372,328,108903,1,0,0:0:0:0:
348,348,108986,1,2,0:0:0:0:
316,356,109069,1,0,0:0:0:0:
284,356,109153,1,2,0:0:0:0:
252,356,109236,1,0,0:0:0:0:
220,356,109319,1,4,0:0:0:0:
56,164,109486,5,2,0:0:0:0:
312,184,109653,1,2,0:0:0:0:
312,184,109708,1,0,0:0:0:0:
312,184,109764,1,0,0:0:0:0:
312,184,109819,1,2,0:0:0:0:
312,184,109875,1,0,0:0:0:0:
312,184,109931,1,0,0:0:0:0:
312,184,109986,1,2,0:0:0:0:
68,68,110153,1,6,0:0:0:0:
88,320,110319,1,0,0:0:0:0:
256,132,110486,1,6,0:0:0:0:
456,164,110819,37,2,0:0:0:0:
200,184,110986,1,2,0:0:0:0:
200,184,111042,1,0,0:0:0:0:
200,184,111097,1,0,0:0:0:0:
200,184,111153,1,2,0:0:0:0:
200,184,111208,1,0,0:0:0:0:
200,184,111264,1,0,0:0:0:0:
200,184,111319,1,2,0:0:0:0:
444,68,111486,1,6,0:0:0:0:
424,320,111653,1,0,0:0:0:0:
256,132,111819,1,6,0:0:0:0:
56,164,112153,5,2,0:0:0:0:
312,184,112319,1,2,0:0:0:0:
312,184,112375,1,0,0:0:0:0:
312,184,112431,1,0,0:0:0:0:
312,184,112486,1,2,0:0:0:0:
312,184,112542,1,0,0:0:0:0:
312,184,112597,1,0,0:0:0:0:
312,184,112653,1,2,0:0:0:0:
68,68,112819,1,6,0:0:0:0:
88,320,112986,1,0,0:0:0:0:
256,132,113153,1,6,0:0:0:0:
456,164,113486,37,2,0:0:0:0:
200,184,113653,1,2,0:0:0:0:
200,184,113708,1,0,0:0:0:0:
200,184,113764,1,0,0:0:0:0:
200,184,113819,1,2,0:0:0:0:
200,184,113875,1,0,0:0:0:0:
200,184,113931,1,0,0:0:0:0:
200,184,113986,1,2,0:0:0:0:
444,68,114153,1,6,0:0:0:0:
424,320,114319,1,0,0:0:0:0:
256,132,114486,1,6,0:0:0:0:
180,304,114653,5,0,0:0:0:0:
56,164,114819,1,2,0:0:0:0:
312,184,114986,1,2,0:0:0:0:
312,184,115042,1,0,0:0:0:0:
312,184,115097,1,0,0:0:0:0:
312,184,115153,1,2,0:0:0:0:
312,184,115208,1,0,0:0:0:0:
312,184,115264,1,0,0:0:0:0:
312,184,115319,1,2,0:0:0:0:
68,68,115486,1,6,0:0:0:0:
88,320,115653,1,0,0:0:0:0:
256,132,115819,1,6,0:0:0:0:
116,348,115986,37,0,0:0:0:0:
40,104,116153,1,2,0:0:0:0:
284,184,116319,1,2,0:0:0:0:
284,184,116375,1,0,0:0:0:0:
284,184,116431,1,0,0:0:0:0:
284,184,116486,1,2,0:0:0:0:
284,184,116542,1,0,0:0:0:0:
284,184,116597,1,0,0:1:0:0:
284,184,116653,1,2,0:0:0:0:
80,28,116819,1,2,0:0:0:0:
148,276,116986,1,0,0:0:0:0:
148,276,117069,1,0,0:0:0:0:
148,276,117153,1,2,0:0:0:0:
396,220,117319,5,2,0:0:0:0:
184,76,117486,1,2,0:0:0:0:
432,140,117653,1,2,0:0:0:0:
432,140,117736,1,0,0:0:0:0:
432,140,117819,1,2,0:0:0:0:
116,192,117986,37,2,0:0:0:0:
116,192,118069,1,0,0:0:0:0:
116,192,118153,1,2,0:0:0:0:
376,168,118319,6,0,B|444:168,1,67.4999979883433,2|0,0:0|0:0,0:0:0:0:
244,192,118486,38,0,B|176:192,1,67.4999979883433,2|0,0:0|0:0,0:0:0:0:
388,236,118653,2,0,B|456:236,1,67.4999979883433,2|0,0:0|0:0,0:0:0:0:
232,260,118819,6,0,B|164:260,1,67.4999979883433,2|0,0:0|0:0,0:0:0:0:
400,304,118986,2,0,B|468:304,1,67.4999979883433,2|0,0:0|0:0,0:0:0:0:
220,328,119153,38,0,B|152:328,1,67.4999979883433,2|0,0:0|0:0,0:0:0:0:
432,236,119319,1,0,0:0:0:0:
432,208,119403,1,0,0:0:0:0:
432,180,119486,5,0,0:0:0:0:
432,152,119569,1,0,0:0:0:0:
432,124,119653,37,0,0:0:0:0:
432,96,119736,1,0,0:0:0:0:
432,68,119819,5,0,0:0:0:0:
432,40,119903,1,0,0:0:0:0:
432,16,119986,21,6,0:0:0:0:
256,192,120986,37,0,0:0:0:0:
256,192,121319,1,2,0:0:0:0:
392,148,121653,1,0,0:0:0:0:
344,284,121986,1,2,0:0:0:0:
208,328,122319,1,0,0:0:0:0:
256,192,122653,1,2,0:0:0:0:
148,192,123653,5,0,0:0:0:0:
148,192,123986,1,2,0:0:0:0:
308,192,124267,1,0,0:0:0:0:
156,248,124548,1,2,0:0:0:0:
320,248,124736,1,0,0:0:0:0:
320,248,125136,1,0,0:0:0:0:
320,248,125536,1,2,0:0:0:0:
320,248,127009,5,2,0:0:0:0:
320,248,127866,5,2,0:0:0:0:
256,192,128741,21,6,0:0:0:0:
