osu file format v12

[General]
AudioFilename: End Time.mp3
AudioLeadIn: 0
PreviewTime: 1335
Countdown: 0
SampleSet: Soft
StackLeniency: 0.7
Mode: 0
LetterboxInBreaks: 0
WidescreenStoryboard: 0

[Editor]
DistanceSpacing: 1
BeatDivisor: 4
GridSize: 4

[Metadata]
Title:End Time
TitleUnicode:End Time
Artist:Cres
ArtistUnicode:Cres
Creator:Fear
Version:Another
Source:BMS
Tags:cyclia swish gowww soulfear Kanon TechnoBreak
BeatmapID:128606
BeatmapSetID:36382

[Difficulty]
HPDrainRate:6
CircleSize:4
OverallDifficulty:7
ApproachRate:8
SliderMultiplier:1.8
SliderTickRate:1

[Events]
//Background and Video events
0,0,"BG.jpg",0,0
Video,-4050,"BGA.avi"
//Break Periods
//Storyboard Layer 0 (Background)
//Storyboard Layer 1 (Fail)
//Storyboard Layer 2 (Pass)
//Storyboard Layer 3 (Foreground)
//Storyboard Sound Samples
//Background Colour Transformations
3,100,163,162,255

[TimingPoints]
1335,333.333333333333,4,2,1,70,1,0
1335,-200,4,2,1,30,0,0
2001,-200,4,2,1,5,0,0
2168,-200,4,2,1,70,0,0
4668,-200,4,2,1,5,0,0
4835,-200,4,2,1,70,0,0
7001,-200,4,2,1,5,0,0
7334,-200,4,2,1,10,0,0
7668,-200,4,2,1,15,0,0
7835,-200,4,2,1,70,0,0
8335,-200,4,2,1,5,0,0
8668,-200,4,2,1,10,0,0
9001,-200,4,2,1,15,0,0
9168,-200,4,2,1,70,0,0
9418,-200,4,2,1,5,0,0
12001,-100,4,2,1,30,0,0
12167,-100,4,2,1,40,0,0
12334,-100,4,2,1,50,0,0
12501,-100,4,2,1,60,0,0
12668,-100,4,2,1,70,0,0
13000,-100,4,2,1,80,0,0
13334,-100,4,1,1,80,0,0
24084,-100,4,2,1,80,0,0
25334,-100,4,1,1,80,0,0
25417,-100,4,2,1,80,0,0
26667,-100,4,1,1,80,0,0
26750,-100,4,2,1,80,0,0
28000,-100,4,1,1,80,0,0
28084,-100,4,2,1,80,0,0
29334,-100,4,1,1,70,0,0
29584,-100,4,1,1,60,0,0
29917,-100,4,1,1,70,0,0
30250,-100,4,1,1,60,0,0
30584,-100,4,1,1,70,0,0
30917,-100,4,1,1,60,0,0
31250,-100,4,1,1,70,0,0
31584,-100,4,1,1,60,0,0
32084,-100,4,2,1,70,0,0
32334,-100,4,1,1,70,0,0
32417,-100,4,2,1,70,0,0
32667,-100,4,1,1,70,0,0
32750,-100,4,2,1,70,0,0
33000,-100,4,1,1,70,0,0
33084,-100,4,2,1,70,0,0
33293,-100,4,2,2,80,0,0
33334,-100,4,1,2,40,0,0
33667,-100,4,1,2,55,0,0
34000,-100,4,1,2,70,0,0
34667,-200,4,2,1,40,0,0
35584,-200,4,2,1,50,0,0
54584,-200,4,2,2,30,0,0
54834,-200,4,2,2,5,0,0
55001,-100,4,2,1,80,0,0
77251,-100,4,2,1,75,0,0
85334,-100,4,2,1,75,0,0
97334,-100,4,2,1,92,0,1
97959,-100,4,2,1,100,0,1
98584,-100,4,2,1,95,0,1
98668,-100,4,2,1,95,0,0
103834,-100,4,1,1,95,0,0
104084,-100,4,2,1,95,0,0
109250,-100,4,1,1,80,0,0
117251,-66.6666666666667,4,1,1,85,0,0
120001,-66.6666666666667,4,2,1,85,0,0
120334,-100,4,2,1,60,0,0
124001,375,4,2,1,60,1,0
124751,400,4,2,1,60,1,0
125551,352.941176470588,4,2,1,60,1,0
126256,375,4,2,1,60,1,0
126818,413.793103448276,4,2,1,60,1,0
127024,428.571428571429,4,2,1,60,1,0
127452,-100,4,2,1,35,0,0
127666,-100,4,2,1,60,0,0
128309,-100,4,2,1,35,0,0
128524,-100,4,2,1,60,0,0
128631,500,4,2,1,60,1,0
128756,500,4,2,1,60,1,0

[Colours]
Combo1 : 0,255,255
Combo2 : 180,180,180
Combo3 : 255,255,255
Combo4 : 255,60,60

[HitObjects]
408,236,1335,2,0,B|428:184|360:124|296:168|300:216,1,180,4|0,0:0|0:0,0:0:0:0:
336,288,2334,1,0,0:0:0:0:
408,236,2668,2,0,B|432:276|420:328,3,90,2|0|0|0,0:0|0:0|0:0|0:0,0:0:0:0:
336,288,4001,6,0,B|272:344|228:272|160:328,1,180,2|0,0:0|0:0,0:0:0:0:
84,288,5001,1,0,0:0:0:0:
48,204,5334,1,2,0:0:0:0:
72,116,5668,1,0,0:0:0:0:
144,60,6001,1,0,0:0:0:0:
232,60,6334,1,0,0:0:0:0:
212,148,6668,38,0,B|200:196|232:220|204:244,3,90,0|0|0|0,0:0|0:0|0:0|0:0,0:0:0:0:
300,236,8001,2,0,B|312:188|280:164|308:140,3,90,0|0|0|0,0:0|0:0|0:0|0:0,0:0:0:0:
256,68,9334,1,2,0:0:0:0:
256,192,9418,12,0,11668,0:0:0:0:
256,220,12001,6,0,B|256:184,15,22.5
256,176,12668,2,0,B|256:144,14,22.5
256,132,13334,38,0,B|248:100|216:80|184:80,1,90,4|0,0:0|0:0,0:0:0:0:
108,120,13668,2,0,B|116:152|148:172|180:172,1,90,0|0,0:0|0:0,0:0:0:0:
256,132,14001,1,0,0:0:0:0:
344,120,14168,1,0,0:0:0:0:
416,176,14334,1,0,0:0:0:0:
404,265,14501,1,0,0:0:0:0:
256,252,14668,6,0,B|264:284|296:304|328:304,1,90,4|0,0:0|0:0,0:0:0:0:
404,264,15001,2,0,B|396:232|364:212|332:212,1,90,0|0,0:0|0:0,0:0:0:0:
256,252,15334,1,0,0:0:0:0:
192,316,15501,1,0,0:0:0:0:
100,316,15668,1,0,0:0:0:0:
36,252,15834,1,0,0:0:0:0:
104,192,16001,38,0,B|104:136|64:104,1,90,4|0,0:0|0:0,0:0:0:0:
192,192,16334,2,0,B|248:192|280:152,1,90,0|0,0:0|0:0,0:0:0:0:
408,192,16668,2,0,B|408:248|448:280,1,90
320,192,17001,2,0,B|264:192|232:232,1,90,0|0,0:0|0:0,0:0:0:0:
344,104,17334,5,4,0:0:0:0:
344,104,17501,1,0,0:0:0:0:
272,48,17668,2,0,B|240:80|256:136,1,90
168,280,18001,1,0,0:0:0:0:
168,280,18168,1,0,0:0:0:0:
240,336,18334,2,0,B|272:304|256:248,1,90
168,280,18668,38,0,B|128:304|56:288,1,90,4|0,0:0|0:0,0:0:0:0:
288,208,19001,2,0,B|248:184|176:200,1,90
416,280,19334,2,0,B|376:304|304:288,1,90
288,208,19668,2,0,B|248:232|176:216,1,90,0|0,0:0|0:0,0:0:0:0:
344,104,20001,6,0,B|384:80|456:96,1,90,4|0,0:0|0:0,0:0:0:0:
224,176,20334,2,0,B|264:200|336:184,1,90
96,104,20668,2,0,B|136:80|208:96,1,90
144,168,21001,1,0,0:0:0:0:
247,240,21168,1,0,0:0:0:0:
368,216,21334,38,0,B|360:256|416:280|360:320,1,90,4|0,0:0|0:0,0:0:0:0:
144,216,21668,2,0,B|152:256|96:280|152:320,1,90
368,168,22001,2,0,B|360:128|416:104|360:64,1,90
144,168,22334,2,0,B|152:128|96:104|152:64,1,90
256,48,22668,5,4,0:0:0:0:
232,136,22834,1,0,0:0:0:0:
264,224,23001,1,0,0:0:0:0:
240,312,23168,1,0,0:0:0:0:
168,256,23334,37,4,0:0:0:0:
168,256,23418,1,0,0:0:0:0:
56,328,23584,1,0,0:0:0:0:
56,328,23668,1,4,0:0:0:0:
40,192,23834,1,4,0:0:0:0:
128,176,24001,5,4,0:0:0:0:
128,176,24084,1,0,0:0:0:0:
128,176,24168,1,2,0:0:0:0:
128,176,24251,1,0,0:0:0:0:
128,176,24334,2,0,B|144:144|144:128,3,45,0|0|2|0,0:0|0:0|0:0|0:0,0:0:0:0:
120,96,24668,2,0,B|104:64|104:48,3,45,0|0|2|0,0:0|0:0|0:0|0:0,0:0:0:0:
176,104,25001,2,0,B|208:88|224:88,3,45,0|0|2|0,0:0|0:0|0:0|0:0,0:0:0:0:
264,120,25334,37,0,0:0:0:0:
264,120,25418,1,0,0:0:0:0:
264,120,25501,1,2,0:0:0:0:
264,120,25584,1,0,0:0:0:0:
264,120,25668,2,0,B|264:168|296:192,3,45,0|0|2|0,0:0|0:0|0:0|0:0,0:0:0:0:
296,200,26001,2,0,B|296:248|264:272,3,45,0|0|2|0,0:0|0:0|0:0|0:0,0:0:0:0:
328,160,26334,2,0,B|376:160|400:128,3,45,0|0|2|0,0:0|0:0|0:0|0:0,0:0:0:0:
416,168,26668,5,0,0:0:0:0:
416,168,26751,1,0,0:0:0:0:
416,168,26834,1,2,0:0:0:0:
416,168,26918,1,0,0:0:0:0:
416,168,27001,2,0,B|440:200|440:224,3,45,0|0|2|0,0:0|0:0|0:0|0:0,0:0:0:0:
416,248,27334,2,0,B|392:280|392:304,3,45,0|0|2|0,0:0|0:0|0:0|0:0,0:0:0:0:
368,320,27668,2,0,B|336:344|312:344,3,45,0|0|2|0,0:0|0:0|0:0|0:0,0:0:0:0:
296,368,28001,37,0,0:0:0:0:
296,368,28084,1,0,0:0:0:0:
296,368,28168,1,2,0:0:0:0:
296,368,28251,1,0,0:0:0:0:
296,368,28334,2,0,B|240:352|216:368,3,45,0|0|2|0,0:0|0:0|0:0|0:0,0:0:0:0:
216,336,28668,2,0,B|160:352|136:336,3,45,0|0|2|0,0:0|0:0|0:0|0:0,0:0:0:0:
256,312,29001,2,0,B|272:256|256:232,3,45,0|0|2|0,0:0|0:0|0:0|0:0,0:0:0:0:
232,232,29334,6,0,B|232:192|216:176,2,45,4|0|0,0:0|0:0|0:0,0:0:0:0:
144,264,29668,1,0,0:0:0:0:
144,264,29834,1,0,0:0:0:0:
88,176,30001,38,0,B|48:176|32:192,2,45,4|0|0,0:0|0:0|0:0,0:0:0:0:
128,72,30334,1,0,0:0:0:0:
128,72,30501,1,0,0:0:0:0:
256,72,30668,6,0,B|296:72|312:56,2,45,4|0|0,0:0|0:0|0:0,0:0:0:0:
296,192,31001,1,0,0:0:0:0:
296,192,31168,1,0,0:0:0:0:
400,288,31334,38,0,B|400:328|416:344,2,45,4|0|0,0:0|0:0|0:0,0:0:0:0:
472,160,31668,1,0,0:0:0:0:
472,160,31834,1,0,0:0:0:0:
400,32,32001,5,4,0:0:0:0:
376,24,32084,1,0,0:0:0:0:
352,32,32168,1,2,0:0:0:0:
336,48,32251,1,0,0:0:0:0:
320,64,32334,1,0,0:0:0:0:
312,88,32418,1,0,0:0:0:0:
312,112,32501,1,2,0:0:0:0:
312,136,32584,1,0,0:0:0:0:
320,160,32668,37,0,0:0:0:0:
336,176,32751,1,0,0:0:0:0:
344,200,32834,1,2,0:0:0:0:
344,224,32918,1,0,0:0:0:0:
336,248,33001,1,0,0:0:0:0:
320,264,33084,1,0,0:0:0:0:
304,280,33168,1,2,0:0:0:0:
280,288,33251,1,0,0:0:0:0:
256,288,33334,6,0,B|224:280,7,22.5
208,288,33668,38,0,B|176:296,7,22.5
160,288,34001,6,0,B|120:280,15,22.5
112,288,34668,38,0,B|56:256|176:232|128:168|120:112,1,180,4|0,0:0|0:0,0:0:0:0:
176,56,35668,5,0,0:0:0:0:
216,72,35834,1,0,0:0:0:0:
256,88,36001,1,2,0:0:0:0:
472,256,37001,37,0,0:0:0:0:
432,272,37168,1,0,0:0:0:0:
392,288,37334,1,2,0:0:0:0:
120,288,38334,5,0,0:0:0:0:
80,272,38501,1,0,0:0:0:0:
40,256,38668,1,2,0:0:0:0:
40,248,39334,1,0,0:0:0:0:
64,120,40001,1,2,0:0:0:0:
96,120,41334,37,0,0:0:0:0:
272,120,42001,1,2,0:0:0:0:
184,280,42668,1,0,0:0:0:0:
192,280,44001,5,0,0:0:0:0:
320,280,45334,37,2,0:0:0:0:
400,232,46001,1,0,0:0:0:0:
408,144,46668,1,2,0:0:0:0:
336,88,47334,1,0,0:0:0:0:
248,88,48001,1,2,0:0:0:0:
216,88,49334,5,2,0:0:0:0:
128,88,50001,1,0,0:0:0:0:
48,248,50668,1,0,0:0:0:0:
304,336,51668,37,0,0:0:0:0:
344,312,51834,1,0,0:0:0:0:
384,288,52001,1,2,0:0:0:0:
384,288,52668,5,0,0:0:0:0:
472,128,53334,37,2,0:0:0:0:
120,64,54668,6,0,B|120:112,1,45,4|0,0:0|0:0,0:0:0:0:
368,216,55334,37,6,0:0:0:0:
368,216,55418,1,2,0:0:0:0:
368,216,55501,1,2,0:0:0:0:
368,216,55584,1,2,0:0:0:0:
368,216,55668,1,6,0:0:0:0:
368,216,55751,1,2,0:0:0:0:
368,216,55834,1,2,0:0:0:0:
368,216,55918,1,2,0:0:0:0:
368,216,56001,6,0,B|368:280|352:312,1,90,4|0,0:0|0:0,0:0:0:0:
328,336,56251,1,2,0:0:0:0:
216,256,56501,38,0,B|168:232|120:256,1,90,4|2,0:0|0:0,0:0:0:0:
96,280,56751,1,0,0:0:0:0:
40,160,57001,2,0,B|24:104|56:64,1,90,4|0,0:0|0:0,0:0:0:0:
144,72,57334,6,0,B|208:64|232:48,1,90,4|0,0:0|0:0,0:0:0:0:
272,64,57584,1,2,0:0:0:0:
408,56,57834,2,0,B|416:120|432:144,1,90,4|0,0:0|0:0,0:0:0:0:
416,184,58084,1,2,0:0:0:0:
480,304,58334,1,4,0:0:0:0:
400,336,58501,1,0,0:0:0:0:
320,296,58668,38,0,B|264:272|216:288,1,90,4|0,0:0|0:0,0:0:0:0:
192,312,58918,1,2,0:0:0:0:
64,272,59168,1,2,0:0:0:0:
40,184,59334,1,4,0:0:0:0:
40,184,59418,1,0,0:0:0:0:
40,184,59501,1,0,0:0:0:0:
104,120,59668,1,4,0:0:0:0:
104,120,59751,1,0,0:0:0:0:
104,120,59834,1,0,0:0:0:0:
176,64,60001,5,4,0:0:0:0:
256,112,60168,1,4,0:0:0:0:
256,112,60251,1,2,0:0:0:0:
336,64,60418,1,2,0:0:0:0:
336,64,60501,1,4,0:0:0:0:
416,112,60668,1,4,0:0:0:0:
416,112,60751,1,0,0:0:0:0:
416,112,60834,1,0,0:0:0:0:
488,168,61001,2,0,B|480:216|504:232|488:280,1,90,4|0,0:0|0:0,0:0:0:0:
424,320,61334,38,2,B|376:336|328:320,1,90,4|0,0:0|0:0,0:0:0:0:
296,304,61584,2,2,B|248:272|200:288,1,90,2|0,0:0|0:0,0:0:0:0:
168,304,61834,1,4,0:0:0:0:
88,344,62001,1,4,0:0:0:0:
88,344,62084,1,0,0:0:0:0:
88,344,62168,1,0,0:0:0:0:
24,280,62334,2,0,B|48:240|16:224|32:192,1,90,4|0,0:0|0:0,0:0:0:0:
88,120,62668,5,4,0:0:0:0:
160,64,62834,1,0,0:0:0:0:
160,64,62918,1,2,0:0:0:0:
248,88,63084,1,2,0:0:0:0:
248,88,63168,1,4,0:0:0:0:
328,48,63334,2,0,B|376:40|424:56,1,90,4|0,0:0|0:0,0:0:0:0:
392,168,63668,2,0,B|344:176|296:160,1,90,4|0,0:0|0:0,0:0:0:0:
248,88,64001,38,0,B|208:120|208:168,1,90,4|0,0:0|0:0,0:0:0:0:
224,208,64251,2,0,B|256:248|256:304,1,90,2|0,0:0|0:0,0:0:0:0:
224,328,64501,1,4,0:0:0:0:
136,320,64668,1,4,0:0:0:0:
136,320,64751,1,0,0:0:0:0:
136,232,64918,1,0,0:0:0:0:
136,232,65001,2,0,B|104:192|56:192,1,90,4|0,0:0|0:0,0:0:0:0:
40,104,65334,5,4,0:0:0:0:
160,40,65501,1,4,0:0:0:0:
160,40,65584,1,2,0:0:0:0:
272,120,65751,1,2,0:0:0:0:
272,120,65834,1,4,0:0:0:0:
360,88,66001,37,4,0:0:0:0:
360,224,66168,1,2,0:0:0:0:
272,120,66334,1,4,0:0:0:0:
272,256,66501,1,2,0:0:0:0:
192,216,66668,6,0,B|144:200|80:224,1,90,4|0,0:0|0:0,0:0:0:0:
72,248,66918,2,0,B|120:264|184:240,1,90,2|0,0:0|0:0,0:0:0:0:
192,280,67168,1,4,0:0:0:0:
256,344,67334,1,4,0:0:0:0:
256,344,67418,1,0,0:0:0:0:
344,328,67584,1,0,0:0:0:0:
344,328,67668,1,4,0:0:0:0:
432,344,67834,1,0,0:0:0:0:
480,264,68001,38,0,B|496:216|488:176,1,90,4|0,0:0|0:0,0:0:0:0:
440,184,68251,2,0,B|408:144|352:152,1,90,2|0,0:0|0:0,0:0:0:0:
336,184,68501,1,4,0:0:0:0:
256,136,68668,5,4,0:0:0:0:
256,136,68751,1,0,0:0:0:0:
256,136,68834,1,0,0:0:0:0:
224,264,69001,1,4,0:0:0:0:
152,152,69168,1,0,0:0:0:0:
128,240,69334,38,0,B|96:280|104:336,1,90,4|2,0:0|0:0,0:0:0:0:
384,240,69668,2,0,B|416:280|408:336,1,90,4|2,0:0|0:0,0:0:0:0:
256,136,70001,6,0,B|224:176|232:232,1,90,4|0,0:0|0:0,0:0:0:0:
272,240,70251,1,2,0:0:0:0:
288,200,70334,2,0,B|320:160|312:104,1,90,4|2,0:0|0:0,0:0:0:0:
248,48,70668,37,6,0:0:0:0:
248,48,70751,1,0,0:0:0:0:
248,48,70834,1,2,0:0:0:0:
248,48,70918,1,0,0:0:0:0:
248,48,71001,1,2,0:0:0:0:
112,72,71168,1,2,0:0:0:0:
80,200,71334,1,4,0:0:0:0:
80,200,71418,1,0,0:0:0:0:
80,200,71501,1,0,0:0:0:0:
152,144,71668,1,6,0:0:0:0:
248,48,71834,1,4,0:0:0:0:
328,96,72001,6,0,B|368:128|384:176,1,90,4|0,0:0|0:0,0:0:0:0:
336,176,72251,2,0,B|296:208|296:272,1,90,2|0,0:0|0:0,0:0:0:0:
320,296,72501,1,4,0:0:0:0:
408,328,72668,1,4,0:0:0:0:
408,328,72751,1,0,0:0:0:0:
472,264,72918,1,0,0:0:0:0:
472,264,73001,1,4,0:0:0:0:
424,192,73168,1,0,0:0:0:0:
392,104,73334,38,0,B|344:64|240:88|232:144,1,180,4|2,0:0|0:0,0:0:0:0:
256,224,73834,1,2,0:0:0:0:
120,104,74001,6,0,B|168:64|272:88|280:144,1,180,4|2,0:0|0:0,0:0:0:0:
256,224,74501,1,2,0:0:0:0:
176,176,74668,37,4,0:0:0:0:
120,248,74834,1,2,0:0:0:0:
120,248,74918,1,2,0:0:0:0:
216,344,75084,1,2,0:0:0:0:
216,344,75168,1,2,0:0:0:0:
352,336,75334,1,2,0:0:0:0:
352,336,75418,1,2,0:0:0:0:
352,336,75501,1,2,0:0:0:0:
344,200,75668,1,2,0:0:0:0:
344,200,75751,1,2,0:0:0:0:
344,200,75834,1,2,0:0:0:0:
424,232,76001,6,0,B|440:184|424:144,1,90,4|2,0:0|0:0,0:0:0:0:
88,152,76334,2,0,B|72:200|88:240,1,90,4|2,0:0|0:0,0:0:0:0:
368,208,76668,38,0,B|384:160|368:120,1,90,4|2,0:0|0:0,0:0:0:0:
136,184,77001,2,0,B|120:232|136:272,1,90,4|2,0:0|0:0,0:0:0:0:
424,64,77334,6,0,B|408:40|352:40,3,45,4|0|2|0,0:0|0:0|0:0|0:0,0:0:0:0:
344,56,77668,2,0,B|328:80|272:80,3,45,0|0|2|0,0:0|0:0|0:0|0:0,0:0:0:0:
264,56,78001,2,0,B|248:32|192:32,3,45,0|0|2|0,0:0|0:0|0:0|0:0,0:0:0:0:
184,56,78334,2,0,B|168:80|112:80,3,45,0|0|2|0,0:0|0:0|0:0|0:0,0:0:0:0:
104,56,78668,37,4,0:0:0:0:
104,56,78751,1,0,0:0:0:0:
104,56,78834,1,2,0:0:0:0:
104,56,78918,1,0,0:0:0:0:
104,56,79001,2,0,B|80:72|80:128,3,45,0|0|2|0,0:0|0:0|0:0|0:0,0:0:0:0:
96,136,79334,2,0,B|120:152|120:208,3,45,0|0|2|0,0:0|0:0|0:0|0:0,0:0:0:0:
96,216,79668,2,0,B|72:232|72:288,3,45,0|0|2|0,0:0|0:0|0:0|0:0,0:0:0:0:
96,296,80001,5,4,0:0:0:0:
96,296,80084,1,0,0:0:0:0:
96,296,80168,1,2,0:0:0:0:
96,296,80251,1,0,0:0:0:0:
96,296,80334,2,0,B|112:320|168:320,3,45,0|0|2|0,0:0|0:0|0:0|0:0,0:0:0:0:
176,296,80668,2,0,B|192:272|248:272,3,45,0|0|2|0,0:0|0:0|0:0|0:0,0:0:0:0:
256,296,81001,2,0,B|272:320|328:320,3,45,0|0|2|0,0:0|0:0|0:0|0:0,0:0:0:0:
336,296,81334,37,4,0:0:0:0:
352,280,81418,1,0,0:0:0:0:
368,264,81501,1,2,0:0:0:0:
384,248,81584,1,0,0:0:0:0:
400,232,81668,1,0,0:0:0:0:
416,216,81751,1,0,0:0:0:0:
432,200,81834,1,2,0:0:0:0:
448,184,81918,1,0,0:0:0:0:
464,168,82001,2,0,B|480:128|464:104,3,45,0|0|2|0,0:0|0:0|0:0|0:0,0:0:0:0:
440,96,82334,2,0,B|424:56|440:32,3,45,0|0|2|0,0:0|0:0|0:0|0:0,0:0:0:0:
392,64,82668,5,4,0:0:0:0:
392,64,82751,1,0,0:0:0:0:
392,64,82834,1,0,0:0:0:0:
392,64,82918,1,0,0:0:0:0:
392,64,83001,2,0,B|376:88|320:88,3,45,0|0|2|0,0:0|0:0|0:0|0:0,0:0:0:0:
312,64,83334,2,0,B|296:40|240:40,3,45,0|0|2|0,0:0|0:0|0:0|0:0,0:0:0:0:
232,64,83668,2,0,B|216:88|160:88,3,45,0|0|2|0,0:0|0:0|0:0|0:0,0:0:0:0:
152,72,84001,37,4,0:0:0:0:
152,72,84084,1,0,0:0:0:0:
152,72,84168,1,2,0:0:0:0:
152,72,84251,1,0,0:0:0:0:
152,72,84334,2,0,B|128:88|128:144,3,45,0|0|2|0,0:0|0:0|0:0|0:0,0:0:0:0:
152,152,84668,2,0,B|176:168|176:224,3,45,0|0|2|0,0:0|0:0|0:0|0:0,0:0:0:0:
152,232,85001,2,0,B|128:248|128:304,3,45,0|0|2|0,0:0|0:0|0:0|0:0,0:0:0:0:
152,312,85334,6,0,B|216:344,1,45,4|0,0:0|0:0,0:0:0:0:
208,288,85501,2,0,B|272:320,1,45,2|0,0:0|0:0,0:0:0:0:
256,264,85668,2,0,B|320:296,1,45,4|0,0:0|0:0,0:0:0:0:
304,240,85834,2,0,B|368:272,1,45,2|0,0:0|0:0,0:0:0:0:
384,280,86001,38,0,B|416:216,1,45,4|0,0:0|0:0,0:0:0:0:
360,224,86168,2,0,B|392:160,1,45,2|0,0:0|0:0,0:0:0:0:
336,176,86334,2,0,B|368:112,1,45,4|0,0:0|0:0,0:0:0:0:
312,128,86501,2,0,B|344:64,1,45,6|0,0:0|0:0,0:0:0:0:
288,80,86668,6,0,B|224:48,1,45,4|0,0:0|0:0,0:0:0:0:
232,104,86834,2,0,B|168:72,1,45,2|0,0:0|0:0,0:0:0:0:
184,128,87001,2,0,B|120:96,1,45,4|0,0:0|0:0,0:0:0:0:
136,152,87168,2,0,B|72:120,1,45,6|0,0:0|0:0,0:0:0:0:
88,176,87334,38,0,B|64:192|64:208|64:224,3,45,4|0|0|0,0:0|0:0|0:0|0:0,0:0:0:0:
88,248,87668,2,0,B|112:264|112:280|112:296,3,45,4|0|0|0,0:0|0:0|0:0|0:0,0:0:0:0:
256,192,88001,12,4,89001,0:0:0:0:
256,192,89168,5,2,0:0:0:0:
256,192,89334,12,4,90334,0:0:0:0:
256,192,90501,37,2,0:0:0:0:
256,192,90668,12,4,91668,0:0:0:0:
256,192,91834,5,2,0:0:0:0:
304,264,92001,38,0,B|328:296|320:320,3,45,4|0|2|0,0:0|0:0|0:0|0:0,0:0:0:0:
304,208,92334,2,0,B|328:176|320:152,3,45,0|0|2|0,0:0|0:0|0:0|0:0,0:0:0:0:
256,192,92668,2,0,B|224:168|200:176,3,45,4|0|2|0,0:0|0:0|0:0|0:0,0:0:0:0:
256,240,93001,2,0,B|232:272|240:296,3,45,4|0|2|0,0:0|0:0|0:0|0:0,0:0:0:0:
256,320,93334,5,4,0:0:0:0:
256,320,93418,1,0,0:0:0:0:
256,320,93501,1,2,0:0:0:0:
256,320,93584,1,0,0:0:0:0:
256,320,93668,1,2,0:0:0:0:
256,320,93751,1,0,0:0:0:0:
256,320,93834,1,2,0:0:0:0:
256,320,93918,1,0,0:0:0:0:
256,320,94001,1,2,0:0:0:0:
256,320,94084,1,0,0:0:0:0:
256,320,94168,1,2,0:0:0:0:
256,320,94251,1,0,0:0:0:0:
256,320,94334,1,4,0:0:0:0:
128,192,94668,37,4,0:0:0:0:
128,192,94751,1,0,0:0:0:0:
128,192,94834,1,2,0:0:0:0:
128,192,94918,1,0,0:0:0:0:
128,192,95001,1,2,0:0:0:0:
128,192,95084,1,0,0:0:0:0:
128,192,95168,1,2,0:0:0:0:
128,192,95251,1,0,0:0:0:0:
128,192,95334,1,2,0:0:0:0:
128,192,95418,1,0,0:0:0:0:
128,192,95501,1,2,0:0:0:0:
128,192,95584,1,0,0:0:0:0:
128,192,95668,1,4,0:0:0:0:
304,144,96001,5,4,0:0:0:0:
304,144,96084,1,0,0:0:0:0:
304,144,96168,1,2,0:0:0:0:
304,144,96251,1,0,0:0:0:0:
304,144,96334,1,2,0:0:0:0:
304,144,96418,1,0,0:0:0:0:
304,144,96501,1,2,0:0:0:0:
304,144,96584,1,0,0:0:0:0:
304,144,96668,1,2,0:0:0:0:
304,144,96751,1,0,0:0:0:0:
304,144,96834,1,2,0:0:0:0:
304,144,96918,1,0,0:0:0:0:
304,144,97001,1,2,0:0:0:0:
304,144,97084,1,0,0:0:0:0:
304,144,97168,1,2,0:0:0:0:
304,144,97251,1,0,0:0:0:0:
304,144,97334,22,0,B|328:184|312:216,3,45,4|0|2|0,0:0|0:0|0:0|0:0,0:0:0:0:
288,216,97668,2,0,B|264:256|280:288,3,45,4|0|2|0,0:0|0:0|0:0|0:0,0:0:0:0:
272,304,98001,37,4,0:0:0:0:
248,328,98084,1,0,0:0:0:0:
216,336,98168,1,2,0:0:0:0:
184,336,98251,1,0,0:0:0:0:
160,320,98334,1,6,0:0:0:0:
136,296,98418,1,0,0:0:0:0:
128,264,98501,1,6,0:0:0:0:
128,232,98584,1,0,0:0:0:0:
128,208,98668,6,0,B|128:152|152:120,1,90,4|2,0:0|0:0,0:0:0:0:
168,104,98918,1,0,0:0:0:0:
184,96,99001,1,0,0:0:0:0:
200,88,99084,1,0,0:0:0:0:
216,80,99168,38,0,B|272:48,1,45,2|0,0:0|0:0,0:0:0:0:
344,48,99334,2,0,B|288:80,1,45,4|0,0:0|0:0,0:0:0:0:
256,144,99501,2,0,B|312:112,1,45,2|0,0:0|0:0,0:0:0:0:
384,120,99668,2,0,B|328:152,1,45,4|0,0:0|0:0,0:0:0:0:
288,216,99834,2,0,B|344:184,1,45,2|0,0:0|0:0,0:0:0:0:
368,208,100001,6,0,B|384:248|376:264,3,45,4|0|2|0,0:0|0:0|0:0|0:0,0:0:0:0:
360,288,100334,2,0,B|344:328|352:344,3,45,0|0|2|0,0:0|0:0|0:0|0:0,0:0:0:0:
304,344,100668,2,0,B|264:360|248:352,3,45,4|0|2|0,0:0|0:0|0:0|0:0,0:0:0:0:
224,328,101001,2,0,B|184:312|168:320,3,45,0|0|2|0,0:0|0:0|0:0|0:0,0:0:0:0:
144,344,101334,38,0,B|144:288|96:264,1,90,4|2,0:0|0:0,0:0:0:0:
88,236,101584,1,0,0:0:0:0:
72,200,101668,2,0,B|40:168|40:128,3,45,0|0|2|0,0:0|0:0|0:0|0:0,0:0:0:0:
72,80,102001,2,0,B|104:112|104:152,3,45,4|0|0|0,0:0|0:0|0:0|0:0,0:0:0:0:
184,152,102334,2,0,B|152:120|152:80,3,45,4|0|2|0,0:0|0:0|0:0|0:0,0:0:0:0:
168,104,102668,5,4,0:0:0:0:
176,88,102751,1,0,0:0:0:0:
184,72,102834,1,2,0:0:0:0:
192,56,102918,1,0,0:0:0:0:
200,40,103001,2,0,B|240:16|272:24,3,45,0|0|2|0,0:0|0:0|0:0|0:0,0:0:0:0:
280,48,103334,2,0,B|320:72|352:64,3,45,0|0|2|0,1:0|1:0|0:0|1:0,0:0:0:0:
360,40,103668,2,0,B|400:16|432:24,3,45,4|0|2|0,1:2|0:0|1:0|1:0,0:0:0:0:
408,40,104001,37,4,0:2:0:0:
416,56,104084,1,0,0:0:0:0:
424,72,104168,1,2,0:0:0:0:
432,88,104251,1,0,0:0:0:0:
440,104,104334,1,0,0:0:0:0:
448,120,104418,1,0,0:0:0:0:
456,136,104501,1,2,0:0:0:0:
464,152,104584,1,0,0:0:0:0:
472,168,104668,1,0,0:0:0:0:
480,184,104751,1,0,0:0:0:0:
488,200,104834,1,2,0:0:0:0:
496,216,104918,1,0,0:0:0:0:
504,232,105001,2,0,B|520:264|512:288,3,45,0|0|2|0,0:0|0:0|0:0|0:0,0:0:0:0:
496,280,105334,5,4,0:0:0:0:
480,288,105418,1,0,0:0:0:0:
464,296,105501,1,2,0:0:0:0:
448,304,105584,1,0,0:0:0:0:
432,312,105668,1,0,0:0:0:0:
416,320,105751,1,0,0:0:0:0:
400,328,105834,1,2,0:0:0:0:
384,336,105918,1,0,0:0:0:0:
368,344,106001,2,0,B|328:360|304:344,3,45,0|0|2|0,0:0|0:0|0:0|0:0,0:0:0:0:
288,328,106334,2,0,B|248:312|224:328,3,45,0|0|2|0,0:0|0:0|0:0|0:0,0:0:0:0:
200,336,106668,38,0,B|144:360|80:344|56:320|40:280,1,180,4|0,0:0|0:0,0:0:0:0:
48,152,107168,2,0,B|104:128|168:144|192:168|208:208,1,180,4|0,0:0|0:0,0:0:0:0:
256,272,107668,1,2,0:0:0:0:
256,272,107834,1,0,0:0:0:0:
312,336,108001,6,0,B|368:360|432:344|456:320|472:280,1,180,4|0,0:0|0:0,0:0:0:0:
464,152,108501,2,0,B|408:128|344:144|320:168|304:208,1,180,4|0,0:0|0:0,0:0:0:0:
256,272,109001,1,0,0:0:0:0:
256,272,109168,1,2,0:0:0:0:
256,184,109334,38,0,B|248:152|216:132|184:132,1,90,4|0,0:0|0:0,0:0:0:0:
112,176,109668,2,0,B|120:208|152:228|184:228,1,90,0|0,0:0|0:0,0:0:0:0:
256,272,110001,1,0,0:0:0:0:
344,296,110168,1,0,0:0:0:0:
432,264,110334,1,0,0:0:0:0:
456,176,110501,1,0,0:0:0:0:
304,152,110668,6,0,B|312:184|344:204|376:204,1,90,4|0,0:0|0:0,0:0:0:0:
456,176,111001,2,0,B|448:144|416:124|384:124,1,90,0|0,0:0|0:0,0:0:0:0:
304,152,111334,1,0,0:0:0:0:
248,224,111501,1,0,0:0:0:0:
160,248,111668,1,0,0:0:0:0:
72,224,111834,1,0,0:0:0:0:
136,160,112001,38,0,B|136:104|96:72,1,90,4|0,0:0|0:0,0:0:0:0:
224,136,112334,2,0,B|280:136|312:96,1,90,0|0,0:0|0:0,0:0:0:0:
376,224,112668,2,0,B|376:280|416:312,1,90
288,248,113001,2,0,B|232:248|200:288,1,90,0|0,0:0|0:0,0:0:0:0:
344,104,113334,5,4,0:0:0:0:
344,104,113501,1,0,0:0:0:0:
272,48,113668,2,0,B|240:80|256:136,1,90
168,280,114001,1,0,0:0:0:0:
168,280,114168,1,0,0:0:0:0:
240,336,114334,2,0,B|272:304|256:248,1,90
168,280,114668,38,0,B|128:304|64:296,1,90,4|0,0:0|0:0,0:0:0:0:
344,280,115001,2,0,B|384:304|448:296,1,90
168,224,115334,6,0,B|128:248|64:240,1,90,0|0,0:0|0:0,0:0:0:0:
344,224,115668,2,0,B|384:248|448:240,1,90,0|0,0:0|0:0,0:0:0:0:
168,104,116001,38,0,B|128:80|64:88,1,90,4|0,0:0|0:0,0:0:0:0:
344,104,116334,2,0,B|384:80|448:88,1,90
168,160,116668,6,0,B|128:136|64:144,1,90,0|0,0:0|0:0,0:0:0:0:
344,160,117001,2,0,B|384:136|448:144,1,90,0|0,0:0|0:0,0:0:0:0:
256,64,117334,37,4,0:0:0:0:
256,96,117418,1,0,0:0:0:0:
256,128,117501,1,0,0:0:0:0:
256,160,117584,1,0,0:0:0:0:
256,192,117668,1,4,0:0:0:0:
256,224,117751,1,0,0:0:0:0:
256,256,117834,1,0,0:0:0:0:
256,288,117918,1,0,0:0:0:0:
232,304,118001,6,0,B|208:344|176:344,3,67.4999979883433,4|0|0|0,0:0|0:0|0:0|0:0,0:0:0:0:
280,304,118334,2,0,B|304:344|336:344,3,67.4999979883433,4|0|0|0,0:0|0:0|0:0|0:0,0:0:0:0:
256,336,118668,38,0,B|256:368,32,33.7499989941716,0|0|0|0|0|0|0|0|0|0|0|0|0|0|0|0|0|0|0|0|0|0|0|0|0|0|0|0|0|0|0|0|4,0:0|0:0|0:0|0:0|0:0|0:0|0:0|0:0|0:0|0:0|0:0|0:0|0:0|0:0|0:0|0:0|0:0|0:0|0:0|0:0|0:0|0:0|0:0|0:0|0:0|0:0|0:0|0:0|0:0|0:0|0:0|0:0|0:0,0:0:0:0:
448,144,121001,37,0,0:0:0:0:
368,104,121334,1,2,0:0:0:0:
288,64,121668,1,0,0:0:0:0:
368,104,122001,1,0,0:0:0:0:
296,160,122334,1,0,0:0:0:0:
224,208,122668,1,2,0:0:0:0:
224,208,123668,37,0,0:0:0:0:
176,144,124001,2,0,B|128:128|96:176|32:136,2,135,2|0|0,0:0|0:0|0:0,0:0:0:0:
200,112,124751,2,0,B|144:152|144:224|152:256|160:280,1,180,2|0,0:0|0:0,0:0:0:0:
256,304,125551,1,2,0:0:0:0:
256,304,127024,22,0,B|320:272|344:344|448:304,1,180,2|0,0:0|0:0,0:0:0:0:
424,216,127881,6,0,B|360:248|336:176|232:216,1,180,2|0,0:0|0:0,0:0:0:0:
256,128,128756,21,6,0:0:0:0:
