osu file format v5

[General]
AudioFilename: Creedence Clearwater Revival - Hey Tonight.mp3
AudioLeadIn: 0
PreviewTime: -1
Countdown: 1
SampleSet: Normal
EditorBookmarks: 35680,88443,138813

[Metadata]
Title:Hey Tonight
Artist:Creedence Clearwater Revival
Creator:YourAverageJoe
Version:Normal

[Difficulty]
HPDrainRate:5
CircleSize:5
OverallDifficulty:6
SliderMultiplier:1
SliderTickRate:1

[Events]
//Background and Video events
0,0,"Creedence_Clearwater_Revival_-_Pendulum.png"
//Break Periods
2,92411,93742
//Storyboard Layer 0 (Background)
//Storyboard Layer 1 (Failing)
//Storyboard Layer 2 (Passing)
//Storyboard Layer 3 (Foreground)
//Storyboard Sound Samples
//Background Colour Transformations
3,100,163,162,255

[TimingPoints]
380,477.9,4,1,0,100
10000,478.099999999997,4,1,0,100
15660,468.75,4,1,0,100
21260,466.019417475728,4,1,0,100
47300,461.538461538462,4,1,0,100
54770,469.638461538464,4,1,0,100
66020,467.838461538462,4,1,0,100
95960,462.938461538461,4,1,0,100
107100,466.738461538462,4,1,0,100

[HitObjects]
96,128,9938,2,0,B|160:128|160:96|288:64,1,200
416,160,11434,1,0
416,160,11673,2,0,B|351:160|320:128,1,100
288,224,12868,2,2,B|224:224,4,50
160,224,14183,5,0
160,160,14422,1,0
160,96,14661,1,0
256,192,15139,1,0
320,192,15378,2,0,B|378:169|416:160,1,100
224,160,16597,2,2,B|224:96,4,50
384,128,18003,5,0
384,192,18238,1,0
384,256,18472,1,0
288,256,18941,1,0
224,256,19175,2,0,B|128:224,1,100
192,128,20816,5,0
256,128,21260,2,0,B|320:128|448:224,1,200
384,288,22658,6,2,B|288:320,3,100
416,256,24522,1,0
352,256,24988,2,0,B|224:256|192:224,1,150
192,160,26386,1,2
288,128,26852,1,2
352,224,27318,1,2
288,224,27551,1,2
224,224,27784,1,2
96,128,28716,6,0,B|160:128|160:96|288:64,1,200
416,160,30114,1,0
416,160,30347,2,0,B|351:160|320:128,1,100
224,96,31046,5,2
192,128,31279,1,2
160,160,31512,1,2
160,256,31978,1,2
192,288,32211,1,2
224,320,32444,1,2
256,192,32910,5,0
288,160,33143,1,0
320,128,33376,1,0
384,160,33842,1,0
384,224,34075,2,0,B|320:256|288:288,1,100
320,320,35706,5,0
224,320,36172,2,0,B|160:320|64:192,1,200
64,288,37803,6,2,B|64:256|128:192,3,100
160,160,39434,1,0
224,160,39900,2,0,B|320:160|288:96|416:192,1,200
256,192,41298,12,4,43628
32,288,44094,5,0
32,224,44327,1,0
32,160,44560,1,0
96,192,44793,1,0
160,224,45026,1,0
224,256,45260,1,0
288,256,45493,2,0,B|380:192|480:288,1,200
384,64,47300,5,0
128,128,48223,1,0
384,192,49146,1,4
256,192,49607,12,4,50992
480,96,51453,5,0
480,160,51684,1,0
480,224,51915,1,0
416,256,52146,1,0
352,224,52376,1,0
288,192,52607,1,0
224,192,52838,2,0,B|128:192|32:128,1,200
128,192,54770,1,0
384,256,55709,1,0
128,320,56648,1,0
192,256,57118,5,2
128,192,57353,1,2
192,128,57587,1,2
192,192,57822,1,2
256,256,58057,1,2
256,192,58527,6,0,B|320:192|320:160|448:128,1,200
224,288,59818,1,0
224,288,60170,2,0,B|159:288|128:256,1,100
256,192,61110,12,4,62284
160,224,62753,5,4
160,160,62988,1,0
160,96,63223,1,0
256,192,63693,1,0
320,192,63927,2,0,B|416:192|416:160,1,100
192,128,65571,5,0
256,128,66020,2,0,B|320:128|416:256,1,200
320,256,67423,6,2,B|288:320|256:352|192:224|160:160|96:320,1,300
416,256,69294,1,0
352,256,69762,2,0,B|288:224|256:128|192:256,1,200
160,64,71166,2,2,B|256:32|352:96,2,200
192,160,73505,6,0,B|240:127|288:160,3,100
288,160,75376,2,0,B|320:207|288:256,3,100
288,256,77248,2,0,B|247:286|192:256,3,100
192,256,79119,2,0,B|160:203|192:160,3,100
128,224,80990,5,0
192,160,81224,1,0
256,224,81458,1,0
320,160,81692,1,0
256,96,81926,1,0
192,32,82160,1,0
128,96,82394,1,0
64,160,82628,1,0
128,224,82862,5,0
192,288,83096,1,0
256,224,83330,1,0
192,160,83563,1,0
256,96,83797,1,0
352,160,84031,1,0
352,256,84265,1,0
256,256,84499,1,0
160,256,84733,6,0,B|160:192,15,50
256,192,88476,12,4,92218
256,192,94792,12,0,95960
32,288,96422,1,0
32,224,96654,1,0
32,160,96885,1,0
96,192,97117,1,0
160,224,97348,1,0
224,224,97580,1,0
288,224,97811,2,0,B|384:224|480:160,1,200
384,64,99663,5,0
128,128,100589,1,0
384,192,101515,1,0
256,192,102441,12,4,103367
448,32,103829,5,0
384,32,104061,1,0
320,32,104292,1,0
288,96,104524,1,0
256,160,104755,1,0
224,224,104987,1,0
192,288,105218,2,0,B|96:288|32:160,1,200
384,64,107100,5,0
128,128,108033,1,0
384,192,108966,1,0
256,224,109433,6,2,B|192:224,4,50
256,192,110833,12,4,112234
96,128,112700,6,0,B|160:128|160:96|288:64,1,200
416,160,114101,1,0
416,160,114334,2,0,B|351:160|320:128,1,100
64,256,115968,5,2
128,224,116201,1,2
192,192,116434,1,2
384,96,116901,5,0
320,96,117134,1,0
256,96,117368,1,0
256,192,117834,1,0
320,192,118068,2,0,B|416:192|416:160,1,100
256,192,119001,12,0,120168
224,256,120635,5,0
96,256,120868,1,0
160,192,121102,1,0
256,192,121568,1,0
320,192,121802,2,0,B|416:192|416:160,1,100
192,128,123435,5,0
256,128,123902,2,0,B|320:128|448:224,1,200
192,192,126236,5,2
256,160,126469,1,2
320,128,126703,1,2
448,224,127169,1,0
384,224,127636,2,0,B|288:224|256:160|192:256,1,200
160,160,129036,5,2
256,160,129270,1,2
160,288,129736,1,2
256,288,129970,1,2
352,288,130203,1,2
352,192,130436,1,2
224,224,130903,5,0
288,224,131370,2,0,B|352:224|480:320,1,200
160,160,132770,6,2,B|256:160|256:192,3,100
448,224,134637,1,0
384,224,135104,2,0,B|320:224|224:96,1,200
256,192,136504,12,4,138838
