osu file format v9

[General]
AudioFilename: Cream puff - Mermaid girl.mp3
AudioLeadIn: 0
PreviewTime: 59884
Countdown: 0
SampleSet: Normal
StackLeniency: 0.7
Mode: 1
LetterboxInBreaks: 1

[Editor]
Bookmarks: 32883,46597,74026,87740,94617,101454
DistanceSpacing: 1
BeatDivisor: 4
GridSize: 4

[Metadata]
Title:Mermaid girl
Artist:Cream puff
Creator:tsuka
Version:Taiko
Source:beatmania IIDX 18 Resort Anthem
Tags:Ryu Halka moimoi Alace Dr_dy

[Difficulty]
HPDrainRate:6
CircleSize:7
OverallDifficulty:6
ApproachRate:10
SliderMultiplier:1.4
SliderTickRate:2

[Events]
//Background and Video events
0,0,"moe%20179941%20cleavage%20mermaid%20wallpaper%20yukiwo.jpg"
//Break Periods
//Storyboard Layer 0 (Background)
//Storyboard Layer 1 (Fail)
//Storyboard Layer 2 (Pass)
//Storyboard Layer 3 (Foreground)
//Storyboard Sound Samples
//Background Colour Transformations
3,100,163,162,255

[TimingPoints]
332,428.571428571429,4,1,0,70,1,0
60332,-100,4,1,0,70,0,1
74046,-100,4,1,0,70,0,0
103189,-100,4,1,0,70,0,1
116903,-100,4,1,0,70,0,0

[Colours]
Combo1 : 0,255,255
Combo2 : 255,128,255
Combo3 : 255,255,128
Combo4 : 255,128,128

[HitObjects]
208,132,3760,1,0
116,240,4082,1,0
116,240,4403,1,0
252,120,4832,1,0
252,120,5046,1,2
192,108,5153,1,2
216,208,5474,1,0
216,208,5796,1,0
216,208,6117,1,0
124,88,6546,1,0
124,88,6760,1,2
124,88,6867,1,2
208,132,7189,1,0
116,240,7510,1,0
116,240,7831,1,0
252,120,8260,1,0
252,120,8474,1,2
192,108,8581,1,2
216,208,8903,1,0
212,104,9117,1,2
216,208,9224,1,0
212,104,9439,1,0
216,208,9546,1,2
276,100,9760,1,0
124,88,9974,1,2
124,88,10189,1,2
124,88,10296,1,2
276,100,10403,1,2
164,224,10617,5,0
280,180,10939,1,2
280,180,11046,1,0
248,84,11260,1,2
164,128,11474,1,0
164,128,11689,1,2
164,128,11903,1,0
164,128,12010,1,2
164,224,12331,1,0
280,180,12653,1,2
280,180,12760,1,0
248,84,12974,1,2
164,128,13189,1,0
164,128,13403,1,2
164,128,13617,1,0
164,128,13724,1,2
248,84,13831,1,0
164,224,14046,1,0
280,180,14367,1,2
280,180,14474,1,0
248,84,14689,1,2
164,128,14903,1,0
164,128,15117,1,2
164,128,15331,1,0
164,128,15439,1,2
248,84,15546,1,0
164,224,15760,1,4
280,180,16189,1,4
164,128,16617,1,4
164,128,16831,1,0
184,40,16939,1,2
164,128,17046,1,2
164,128,17153,1,0
248,84,17260,1,2
92,120,17474,5,4
232,108,17689,1,2
192,232,17796,1,2
224,208,17903,1,0
264,196,18117,1,2
264,196,18332,1,0
264,196,18546,1,2
148,212,18760,1,0
148,212,18867,1,2
296,196,18974,1,0
92,120,19189,1,0
232,108,19403,1,2
192,232,19510,1,2
224,208,19617,1,0
264,196,19832,1,2
264,196,20046,1,0
264,196,20260,1,2
148,212,20474,1,0
148,212,20582,1,2
296,196,20689,1,0
152,32,20903,1,0
152,32,21117,1,2
152,32,21224,1,0
152,32,21439,1,0
152,32,21546,1,2
152,32,21760,1,0
176,104,21974,1,2
84,172,22189,1,0
84,172,22296,1,2
84,172,22403,1,0
220,232,22617,1,0
220,232,22832,1,2
220,232,23046,1,0
220,232,23260,1,2
220,232,23474,1,4
220,232,23903,1,4
156,188,24117,1,4
92,120,24332,5,4
232,108,24546,1,2
192,232,24653,1,2
224,208,24760,1,0
264,196,24974,1,2
264,196,25189,1,0
264,196,25403,1,2
148,212,25617,1,0
148,212,25724,1,2
296,196,25832,1,0
92,120,26046,1,0
232,108,26260,1,2
192,232,26367,1,2
224,208,26474,1,0
264,196,26689,1,2
264,196,26903,1,0
264,196,27117,1,2
148,212,27332,1,0
148,212,27439,1,2
296,196,27546,1,0
152,32,27760,1,0
152,32,27974,1,2
152,32,28082,1,0
152,32,28296,1,0
152,32,28403,1,2
152,32,28617,1,0
176,104,28832,1,2
84,172,29046,1,0
84,172,29153,1,2
84,172,29260,1,0
220,232,29474,1,4
220,232,29689,1,2
220,232,29903,1,4
220,232,30117,1,2
220,232,30332,1,6
288,80,30546,1,6
220,232,30760,1,4
156,188,30974,1,4
232,96,31189,5,6
148,100,31617,1,6
256,192,31832,12,0,32689
240,40,32903,5,0
200,128,33117,1,0
200,128,33224,1,0
200,128,33332,1,2
244,164,33760,1,0
244,164,33974,1,0
244,164,34082,1,0
244,164,34189,1,2
236,144,34403,1,2
144,212,34617,1,0
144,212,34832,1,0
144,212,34939,1,0
144,212,35046,1,2
144,212,35260,1,2
196,136,35689,1,2
196,136,35903,1,0
196,136,36010,1,2
196,136,36117,1,0
240,40,36332,1,0
200,128,36546,1,0
200,128,36653,1,0
200,128,36760,1,2
244,164,37189,1,0
244,164,37403,1,0
244,164,37510,1,0
244,164,37617,1,2
236,144,37832,1,2
144,212,38046,1,0
144,212,38260,1,0
144,212,38367,1,0
144,212,38474,1,2
144,212,38689,1,2
196,136,39117,1,2
196,136,39332,1,0
196,136,39439,1,2
196,136,39546,1,0
240,40,39760,5,0
200,128,39974,1,0
200,128,40082,1,0
200,128,40189,1,2
112,96,40403,1,2
244,164,40617,1,0
244,164,40832,1,0
244,164,40939,1,0
244,164,41046,1,2
236,144,41260,1,2
144,212,41474,1,4
144,212,41689,1,2
144,212,41903,1,4
144,212,42117,1,2
196,136,42332,1,4
168,48,42546,1,2
196,136,42760,1,2
196,136,42867,1,2
196,136,42974,1,2
240,40,43189,1,0
200,128,43403,1,0
200,128,43510,1,0
200,128,43617,1,2
164,176,43832,1,2
244,164,44046,1,0
244,164,44260,1,0
244,164,44367,1,0
244,164,44474,1,2
236,144,44689,1,2
144,212,44903,1,4
144,212,45117,1,2
144,212,45331,1,4
144,212,45546,1,2
180,88,45760,1,6
196,136,45974,1,6
196,136,46189,1,2
196,136,46296,1,2
196,136,46403,1,2
124,56,46617,5,0
124,56,46831,1,2
124,56,47046,1,0
124,56,47260,1,2
272,140,47367,1,0
272,140,47581,1,0
240,124,47689,1,2
240,124,47903,1,0
240,124,48117,1,2
332,264,48546,1,2
332,264,48760,1,0
332,264,48974,1,2
148,64,49081,1,0
148,64,49296,1,0
332,264,49403,1,2
332,264,49617,1,0
204,76,49831,1,2
292,104,50046,1,0
160,176,50260,1,2
160,176,50474,1,0
120,104,50689,1,2
332,264,50903,1,0
332,264,51010,1,0
332,264,51117,1,2
180,64,51331,1,0
180,64,51439,1,0
180,64,51546,1,2
132,208,51760,1,0
132,208,51974,1,2
132,208,52081,1,2
132,208,52189,1,0
132,208,52403,1,2
132,208,52617,1,0
132,208,52831,1,2
132,208,53046,1,4
180,68,53260,1,4
124,56,53474,5,4
124,56,53689,1,2
124,56,53903,1,0
124,56,54117,1,2
140,152,54224,1,0
140,152,54439,1,0
240,124,54546,1,2
240,124,54760,1,0
152,96,54867,1,2
240,124,54974,1,0
164,76,55189,1,4
332,264,55403,1,2
332,264,55617,1,4
332,264,55831,1,2
188,52,56046,1,4
332,264,56260,1,2
332,264,56474,1,2
368,204,56581,1,2
204,76,56689,1,2
292,104,56903,1,0
160,176,57117,1,0
188,52,57224,1,2
160,176,57331,1,0
120,104,57546,1,0
144,48,57760,1,4
144,48,58189,1,4
132,208,58617,1,6
132,208,59046,1,6
132,208,59474,1,6
132,208,59689,1,2
264,100,59796,1,2
132,208,59903,1,2
264,100,60010,1,2
132,208,60117,1,2
176,48,60331,5,4
244,92,60546,1,2
244,92,60653,1,2
244,92,60760,1,0
244,92,60974,1,2
244,92,61189,1,0
244,92,61403,1,2
244,92,61617,1,0
244,92,61724,1,2
244,92,61831,1,0
176,48,62046,1,0
244,92,62260,1,2
244,92,62367,1,2
244,92,62474,1,0
244,92,62689,1,2
244,92,62903,1,0
244,92,63117,1,2
244,92,63331,1,0
244,92,63439,1,2
244,92,63546,1,0
80,136,63760,1,0
80,136,63974,1,2
80,136,64081,1,0
80,136,64296,1,0
80,136,64403,1,2
112,100,64617,1,0
112,100,64831,1,2
160,56,65046,1,0
160,56,65153,1,2
160,56,65260,1,0
224,56,65474,1,0
224,56,65689,1,2
224,56,65796,1,2
224,56,65903,1,0
224,56,66117,1,2
224,56,66331,1,0
132,192,66439,1,0
132,192,66546,1,2
160,56,66760,1,0
160,56,66867,1,2
160,56,66974,1,0
176,48,67189,5,0
244,92,67403,1,2
244,92,67510,1,2
244,92,67617,1,0
244,92,67831,1,2
244,92,68046,1,0
244,92,68260,1,2
244,92,68474,1,0
244,92,68581,1,2
244,92,68689,1,0
120,88,68796,1,2
176,48,68903,1,0
244,92,69117,1,2
244,92,69224,1,2
244,92,69331,1,0
244,92,69546,1,2
244,92,69760,1,0
244,92,69974,1,2
244,92,70189,1,0
244,92,70296,1,2
244,92,70403,1,0
144,180,70510,1,2
80,136,70617,1,0
80,136,70831,1,2
80,136,70939,1,0
80,136,71153,1,0
80,136,71260,1,2
112,100,71474,1,0
272,248,71581,1,0
112,100,71689,1,2
160,56,71903,1,0
160,56,72010,1,2
160,56,72117,1,0
224,56,72331,1,0
224,56,72546,1,2
224,56,72653,1,2
224,56,72760,1,0
220,156,72867,1,0
224,56,72974,1,2
224,56,73189,1,0
132,192,73296,1,0
132,192,73403,1,2
188,60,73510,1,2
160,56,73617,1,0
160,56,73724,1,2
160,56,73831,1,0
188,60,73939,1,2
180,164,74046,5,0
180,164,74260,1,2
180,164,74367,1,2
180,164,74474,1,0
180,164,74689,1,2
180,164,74903,1,0
180,164,75117,1,2
92,172,75331,1,2
104,244,75546,1,0
104,244,75653,1,0
104,244,75760,1,0
112,160,76189,1,4
112,160,76403,1,4
200,172,76831,1,4
200,172,77046,1,4
132,84,77474,1,0
132,84,77689,1,2
132,84,77796,1,0
132,84,78010,1,0
132,84,78117,1,2
240,92,78331,1,0
240,92,78546,1,2
240,92,78760,1,0
240,92,78867,1,2
240,92,78974,1,0
240,92,79189,1,4
240,92,79617,1,4
240,92,80046,1,4
240,92,80260,1,4
240,92,80474,1,4
180,164,80903,5,0
180,164,81117,1,2
180,164,81224,1,2
180,164,81331,1,0
180,164,81546,1,2
180,164,81760,1,0
180,164,81974,1,2
92,172,82189,1,0
104,244,82296,1,2
188,64,82403,1,0
104,244,82510,1,2
104,244,82617,1,0
232,32,82831,1,2
112,160,83046,1,0
112,160,83260,1,2
232,32,83474,1,0
200,172,83689,1,2
200,172,83903,1,0
188,64,84010,1,2
188,64,84117,1,0
132,84,84331,1,4
132,84,84546,1,2
132,84,84653,1,0
132,84,84867,1,0
132,84,84974,1,2
240,92,85189,1,4
240,92,85403,1,2
240,92,85617,1,0
240,92,85724,1,2
240,92,85831,1,0
240,92,86046,1,4
240,92,86474,1,4
240,92,86903,1,4
240,92,87117,1,2
240,92,87331,1,4
176,140,87546,1,2
168,116,87760,1,4
156,72,87974,5,2
216,80,88403,1,2
168,48,88831,1,2
168,48,89260,1,2
124,76,89689,1,2
124,76,89903,1,2
124,76,90117,1,2
216,128,90546,1,2
216,128,90974,1,2
216,128,91189,1,2
216,128,91403,1,2
216,128,91831,1,2
216,128,92260,1,2
216,128,92689,1,2
216,128,92903,1,2
216,128,93117,1,2
216,128,93331,1,2
216,128,93546,1,2
216,128,93974,1,2
216,128,94189,1,2
216,128,94403,1,2
216,128,94617,1,0
172,76,95046,1,0
172,76,95474,1,0
172,76,95903,1,0
172,76,96117,1,0
172,76,96331,1,0
260,60,96439,1,0
260,60,96546,1,0
260,60,96760,1,0
260,60,96867,1,0
260,60,96974,1,0
260,60,97189,1,0
260,60,97296,1,0
260,60,97403,1,0
216,80,97617,1,0
216,80,97831,1,0
176,120,98046,1,4
160,56,98260,1,0
160,56,98367,1,0
160,56,98474,1,0
160,56,98689,1,0
160,56,98903,1,4
352,212,99117,1,0
352,212,99331,1,0
352,212,99546,1,0
200,112,99760,1,4
200,112,100189,1,4
200,112,100617,1,4
328,208,100831,1,4
328,208,101046,1,0
328,208,101153,1,0
328,208,101260,1,0
208,52,101474,1,6
208,52,101903,1,6
208,52,102331,1,6
208,52,102546,1,2
208,52,102653,1,2
208,52,102760,1,2
208,52,102867,1,2
208,52,102974,1,2
176,48,103189,5,4
244,92,103403,1,2
244,92,103510,1,2
244,92,103617,1,0
244,92,103831,1,2
244,92,104046,1,0
244,92,104260,1,2
244,92,104474,1,0
244,92,104581,1,2
244,92,104689,1,0
200,76,104796,1,2
176,48,104903,1,0
244,92,105117,1,2
244,92,105224,1,2
244,92,105331,1,0
244,92,105546,1,2
244,92,105760,1,0
244,92,105974,1,2
244,92,106189,1,0
244,92,106296,1,2
244,92,106403,1,0
184,120,106510,1,2
80,136,106617,1,0
80,136,106831,1,2
80,136,106939,1,0
80,136,107153,1,0
80,136,107260,1,2
112,100,107474,1,0
112,100,107689,1,2
160,56,107903,1,0
160,56,108010,1,2
160,56,108117,1,0
272,192,108224,1,2
224,56,108331,1,0
224,56,108546,1,2
224,56,108653,1,2
224,56,108760,1,0
224,56,108974,1,2
224,56,109189,1,0
132,192,109296,1,0
132,192,109403,1,2
160,56,109617,1,0
160,56,109724,1,2
160,56,109831,1,0
272,192,109939,1,2
176,48,110046,5,0
244,92,110260,1,2
244,92,110367,1,2
244,92,110474,1,0
244,92,110689,1,2
244,92,110903,1,0
244,92,111117,1,2
272,192,111224,1,0
244,92,111331,1,0
244,92,111439,1,2
244,92,111546,1,0
120,88,111653,1,2
176,48,111760,1,0
244,92,111974,1,2
244,92,112081,1,2
244,92,112189,1,0
244,92,112403,1,2
244,92,112617,1,0
244,92,112831,1,2
304,240,112939,1,0
244,92,113046,1,0
244,92,113153,1,2
244,92,113260,1,0
144,180,113367,1,2
80,136,113474,1,0
80,136,113689,1,2
80,136,113796,1,0
80,136,114010,1,0
80,136,114117,1,2
112,100,114331,1,0
272,248,114439,1,0
112,100,114546,1,2
160,56,114760,1,0
160,56,114867,1,2
160,56,114974,1,0
264,152,115081,1,2
224,56,115189,1,0
224,56,115403,1,2
224,56,115510,1,2
224,56,115617,1,0
220,156,115724,1,0
224,56,115831,1,2
224,56,116046,1,0
132,192,116153,1,0
132,192,116260,1,2
188,60,116367,1,0
160,56,116474,1,0
160,56,116581,1,2
160,56,116689,1,0
188,60,116796,1,2
180,164,116903,5,0
