osu file format v12

[General]
AudioFilename: Cream Puff-Mermaid Girl(Ryu Remix).mp3
AudioLeadIn: 0
PreviewTime: 49166
Countdown: 0
SampleSet: Normal
StackLeniency: 0.7
Mode: 0
LetterboxInBreaks: 1

[Editor]
DistanceSpacing: 1
BeatDivisor: 4
GridSize: 4

[Metadata]
Title:Mermaid Girl (Ryu*Remix)
TitleUnicode:Mermaid Girl (Ryu*Remix)
Artist:Cream Puff
ArtistUnicode:Cream Puff
Creator:Jupiter
Version:EXTRA
Source:Reflec Beat
Tags:limelight cyber beatnation 2 Mercurius hs714 inaba-tan
BeatmapID:147712
BeatmapSetID:47637

[Difficulty]
HPDrainRate:7
CircleSize:5
OverallDifficulty:8
ApproachRate:9
SliderMultiplier:1.8
SliderTickRate:2

[Events]
//Background and Video events
0,0,"bg.jpg",0,0
//Break Periods
2,60176,64910
2,115042,124909
//Storyboard Layer 0 (Background)
//Storyboard Layer 1 (Fail)
//Storyboard Layer 2 (Pass)
//Storyboard Layer 3 (Foreground)
//Storyboard Sound Samples
//Background Colour Transformations
3,100,163,162,255

[TimingPoints]
1510,333.333333333333,4,1,0,70,1,0
3843,-100,4,2,0,70,0,0
8176,-100,4,1,0,70,0,0
9509,-100,4,2,0,70,0,0
12176,-100,4,1,0,70,0,0
20176,-66.6666666666667,4,1,0,70,0,0
20843,-100,4,1,0,70,0,0
34843,-66.6666666666667,4,1,0,70,0,0
35843,-100,4,1,0,70,0,0
45509,-66.6666666666667,4,1,0,70,0,0
46176,-100,4,1,0,70,0,0
48176,-100,4,1,0,50,0,0
48509,-100,4,1,0,60,0,0
48843,-100,4,1,0,70,0,0
49509,-100,4,1,0,70,0,1
49551,-100,4,1,0,70,0,0
53509,-66.6666666666667,4,1,0,70,0,0
54176,-100,4,1,0,70,0,0
78843,-66.6666666666667,4,1,0,50,0,0
79843,-100,4,1,0,50,0,0
81509,-100,4,1,0,70,0,0
93509,-100,4,1,0,70,0,1
93551,-100,4,1,0,70,0,0
103843,-100,4,1,0,60,0,0
125509,-100,4,1,0,70,0,0
128843,-66.6666666666667,4,1,0,70,0,0
129509,-100,4,1,0,70,0,1
129551,-100,4,1,0,70,0,0
134843,-100,4,1,0,70,0,0

[Colours]
Combo1 : 128,255,128
Combo2 : 255,170,85
Combo3 : 128,255,255

[HitObjects]
257,145,3843,2,0,B|252:176|266:209|258:243,2,90,2|0|4,0:0|0:0|0:0,0:0:0:0:
345,163,4343,1,0,0:0:0:0:
345,163,4426,2,0,B|471:113,1,135
167,221,4843,2,0,B|74:255,2,90,2|0|0,0:0|0:0|0:0,0:0:0:0:
167,221,5509,5,2,0:0:0:0:
220,315,5676,1,0,0:0:0:0:
316,266,5843,1,0,0:0:0:0:
269,169,6009,1,0,0:0:0:0:
243,241,6176,1,2,0:0:0:0:
290,337,6343,1,0,0:0:0:0:
389,296,6509,1,0,0:0:0:0:
345,196,6843,5,2,0:0:0:0:
418,72,7009,1,0,0:0:0:0:
418,99,7093,1,0,0:0:0:0:
277,72,7259,1,0,0:0:0:0:
277,99,7343,1,0,0:0:0:0:
136,72,7509,2,0,B|136:162,2,90,2|0|0,0:0|0:0|0:0,0:0:0:0:
376,312,8176,5,0,0:0:0:0:
376,312,8343,1,0,0:0:0:0:
376,312,8509,2,0,L|376:344,8,22.5
87,312,9009,1,0,0:0:0:0:
154,227,9176,1,0,0:0:0:0:
87,141,9343,1,0,0:0:0:0:
154,57,9509,5,4,0:0:0:0:
292,141,9676,1,0,0:0:0:0:
292,141,9759,2,0,B|430:141,1,135
220,243,10176,2,0,B|126:243,2,90,2|0|0,0:0|0:0|0:0,0:0:0:0:
247,243,10593,1,0,0:0:0:0:
273,243,10676,1,0,0:0:0:0:
299,243,10759,1,0,0:0:0:0:
326,243,10843,5,4,0:0:0:0:
436,334,11009,1,0,0:0:0:0:
327,334,11176,1,0,0:0:0:0:
218,334,11343,1,0,0:0:0:0:
292,141,11510,1,2,0:0:0:0:
183,141,11676,1,0,0:0:0:0:
74,141,11843,2,0,L|74:170,8,22.5,0|0|0|0|0|0|0|0|4,0:0|0:0|0:0|0:0|0:0|0:0|0:0|0:0|0:0,0:0:0:0:
121,277,12343,5,0,0:0:0:0:
121,250,12426,1,0,0:0:0:0:
262,277,12593,1,0,0:0:0:0:
262,303,12676,2,4,L|263:330,4,22.5,0|0|0|0|4,0:0|0:0|0:0|0:0|0:0,0:0:0:0:
403,277,13010,1,0,0:0:0:0:
470,192,13176,1,0,0:0:0:0:
403,106,13343,1,0,0:0:0:0:
403,132,13426,1,0,0:0:0:0:
403,158,13510,5,4,0:0:0:0:
260,132,13676,1,0,0:0:0:0:
260,158,13760,1,0,0:0:0:0:
117,132,13926,1,0,0:0:0:0:
117,158,14010,1,4,0:0:0:0:
180,287,14176,1,4,0:0:0:0:
257,362,14343,1,0,0:0:0:0:
331,287,14510,1,4,0:0:0:0:
257,207,14843,5,0,0:0:0:0:
257,207,15176,1,0,0:0:0:0:
257,62,15510,2,0,B|257:157,1,90
257,179,15760,1,0,0:0:0:0:
257,206,15843,1,0,0:0:0:0:
257,232,15926,1,0,0:0:0:0:
257,258,16010,1,0,0:0:0:0:
257,285,16093,1,0,0:0:0:0:
257,311,16176,5,4,0:0:0:0:
149,317,16343,1,0,0:0:0:0:
164,210,16510,1,0,0:0:0:0:
58,233,16676,1,0,0:0:0:0:
78,126,16843,2,0,B|45:120|18:134|-13:123,2,90
255,73,17510,5,0,0:0:0:0:
363,67,17676,1,0,0:0:0:0:
348,174,17843,1,0,0:0:0:0:
454,151,18010,1,0,0:0:0:0:
434,258,18176,2,0,B|467:264|497:251|527:262,2,90
337,307,18843,5,0,0:0:0:0:
201,353,19010,2,0,B|201:307,1,45
69,247,19259,2,0,B|69:191,1,45
162,92,19509,2,0,B|162:2,2,90
260,137,20176,6,0,B|401:137,1,134.999995976687,4|0,0:0|0:0,0:0:0:0:
480,321,20509,2,0,B|339:321,1,134.999995976687,4|0,0:0|0:0,0:0:0:0:
69,247,20843,2,0,B|250:247,1,180,4|0,0:0|0:0,0:0:0:0:
339,247,21343,1,0,0:0:0:0:
428,247,21509,5,4,0:0:0:0:
466,145,21676,1,0,0:0:0:0:
358,155,21843,1,0,0:0:0:0:
394,53,22009,1,0,0:0:0:0:
287,73,22176,2,0,B|193:73,2,90
224,308,22843,5,4,0:0:0:0:
81,322,23009,1,0,0:0:0:0:
66,179,23176,1,0,0:0:0:0:
208,164,23343,1,0,0:0:0:0:
149,242,23509,2,0,B|57:252,2,90,0|0|0,0:0|0:0|0:0,0:0:0:0:
263,237,24009,1,0,0:0:0:0:
370,248,24176,5,4,0:0:0:0:
431,117,24343,1,0,0:0:0:0:
431,143,24426,1,0,0:0:0:0:
327,42,24593,1,0,0:0:0:0:
327,68,24676,1,0,0:0:0:0:
204,143,24843,2,0,B|204:234,2,90,0|0|4,0:0|0:0|0:0,0:0:0:0:
127,94,25509,5,4,0:0:0:0:
100,235,25676,1,0,0:0:0:0:
100,261,25759,1,0,0:0:0:0:
225,331,25926,1,0,0:0:0:0:
225,304,26009,1,0,0:0:0:0:
352,235,26176,2,0,B|351:331,2,90,0|0|4,0:0|0:0|0:0,0:0:0:0:
352,144,26676,1,0,0:0:0:0:
352,53,26843,5,2,2:0:0:0:
160,331,27176,1,2,2:0:0:0:
256,351,27509,2,0,B|255:258,1,90
256,233,27759,1,0,0:0:0:0:
256,205,27843,1,0,0:0:0:0:
256,178,27926,1,0,0:0:0:0:
256,151,28009,1,0,0:0:0:0:
256,123,28093,1,0,0:0:0:0:
256,96,28176,5,4,0:0:0:0:
152,64,28343,1,0,0:0:0:0:
88,151,28509,1,0,0:0:0:0:
88,151,28676,1,0,0:0:0:0:
152,237,28843,2,0,B|78:300,2,90
238,171,29343,1,0,0:0:0:0:
333,64,29509,6,0,B|333:159,1,90
472,193,29843,2,0,B|472:288,1,90
367,310,30176,1,0,0:0:0:0:
261,333,30343,2,0,B|261:382,2,45
155,310,30676,1,0,0:0:0:0:
70,242,30843,5,0,0:0:0:0:
152,173,31009,1,0,0:0:0:0:
256,146,31176,1,0,0:0:0:0:
256,146,31343,1,0,0:0:0:0:
362,160,31509,2,0,B|455:160,2,90
161,61,32009,6,0,B|255:61,1,90
359,61,32343,1,0,0:0:0:0:
294,147,32509,1,0,0:0:0:0:
402,147,32676,1,0,0:0:0:0:
348,241,32843,1,0,0:0:0:0:
455,241,33009,1,0,0:0:0:0:
455,268,33093,1,0,0:0:0:0:
455,294,33176,1,0,0:0:0:0:
348,356,33343,1,0,0:0:0:0:
241,294,33509,6,0,B|56:294,1,180,4|0,0:0|0:0,0:0:0:0:
271,90,34176,1,0,0:0:0:0:
361,90,34343,1,0,0:0:0:0:
450,90,34509,1,0,0:0:0:0:
415,192,34676,1,0,0:0:0:0:
415,192,34759,1,0,0:0:0:0:
415,192,34843,6,0,B|273:192,1,134.999995976687,4|0,0:0|0:0,0:0:0:0:
163,326,35176,2,0,B|298:326,1,134.999995976687,4|0,0:0|0:0,0:0:0:0:
194,58,35509,2,0,B|61:58,1,134.999995976687,4|0,0:0|0:0,0:0:0:0:
59,166,35843,5,0,0:0:0:0:
93,267,36009,1,0,0:0:0:0:
197,295,36176,2,0,B|182:384,2,90,4|0|0,0:0|0:0|0:0,0:0:0:0:
211,187,36676,1,0,0:0:0:0:
393,295,36843,6,0,B|486:295,2,90
284,295,37343,1,0,0:0:0:0:
176,295,37509,2,0,B|176:202,1,90,4|0,0:0|0:0,0:0:0:0:
38,157,37843,2,0,B|38:64,1,90
143,91,38176,5,0,0:0:0:0:
248,67,38343,1,0,0:0:0:0:
416,91,38509,1,0,0:0:0:0:
416,91,38593,1,0,0:0:0:0:
416,91,38676,1,0,0:0:0:0:
326,151,38843,5,4,0:0:0:0:
416,209,39009,2,0,B|507:209,2,90
326,269,39509,2,0,B|231:269,2,90
416,327,40010,1,0,0:0:0:0:
388,327,40093,1,0,0:0:0:0:
361,327,40176,1,0,0:0:0:0:
252,327,40343,5,0,0:0:0:0:
144,327,40510,1,0,0:0:0:0:
35,327,40676,1,0,0:0:0:0:
124,213,40843,2,0,B|218:213,1,90
327,124,41176,1,0,0:0:0:0:
353,124,41260,1,0,0:0:0:0:
380,124,41343,1,0,0:0:0:0:
457,124,41510,6,0,B|256:124,1,180
55,260,42176,2,0,B|256:260,1,180
343,260,42676,1,0,0:0:0:0:
451,260,42843,1,0,0:0:0:0:
256,192,42926,12,4,44176,0:0:0:0:
111,130,44343,6,0,B|18:131,2,90
205,76,44843,1,0,0:0:0:0:
312,76,45010,1,0,0:0:0:0:
420,76,45176,1,0,0:0:0:0:
506,191,45343,6,0,B|461:191,1,45
434,191,45510,2,0,B|290:191,1,134.999995976687,4|0,0:0|0:0,0:0:0:0:
256,33,45843,2,0,B|113:33,1,134.999995976687,4|0,0:0|0:0,0:0:0:0:
53,351,46176,6,0,B|243:351,1,180,4|0,0:0|0:0,0:0:0:0:
339,371,46676,1,0,0:0:0:0:
445,351,46843,6,0,B|456:168,1,180,4|0,0:0|0:0,0:0:0:0:
67,33,47510,2,0,B|72:216,1,180
24,312,48010,1,0,0:0:0:0:
159,360,48176,5,0,0:0:0:0:
159,360,48260,1,0,0:0:0:0:
159,360,48343,1,0,0:0:0:0:
229,235,48510,1,0,0:0:0:0:
229,235,48593,1,0,0:0:0:0:
229,235,48676,1,0,0:0:0:0:
298,361,48843,1,8,0:3:0:0:
298,361,48926,1,0,0:0:0:0:
298,361,49010,1,0,0:0:0:0:
368,234,49176,2,0,B|430:164,1,90
499,85,49510,5,4,0:0:0:0:
398,44,49676,1,0,0:0:0:0:
398,44,49760,2,0,B|260:43,1,135
156,140,50176,2,0,B|253:139,2,90
61,192,50676,1,0,0:0:0:0:
61,192,50760,1,0,0:0:0:0:
61,192,50843,5,0,0:0:0:0:
156,242,51010,1,0,0:0:0:0:
61,294,51176,1,0,0:0:0:0:
156,344,51343,1,0,0:0:0:0:
344,293,51510,2,0,B|444:293,2,90
242,331,52010,1,0,0:0:0:0:
140,293,52176,5,0,0:0:0:0:
44,242,52343,1,0,0:0:0:0:
70,242,52426,1,0,0:0:0:0:
155,126,52593,1,0,0:0:0:0:
181,126,52676,1,0,0:0:0:0:
287,28,52843,1,0,0:0:0:0:
359,107,53010,1,0,0:0:0:0:
466,99,53176,1,0,0:0:0:0:
466,99,53510,6,0,B|465:244,1,134.999995976687,4|0,0:0|0:0,0:0:0:0:
256,343,53843,2,0,B|256:196,1,134.999995976687,4|0,0:0|0:0,0:0:0:0:
46,99,54176,2,0,B|46:283,1,180,4|0,0:0|0:0,0:0:0:0:
143,325,54676,1,0,0:0:0:0:
241,279,54843,5,4,0:0:0:0:
421,325,55010,1,0,0:0:0:0:
421,325,55093,2,0,B|421:372,2,45
420,297,55343,1,0,0:0:0:0:
241,279,55510,1,0,0:0:0:0:
420,260,55676,1,0,0:0:0:0:
241,236,55843,1,0,0:0:0:0:
161,163,56010,1,0,0:0:0:0:
161,163,56176,6,0,B|261:163,1,90,4|0,0:0|0:0,0:0:0:0:
354,61,56510,2,0,B|453:61,1,90
245,61,56843,1,0,0:0:0:0:
136,61,57010,1,0,0:0:0:0:
27,61,57176,1,0,0:0:0:0:
78,194,57343,1,0,0:0:0:0:
78,167,57426,1,0,0:0:0:0:
78,140,57510,5,4,0:0:0:0:
219,167,57676,1,0,0:0:0:0:
219,140,57760,1,0,0:0:0:0:
360,167,57926,1,0,0:0:0:0:
360,140,58010,1,0,0:0:0:0:
423,52,58176,1,0,0:0:0:0:
478,145,58343,1,0,0:0:0:0:
423,237,58510,1,4,0:0:0:0:
478,330,58843,5,4,0:0:0:0:
360,247,59010,1,0,0:0:0:0:
360,274,59093,1,0,0:0:0:0:
218,247,59260,1,0,0:0:0:0:
218,274,59343,1,0,0:0:0:0:
140,349,59510,1,8,0:3:0:0:
76,261,59676,1,0,0:0:0:0:
140,174,59843,1,4,0:0:0:0:
452,82,65510,5,4,0:0:0:0:
314,126,65676,1,0,0:0:0:0:
371,258,65843,1,0,0:0:0:0:
507,214,66010,1,0,0:0:0:0:
407,170,66176,2,0,B|498:144,2,90
304,205,66676,1,0,0:0:0:0:
201,170,66843,5,4,0:0:0:0:
99,205,67010,1,0,0:0:0:0:
185,270,67176,1,0,0:0:0:0:
80,299,67343,1,0,0:0:0:0:
289,299,67510,2,0,B|378:324,2,90
185,270,68010,1,0,0:0:0:0:
86,225,68176,5,0,0:0:0:0:
132,69,68343,2,0,B|132:114,1,45
295,69,68593,2,0,B|294:120,1,45
450,69,68843,2,0,B|450:160,2,90,0|0|0,0:0|0:0|0:0,0:0:0:0:
450,267,69510,5,0,0:0:0:0:
324,338,69676,1,0,0:0:0:0:
324,311,69760,1,0,0:0:0:0:
182,338,69926,1,0,0:0:0:0:
182,311,70010,1,0,0:0:0:0:
40,338,70176,2,0,B|40:247,2,90,0|0|0,0:0|0:0|0:0,0:0:0:0:
40,139,70843,5,2,2:0:0:0:
256,192,71176,1,2,2:0:0:0:
472,139,71509,1,0,0:0:0:0:
399,227,71676,1,0,0:0:0:0:
461,315,71843,1,0,0:0:0:0:
359,351,72010,1,0,0:0:0:0:
256,315,72176,6,0,B|347:273,2,90,4|0|0,0:0|0:0|0:0,0:0:0:0:
154,352,72676,1,0,0:0:0:0:
83,270,72843,2,0,B|-1:301,2,90
183,228,73343,1,0,0:0:0:0:
282,187,73510,2,0,B|377:187,1,90
196,128,73843,2,0,B|101:128,1,90
435,190,74510,5,0,0:0:0:0:
417,296,74676,1,0,0:0:0:0:
318,341,74843,1,0,0:0:0:0:
211,328,75010,1,0,0:0:0:0:
137,248,75176,1,0,0:0:0:0:
137,248,75343,1,0,0:0:0:0:
244,244,75510,5,0,0:0:0:0:
339,193,75676,1,0,0:0:0:0:
362,87,75843,1,0,0:0:0:0:
362,87,76010,1,0,0:0:0:0:
266,138,76176,2,0,B|176:138,1,90
1,70,76510,2,0,B|91:70,1,90
390,194,77176,5,0,0:0:0:0:
361,298,77343,1,0,0:0:0:0:
257,328,77510,2,0,B|203:324|135:337|77:331,1,180,4|0,0:0|0:0,0:0:0:0:
255,56,78176,2,0,B|309:60|377:47|435:53,1,180
390,151,78676,1,0,0:0:0:0:
435,249,78843,6,0,B|397:242|350:256|300:249,1,134.999995976687,4|0,0:0|0:0,0:0:0:0:
300,86,79176,2,0,B|262:79|215:93|165:86,1,134.999995976687,4|0,0:0|0:0,0:0:0:0:
165,298,79509,2,0,B|127:291|80:305|30:298,1,134.999995976687,4|0,0:0|0:0,0:0:0:0:
77,199,79843,1,0,0:0:0:0:
143,114,80009,1,0,0:0:0:0:
78,27,80176,6,0,B|-12:26,2,90,4|0|0,0:0|0:0|0:0,0:0:0:0:
182,55,80676,1,0,0:0:0:0:
375,27,80843,2,0,B|375:130,1,90
498,191,81176,2,0,B|498:294,1,90
397,321,81509,5,4,0:0:0:0:
296,281,81676,1,0,0:0:0:0:
195,321,81843,1,0,0:0:0:0:
94,281,82009,1,0,0:0:0:0:
66,176,82343,5,0,0:0:0:0:
115,80,82509,2,0,B|67:55,2,45
208,135,82843,5,4,0:0:0:0:
300,80,83009,1,0,0:0:0:0:
393,135,83176,2,0,B|468:192,1,90
301,146,83509,2,0,B|232:80,2,90
393,318,84009,1,0,0:0:0:0:
393,318,84093,1,0,0:0:0:0:
393,318,84176,1,0,0:0:0:0:
393,318,84343,5,0,0:0:0:0:
291,353,84509,1,0,0:0:0:0:
188,318,84676,1,0,0:0:0:0:
85,353,84843,1,0,0:0:0:0:
28,261,85009,1,0,0:0:0:0:
85,169,85176,1,0,0:0:0:0:
111,169,85259,1,0,0:0:0:0:
138,169,85343,1,0,0:0:0:0:
216,95,85509,6,0,B|273:85|339:106|402:95,1,180
296,289,86176,2,0,B|239:299|173:278|110:289,1,180
60,195,86676,1,0,0:0:0:0:
117,103,86843,1,0,0:0:0:0:
256,192,86926,12,4,88176,0:0:0:0:
356,264,88343,6,0,B|386:260|420:267|450:265,2,90
273,333,88843,2,0,B|245:330|206:338|169:333,1,90
130,199,89176,2,0,B|102:196|63:204|26:199,1,90
40,200,89426,1,0,0:0:0:0:
40,200,89509,5,4,0:0:0:0:
471,200,89843,1,4,0:0:0:0:
255,142,90176,2,0,B|236:193|272:265|252:330,1,180,4|0,0:0|0:0,0:0:0:0:
174,278,90676,1,0,0:0:0:0:
344,186,90843,6,0,B|327:251|368:321|428:331,1,180
168,198,91509,2,0,B|185:133|144:63|84:53,1,180
59,161,92009,1,0,0:0:0:0:
453,223,92176,5,0,0:0:0:0:
59,223,92509,1,0,0:0:0:0:
453,161,92843,2,0,B|427:157|386:168|352:159,1,90,8|0,0:3|0:0,0:0:0:0:
335,161,93093,1,0,0:0:0:0:
308,161,93176,1,0,0:0:0:0:
281,161,93259,1,0,0:0:0:0:
253,161,93343,1,0,0:0:0:0:
226,161,93426,1,0,0:0:0:0:
199,161,93509,5,4,0:0:0:0:
111,97,93676,1,0,0:0:0:0:
89,112,93759,1,0,0:0:0:0:
89,256,93926,1,0,0:0:0:0:
110,239,94009,1,0,0:0:0:0:
304,256,94176,2,0,B|333:248|366:261|399:253,2,90
206,302,94676,1,0,0:0:0:0:
99,322,94843,5,0,0:0:0:0:
153,229,95009,1,0,0:0:0:0:
46,246,95176,1,0,0:0:0:0:
107,157,95343,1,0,0:0:0:0:
270,246,95509,2,0,B|303:232|336:253|373:246,2,90
467,246,96009,1,0,0:0:0:0:
467,246,96093,1,0,0:0:0:0:
467,246,96176,5,0,0:0:0:0:
358,151,96343,2,0,B|310:152,1,45
444,92,96593,2,0,B|492:91,1,45
259,55,96843,2,0,B|169:55,2,90
364,77,97343,1,0,0:0:0:0:
431,160,97509,5,0,0:0:0:0:
419,267,97676,1,0,0:0:0:0:
327,324,97843,1,0,0:0:0:0:
219,324,98009,1,0,0:0:0:0:
111,340,98176,2,0,B|96:276|132:214|108:154,1,180
18,217,98676,1,0,0:0:0:0:
197,292,98843,5,4,0:0:0:0:
255,161,99009,1,0,0:0:0:0:
255,161,99093,1,0,0:0:0:0:
312,292,99259,1,0,0:0:0:0:
312,292,99343,1,0,0:0:0:0:
370,161,99509,2,0,B|401:156|435:167|461:162,2,90
255,161,100009,1,0,0:0:0:0:
142,161,100176,6,0,B|111:156|77:167|51:162,2,90,4|0|0,0:0|0:0|0:0,0:0:0:0:
215,81,100676,1,0,0:0:0:0:
370,161,100843,1,0,0:0:0:0:
307,250,101009,1,0,0:0:0:0:
307,250,101176,1,0,0:0:0:0:
198,255,101343,1,0,0:0:0:0:
90,250,101509,5,4,0:0:0:0:
143,115,101676,2,0,B|112:153,1,45
252,106,101926,2,0,B|279:71,1,45
416,115,102176,1,0,0:0:0:0:
475,205,102343,1,0,0:0:0:0:
416,295,102509,1,4,0:0:0:0:
310,272,102843,5,4,0:0:0:0:
168,295,103009,1,0,0:0:0:0:
147,312,103093,1,0,0:0:0:0:
190,175,103259,1,0,0:0:0:0:
212,159,103343,1,0,0:0:0:0:
354,174,103509,2,0,B|384:164|416:182|446:175,2,90,8|0|4,0:3|0:0|0:0,0:0:0:0:
258,225,104009,1,0,0:0:0:0:
162,174,104176,6,0,B|116:195|88:232,1,90,4|0,0:0|0:0,0:0:0:0:
180,288,104509,2,0,B|188:343|213:376,1,90
289,297,104843,1,0,0:0:0:0:
362,374,105009,1,0,0:0:0:0:
436,298,105176,1,0,0:0:0:0:
436,298,105343,2,0,B|436:326,4,22.5
471,195,105676,5,0,0:0:0:0:
437,92,105843,1,0,0:0:0:0:
339,138,106009,2,0,L|304:136,4,22.5
224,120,106343,2,0,P|232:168|224:208,1,90
144,65,106676,1,0,0:0:0:0:
144,65,106759,1,0,0:0:0:0:
144,65,106843,5,4,0:0:0:0:
60,133,107009,1,0,0:0:0:0:
144,200,107176,1,0,0:0:0:0:
60,269,107343,1,0,0:0:0:0:
144,336,107509,2,0,B|181:360|233:358,1,90
275,259,107843,1,0,0:0:0:0:
316,358,108009,2,0,B|304:382,4,22.5
456,259,108343,5,0,0:0:0:0:
362,205,108509,1,0,0:0:0:0:
335,100,108676,1,0,0:0:0:0:
420,33,108843,1,0,0:0:0:0:
510,91,109009,1,0,0:0:0:0:
289,91,109176,1,0,0:0:0:0:
378,151,109343,1,0,0:0:0:0:
199,151,109509,6,0,B|147:156|102:177,1,90,4|0,0:0|0:0,0:0:0:0:
84,277,109843,2,0,B|132:274|174:252,1,90
274,282,110176,1,0,0:0:0:0:
377,313,110343,1,0,0:0:0:0:
467,255,110509,1,0,0:0:0:0:
377,102,110676,2,0,B|285:102,1,90,0|4,0:0|0:0,0:0:0:0:
107,40,111009,6,0,B|198:40,2,90
64,139,111509,2,0,B|156:139,1,90
198,238,111843,2,0,B|105:238,1,90
108,238,112093,1,0,0:0:0:0:
108,238,112176,5,4,0:0:0:0:
423,310,112509,1,0,0:0:0:0:
312,249,112676,1,0,0:0:0:0:
89,74,113009,5,0,0:0:0:0:
200,135,113176,1,0,0:0:0:0:
310,74,113343,1,0,0:0:0:0:
423,310,113676,6,0,B|460:301|479:316|513:306,2,90
189,310,114176,2,0,B|143:308|104:274|104:274|69:298|18:306,2,180,0|0|4,0:0|0:0|0:0,0:0:0:0:
86,192,125509,5,0,0:0:0:0:
426,192,125843,1,0,0:0:0:0:
255,40,126176,2,0,B|250:72|264:105|255:144,1,90
257,156,126426,1,0,0:0:0:0:
257,182,126509,1,0,0:0:0:0:
257,209,126593,1,0,0:0:0:0:
257,235,126676,1,0,0:0:0:0:
257,261,126759,1,0,0:0:0:0:
257,288,126843,5,0,0:0:0:0:
150,275,127009,1,0,0:0:0:0:
150,302,127093,2,0,B|150:169,1,135
362,82,127509,2,0,B|362:175,2,90
320,56,127926,1,0,0:0:0:0:
284,82,128009,1,0,0:0:0:0:
248,56,128093,1,0,0:0:0:0:
211,81,128176,5,0,0:0:0:0:
70,134,128343,1,0,0:0:0:0:
164,217,128509,1,0,0:0:0:0:
288,195,128676,1,0,0:0:0:0:
375,297,128843,2,4,B|516:297,2,134.999995976687,4|4|12,0:0|0:0|0:0,0:0:0:0:
242,321,129509,5,4,0:0:0:0:
118,296,129676,2,0,B|118:249,1,45
187,104,129926,2,0,B|187:154,1,45
312,251,130176,2,0,B|312:348,2,90
312,251,130843,5,4,0:0:0:0:
467,207,131009,1,0,0:0:0:0:
422,51,131176,1,4,0:0:0:0:
266,97,131343,1,0,0:0:0:0:
367,149,131509,2,0,B|196:199,1,180,4|0,0:0|0:0,0:0:0:0:
72,167,132009,1,0,0:0:0:0:
89,292,132176,5,4,0:0:0:0:
215,292,132343,1,0,0:0:0:0:
215,292,132426,2,0,B|354:292,1,135
428,192,132843,2,0,B|329:193,2,90
428,192,133509,5,0,0:0:0:0:
366,81,133676,1,0,0:0:0:0:
306,192,133843,1,0,0:0:0:0:
246,81,134009,1,0,0:0:0:0:
187,192,134176,2,0,L|187:289,2,90
125,81,134843,5,4,0:0:0:0:
90,238,135009,1,0,0:0:0:0:
90,192,135093,1,0,0:0:0:0:
181,324,135259,1,0,0:0:0:0:
181,278,135343,1,0,0:0:0:0:
281,152,135509,2,4,B|281:247,2,90
385,81,136176,5,4,0:0:0:0:
445,231,136343,1,0,0:0:0:0:
445,186,136426,1,0,0:0:0:0:
293,243,136593,1,0,0:0:0:0:
293,287,136676,1,0,0:0:0:0:
164,187,136843,2,4,B|164:96,2,90
164,187,137509,5,4,0:0:0:0:
72,245,137676,1,0,0:0:0:0:
166,298,137843,1,0,0:0:0:0:
261,346,138009,1,0,0:0:0:0:
358,298,138176,2,0,B|447:298,2,90
348,197,138843,5,0,0:0:0:0:
440,139,139009,1,0,0:0:0:0:
346,86,139176,1,0,0:0:0:0:
251,38,139343,1,0,0:0:0:0:
154,86,139509,2,4,B|65:86,2,90,0|0|0,0:0|0:0|0:0,0:0:0:0:
154,193,140176,5,0,0:0:0:0:
103,328,140343,2,0,B|103:280,1,45
239,328,140593,2,0,B|239:277,1,45
376,328,140843,2,4,B|376:234,2,90,0|0|0,0:0|0:0|0:0,0:0:0:0:
443,153,141509,5,0,0:0:0:0:
307,104,141676,1,0,0:0:0:0:
263,241,141843,1,0,0:0:0:0:
394,297,142009,1,0,0:0:0:0:
307,181,142176,2,0,B|256:150|184:148|142:96,1,180,0|0,0:0|0:0,0:0:0:0:
242,50,142676,1,0,0:0:0:0:
231,254,142843,5,4,0:0:0:0:
164,338,143009,1,0,0:0:0:0:
297,338,143176,1,0,0:0:0:0:
366,254,143343,1,0,0:0:0:0:
473,248,143509,1,0,0:0:0:0:
473,139,143676,1,0,0:0:0:0:
473,30,143843,1,0,0:0:0:0:
39,354,144176,6,0,B|129:354,1,90,4|0,0:0|0:0,0:0:0:0:
291,273,144509,2,0,B|202:274,1,90
144,181,144843,1,0,0:0:0:0:
251,181,145009,1,0,0:0:0:0:
359,181,145176,1,0,0:0:0:0:
435,104,145509,5,4,0:0:0:0:
391,260,145676,1,0,0:0:0:0:
391,260,145759,1,0,0:0:0:0:
343,104,145926,1,0,0:0:0:0:
343,104,146009,1,0,0:0:0:0:
299,260,146176,2,4,B|299:350,2,90
77,280,146843,5,4,0:0:0:0:
121,124,147009,1,0,0:0:0:0:
121,124,147093,1,0,0:0:0:0:
169,280,147259,1,0,0:0:0:0:
169,280,147343,1,0,0:0:0:0:
213,124,147509,2,4,B|213:34,2,90,4|4|4,0:0|0:0|0:0,0:0:0:0:
