osu file format v5

[General]
AudioFilename: 03-crazy_loop_-_love_is_a_simple_thing.mp3
AudioLeadIn: 0
PreviewTime: 44601
Countdown: 1
SampleSet: Normal
StackLeniency: 0.7
Mode: 0
LetterboxInBreaks: 1

[Metadata]
Title:Love Is A Simple Thing
Artist:Crazy Loop
Creator:eee
Version:Love Is Not Simple
Source:
Tags:

[Difficulty]
HPDrainRate:6
CircleSize:5
OverallDifficulty:6
SliderMultiplier:1.6
SliderTickRate:2

[Events]
//Background and Video events
0,0,"crazy.jpg"
//Break Periods
2,115458,120919
2,138551,144801
//Storyboard Layer 0 (Background)
//Storyboard Layer 1 (Failing)
//Storyboard Layer 2 (Passing)
//Storyboard Layer 3 (Foreground)
//Storyboard Sound Samples
//Background Colour Transformations
3,100,255,255,255

[TimingPoints]
6491,394.736842105263,4,1,0,39,1
25376,-100,4,1,0,70,0
44654,394.736842105263,4,1,0,40,0
45634,394.736842105263,4,1,0,70,0
88695,394.736842105263,4,1,0,40,0
89978,394.736842105263,4,1,0,69,0
126392,394.736842105263,4,1,0,39,0
129353,394.736842105263,4,1,0,69,0

[Colours]
Combo1 : 209,224,250
Combo2 : 57,87,206
Combo3 : 192,192,192

[HitObjects]
72,80,6491,1,0
312,80,7083,1,0
232,80,7280,1,0
56,240,7872,1,0
120,272,8069,1,0
192,296,8267,1,8
264,256,8464,1,8
328,208,8662,1,8
448,104,9056,5,0
368,80,9254,1,0
288,72,9451,1,0
208,72,9648,2,0,B|24:72,3,160,0|8|0|8
48,152,11030,1,0
48,232,11227,1,0
88,296,11425,1,8
424,312,12609,5,0
424,232,12806,1,0
424,312,13004,1,8
424,232,13201,1,8
424,152,13398,2,0,B|232:152,1,160
48,32,14385,5,0
48,192,14780,1,0
48,112,14977,2,0,B|224:112,1,160
288,112,15569,1,0
368,112,15767,1,0
448,112,15964,2,0,B|448:216,1,80
448,272,16359,1,8
288,272,16754,1,0
368,272,16951,1,0
208,272,17346,1,4
40,56,18135,5,0
96,112,18333,1,0
152,56,18530,1,0
312,56,18925,2,0,B|312:232,1,160
312,296,19517,1,4
56,48,20701,6,0,B|56:160,3,80
56,288,21688,1,0
176,288,21984,1,0
216,176,22280,1,0
296,176,22477,1,0
432,312,23464,5,0
272,312,23859,1,0
352,312,24056,1,0
432,152,24451,2,0,B|432:320,2,160
432,72,25438,5,0
192,72,26030,1,0
272,72,26227,1,0
272,312,26819,1,0
272,232,27017,1,0
272,152,27214,1,0
352,152,27412,2,0,B|352:272,2,80,0|8|0
352,152,28004,5,0
432,152,28201,1,0
432,72,28398,1,0
352,72,28596,1,2
272,72,28793,1,8
192,72,28991,1,2
352,72,29385,1,2
272,72,29583,1,8
112,80,29977,2,0,B|112:248,1,160
144,312,30569,1,2
296,336,30964,1,2
424,248,31359,1,2
424,168,31556,5,0
344,176,31754,1,0
264,176,31951,2,0,B|208:232|112:160,2,160
192,96,33135,5,0
192,16,33333,1,0
272,16,33530,1,8
352,16,33727,1,8
352,96,33925,1,8
184,240,34517,5,0
184,320,34714,1,0
264,320,34912,1,0
344,320,35109,1,0
344,240,35306,1,0
336,80,35701,2,0,B|504:80,2,160
256,96,36688,1,0
184,128,36885,1,8
136,192,37083,1,8
120,272,37280,1,8
264,344,37675,5,0
328,296,37872,2,0,B|432:224|408:80,1,240
256,32,38859,1,0
200,96,39056,1,8
152,32,39254,1,8
72,168,39648,1,0
112,232,39846,1,0
176,280,40043,1,0
240,320,40240,2,0,B|480:376|496:96,1,400
344,64,41622,1,0
184,64,42017,1,8
88,176,42412,1,8
40,328,42806,5,0
120,328,43004,1,0
168,264,43201,1,0
208,328,43398,2,0,B|376:328,2,160
120,328,44385,1,4
32,64,44780,5,0
192,64,45175,1,0
272,64,45372,1,0
432,64,45767,2,0,B|432:232,1,160,0|2
368,272,46359,1,2
208,280,46754,1,2
40,264,47148,1,2
40,264,47247,1,8
40,264,47346,2,8,B|40:88,1,160,8|8
40,24,47938,5,0
120,24,48135,1,0
120,104,48333,1,0
200,104,48530,1,0
360,104,48925,1,0
280,104,49122,1,0
280,184,49319,1,0
360,184,49517,1,0
360,264,49714,2,0,B|272:264,1,80,0|8
272,344,50109,2,0,B|184:344,1,80,0|8
192,264,50504,2,8,B|192:96,1,160,0|8
240,40,51096,5,0
400,40,51490,1,0
480,40,51688,1,8
440,104,51885,1,8
440,184,52083,1,8
256,328,52477,5,0
448,192,52872,1,2
256,48,53267,1,0
64,192,53662,1,2
40,56,54254,5,0
168,128,54648,1,0
208,56,54846,1,0
232,128,55043,1,8
272,56,55240,1,8
408,56,55635,1,0
368,128,55833,1,0
344,56,56030,1,0
304,128,56227,2,0,B|304:240,3,80,0|8|0|8
232,208,57017,1,0
104,200,57412,5,0
104,40,57806,1,0
184,40,58004,1,0
264,40,58201,1,0
344,40,58398,2,0,B|344:216,1,160,0|2
288,256,58990,1,2
144,256,59385,1,8
288,256,59780,1,8
216,256,59977,2,0,B|216:88,1,160,0|2
216,16,60569,5,0
136,16,60767,1,0
136,96,60964,1,0
56,96,61162,1,0
56,256,61556,1,0
56,176,61754,1,0
136,176,61951,1,8
136,256,62148,1,8
136,336,62346,2,0,B|232:336,1,80,0|0
216,256,62740,2,8,B|312:256,1,80
376,256,63135,2,0,B|376:88,1,160,0|8
376,16,63727,5,0
216,16,64122,1,0
144,48,64319,1,8
216,80,64517,1,8
144,120,64714,1,8
304,200,65109,5,0
488,200,65504,1,0
304,200,65898,1,0
120,200,66293,1,0
40,56,66885,5,0
40,216,67280,1,0
88,272,67477,1,0
240,328,67872,1,0
408,160,68464,1,0
376,88,68662,2,2,B|368:16|232:40,1,160
48,320,69648,5,0
288,320,70240,1,0
368,320,70438,1,8
440,88,71030,1,8
360,88,71227,2,0,B|256:88,1,80
200,88,71622,1,8
120,88,71819,1,8
80,264,72214,5,0
152,264,72412,1,0
224,264,72609,1,0
296,264,72806,2,0,B|296:96,1,160
456,104,73596,1,0
456,264,73990,1,0
456,184,74188,2,0,B|360:184,1,80
296,184,74583,1,2
216,184,74780,1,2
80,96,75175,1,0
80,176,75372,1,8
80,256,75569,1,8
136,312,75767,5,0
208,336,75964,1,0
288,344,76162,2,0,B|464:272,1,160
464,112,76951,1,0
320,32,77346,1,0
320,112,77543,1,8
240,112,77740,1,8
240,32,77938,1,8
160,32,78135,1,8
32,192,78727,5,0
80,256,78925,1,0
128,192,79122,1,0
176,256,79319,1,0
336,248,79714,2,0,B|336:80,2,160
256,192,80701,12,0,81490
88,72,81885,5,0
168,72,82083,1,0
248,72,82280,1,8
328,72,82477,1,8
408,72,82675,1,12
368,224,83069,1,8
256,336,83464,1,8
128,288,83859,5,0
56,248,84056,1,0
128,208,84254,1,0
56,168,84451,2,0,B|56:64|56:64|200:64,1,240
200,144,85241,1,0
328,240,85635,1,8
328,240,85833,1,8
448,344,86227,1,8
328,240,86622,1,8
352,56,87017,5,0
312,112,87214,1,0
272,168,87412,1,0
232,224,87609,2,0,B|160:272|80:200,2,160,0|0|0
256,288,88596,1,4
384,344,88991,5,0
416,208,89385,1,0
344,208,89583,1,0
384,144,89780,1,0
384,72,89977,2,0,B|128:72,1,240
56,208,90964,1,0
56,272,91162,1,8
56,336,91359,1,8
128,336,91556,1,8
288,112,92148,5,2
360,112,92346,1,2
288,112,92543,1,8
360,112,92741,1,8
368,248,93135,1,0
296,248,93333,1,0
224,248,93530,2,8,B|128:248,1,80
64,248,93925,2,8,B|64:152,1,80
64,88,94319,1,0
144,88,94517,1,8
224,88,94714,1,10
424,48,95306,5,0
424,208,95701,1,8
360,256,95898,1,2
264,304,96293,5,0
56,192,96688,1,0
264,304,97083,1,0
264,64,97477,2,0,B|264:240,1,160
56,296,98464,5,0
56,136,98859,1,8
112,80,99056,2,8,B|200:40|272:48,1,160
384,136,99846,5,0
440,184,100043,1,0
384,224,100241,1,0
256,192,100438,12,0,101030
200,88,101622,5,0
336,88,102017,1,0
336,160,102214,2,8,B|336:248,1,80
320,320,102609,2,0,B|256:352|160:304,1,160
120,240,103201,1,8
104,112,103596,6,0,B|200:56|248:40,1,160
328,32,104188,1,0
392,80,104385,1,0
360,240,104780,1,0
296,288,104977,1,0
232,240,105175,1,0
168,288,105372,1,0
88,184,105767,5,0
152,152,105964,1,0
216,120,106162,1,0
280,96,106359,1,0
352,96,106556,2,0,B|424:112|480:192,2,160
312,152,107543,1,8
408,272,107938,5,0
256,320,108333,1,0
256,240,108530,1,8
184,280,108727,1,8
104,280,108925,2,0,B|104:88,2,160,0|8|0
264,280,110109,1,0
264,200,110306,1,0
184,200,110504,1,0
272,48,111096,5,0
432,48,111491,1,0
432,128,111688,1,0
352,128,111885,1,0
352,48,112083,1,0
112,56,112675,5,0
112,88,112773,1,0
112,120,112872,1,0
120,144,112971,1,0
128,168,113069,1,0
136,192,113168,1,0
152,216,113267,1,0
168,240,113366,1,0
192,256,113464,2,0,B|304:360|288:248,4,160,0|8|0|8|0
248,200,115241,5,0
56,64,121951,5,0
88,120,122148,1,0
144,160,122346,1,0
208,184,122543,1,0
272,200,122741,1,0
256,336,123135,5,0
456,64,123530,5,0
440,96,123629,1,0
424,120,123727,1,0
368,160,123925,1,0
304,184,124122,1,0
240,200,124319,1,0
48,64,124912,5,0
48,64,125109,1,0
48,64,125306,1,0
48,136,125504,5,0
48,208,125701,5,0
48,208,125898,1,0
48,208,126096,1,0
88,264,126293,5,0
128,320,126491,5,0
192,344,126688,1,0
264,336,126885,1,0
320,296,127083,1,0
360,240,127280,2,0,B|352:136,2,80
360,240,127872,5,0
312,192,128069,1,0
240,176,128267,1,0
168,184,128464,1,0
104,208,128662,1,0
64,264,128859,1,0
88,328,129056,2,0,B|184:328,2,80,0|0|4
64,64,130043,5,0
200,64,130438,1,0
336,64,130833,1,0
336,144,131030,2,0,B|104:192|520:224|224:336,1,320,0|2
160,344,132017,1,0
96,296,132214,1,8
64,224,132412,1,8
56,80,132806,5,0
128,80,133004,1,0
200,80,133201,1,0
272,80,133398,1,0
344,80,133596,2,0,B|432:80,1,80
432,160,133991,1,0
360,160,134188,1,0
288,160,134385,1,0
216,160,134583,1,0
136,160,134780,2,0,B|40:160,1,80
64,240,135175,1,0
136,240,135372,1,0
208,240,135569,1,0
280,240,135767,1,0
256,192,135964,12,0,138333
432,192,145833,5,0
200,136,146227,1,0
200,256,146425,1,0
256,192,146819,12,0,147806
120,88,148004,5,0
192,88,148201,1,0
264,88,148398,1,0
368,248,148991,5,0
368,320,149188,1,0
296,320,149385,1,0
296,248,149583,1,0
152,248,149977,1,8
224,248,150175,1,8
224,320,150372,1,2
152,320,150569,1,2
80,320,150767,2,8,B|80:224,1,80
80,168,151162,2,8,B|184:168,1,80,8|8
240,168,151556,2,0,B|408:168,1,160,8|0
328,112,152148,5,0
184,112,152543,1,0
256,112,152741,1,0
328,112,152938,1,0
400,112,153135,2,0,B|400:280,2,160,0|8|8
256,112,154319,1,0
112,112,154714,1,0
64,320,155306,5,0
208,320,155701,1,0
136,320,155898,1,0
208,320,156096,1,0
208,248,156293,1,0
352,248,156688,5,0
280,248,156885,1,0
280,176,157083,1,0
208,176,157280,1,0
136,176,157477,2,0,B|80:56|296:88,1,240
416,112,158464,5,0
416,256,158859,1,0
416,184,159056,1,0
296,96,159451,2,0,B|248:120|352:152|360:256|240:280,1,240
104,264,160438,1,0
104,120,160833,1,2
104,192,161030,1,2
336,88,161622,5,0
408,120,161819,1,0
336,152,162017,1,0
400,184,162214,1,0
272,120,162609,1,0
336,152,162806,1,0
400,184,163004,1,8
336,224,163201,1,8
272,184,163398,2,8,B|104:184,1,160
112,344,164188,1,4
368,312,164780,5,0
368,168,165175,1,0
328,104,165372,1,0
256,88,165569,1,0
176,104,165767,2,0,B|48:96|72:192,2,160
328,104,166951,2,0,B|392:112|288:192|416:208,1,160
456,136,167543,1,0
408,320,167938,5,0
296,232,168333,1,0
216,232,168530,2,0,B|112:232,1,80
64,232,168925,1,0
360,40,169517,5,0
280,40,169714,1,0
280,120,169912,1,0
344,168,170109,2,0,B|320:296|176:176,2,200
408,208,171293,5,0
408,288,171491,1,8
328,312,171688,1,8
248,296,171885,1,8
176,264,172083,1,4
40,64,172675,5,0
112,64,172872,1,0
112,136,173069,1,0
40,136,173267,1,0
40,208,173464,1,0
112,208,173662,2,0,B|224:208,3,80
264,208,174451,1,0
264,208,174648,1,0
264,208,174846,1,0
408,56,175241,5,0
88,56,175635,1,0
256,192,176030,12,4,176819
376,304,177412,5,0
376,224,177609,1,0
376,144,177806,1,0
376,64,178004,1,0
256,192,178398,5,4
64,304,178991,5,0
112,240,179188,1,0
176,192,179385,1,0
240,144,179583,1,0
256,192,179681,12,8,181754
206,195,181951,5,8
256,128,182148,1,8
304,192,182346,2,0,B|256:328|192:160,1,160,8|2
256,192,182938,12,0,184221
