osu file format v5

[General]
AudioFilename: 06-Crazy Loop - Famikon-LVD.mp3
AudioLeadIn: 0
PreviewTime: 13515
Countdown: 1
SampleSet: Normal
StackLeniency: 0.7
Mode: 0
LetterboxInBreaks: 1
EditorBookmarks: 13837,27551,41243,55279,68993,82439,96100,110243,123529

[Metadata]
Title:Famikon
Artist:Crazy Loop
Creator:mtmcl
Version:Gens
Source:
Tags:

[Difficulty]
HPDrainRate:5
CircleSize:5
OverallDifficulty:7
SliderMultiplier:1.6
SliderTickRate:2

[Events]
//Background and Video events
0,0,"CrazyLoopAviJPEG.JPG"
//Break Periods
2,55264,55879
2,58264,59307
2,61693,62736
2,65121,66164
2,68979,81593
2,110121,122736
//Storyboard Layer 0 (Background)
//Storyboard Layer 1 (Failing)
//Storyboard Layer 2 (Passing)
//Storyboard Layer 3 (Foreground)
//Storyboard Sound Samples
//Background Colour Transformations
3,100,163,162,255

[TimingPoints]
208,428.569999999998,4,1,0,40,1
15765,-100,4,2,0,60,0
17265,-100,4,1,0,40,0
18979,-100,4,2,0,60,0
20694,-100,4,1,0,40,0
22622,-100,4,2,0,60,0
24337,-100,4,1,0,40,0
25837,-100,4,2,0,60,0
27604,-100,4,1,0,40,0
29265,-100,4,2,0,60,0
30979,-100,4,1,0,40,0
32694,-100,4,2,0,60,0
34408,-100,4,1,0,40,0
36122,-100,4,2,0,60,0
38051,-100,4,1,0,40,0
39551,-100,4,2,0,60,0
41265,-100,4,1,0,40,0
56672,-100,4,2,0,60,0
82386,-100,4,1,0,40,0
84154,-100,4,2,0,60,0
85814,-100,4,1,0,40,0
87529,-100,4,2,0,60,0
92886,-100,4,1,0,40,0
96100,-100,4,2,0,60,0
97814,-100,4,1,0,40,0
99529,-100,4,2,0,60,0
101243,-100,4,1,0,40,0
102957,-100,4,2,0,60,0
104671,-100,4,1,0,40,0
105796,-100,4,2,0,60,0
106439,-100,4,1,0,40,0
106814,-100,4,2,0,60,0
107029,-100,4,1,0,40,0
107243,-100,4,2,0,60,0
107457,-100,4,1,0,40,0
123796,-100,4,2,0,60,0
124386,-100,4,1,0,40,0
125243,-100,4,2,0,60,0
126957,-100,4,1,0,40,0
127225,-100,4,2,0,60,0
127814,-100,4,1,0,40,0
128671,-100,4,2,0,60,0
130386,-100,4,1,0,40,0
130814,-100,4,2,0,60,0
131457,-100,4,1,0,40,0
132100,-100,4,2,0,60,0
134028,-100,4,1,0,40,0
134671,-100,4,2,0,60,0
136814,-100,4,1,0,40,0

[Colours]
Combo1 : 255,255,255
Combo2 : 215,0,215
Combo3 : 0,0,0

[HitObjects]
184,192,13922,5,0
328,192,14350,1,0
256,120,14779,1,2
256,192,14993,1,2
256,264,15207,1,4
256,56,15850,6,2,B|160:56|160:160,1,160
231,128,16493,2,6,B|333:129|333:33,1,160
256,192,17350,5,0
352,80,17779,1,2
208,80,18207,1,2
192,152,18422,1,0
256,192,18636,1,4
256,336,19065,6,2,B|328:264,1,80,2|6
312,136,19707,2,2,B|240:64,1,80,2|6
160,192,20350,1,4
16,120,20779,5,0
16,264,21207,1,0
88,192,21636,1,2
160,192,21850,1,0
232,192,22065,1,6
256,40,22707,6,2,B|200:96|200:96|304:136|304:136|216:224|264:344,1,400,2|6
328,192,24207,1,4
256,192,24422,6,2,B|256:88|136:88,1,160
144,160,25065,2,0,B|200:152|184:224,1,80,2|4
305,295,25922,5,2
305,295,26136,2,2,B|401:295|401:183,1,160,6|2
400,192,26779,2,0,B|401:87|289:87,2,160,6|6|2
256,192,28065,5,4
256,128,28279,1,0
207,87,28493,2,2,B|111:87|112:192,1,160,2|4
256,256,29350,6,2,B|256:312|312:312,1,80
256,256,29779,1,10
176,224,29993,2,0,B|120:224|120:160,1,80,0|2
176,224,30422,1,10
216,144,30636,1,4
112,192,31065,5,2
256,192,31493,1,4
256,128,31707,1,0
305,87,31922,2,2,B|401:87|400:192,1,160,2|4
256,256,32779,6,2,B|224:312|176:256,1,80
200,192,33207,1,10
144,120,33422,2,2,B|176:72|224:120,2,80,0|10|2
96,192,34065,1,6
256,336,34493,5,2
256,192,34922,1,4
192,192,35136,1,0
151,143,35350,2,2,B|151:47|256:48,1,160,2|4
320,192,36207,5,0
400,192,36422,1,2
400,112,36636,2,4,B|320:112|232:112,1,160,4|2
240,192,37279,1,8
240,280,37493,2,6,B|72:280,1,160
80,192,38136,5,2
120,112,38350,1,0
160,192,38565,1,0
200,112,38779,1,6
240,192,38993,1,0
256,192,39636,12,4,40922
256,192,41350,5,2
256,16,41993,1,0
256,16,42207,1,2
200,80,42422,1,0
312,96,42636,1,2
200,112,42850,1,0
256,160,43064,6,0,L|256:248,1,80,2|2
256,384,43707,2,0,L|256:296,1,80,2|2
400,192,44350,1,4
112,192,44779,1,4
256,88,45422,5,0
256,88,45636,1,2
256,192,45850,1,0
336,192,46064,1,2
176,192,46279,1,0
256,192,46493,1,2
256,296,46707,1,0
256,296,46922,1,2
256,192,47136,1,0
256,192,47350,1,6
384,56,47779,1,6
128,56,48207,1,6
328,304,48850,5,0
328,304,49064,1,2
328,224,49279,2,0,L|328:48,1,160
256,80,49922,2,0,L|256:176,1,80,2|2
256,304,50564,2,0,L|256:208,1,80,2|2
184,112,51207,2,0,L|184:280,1,160,4|4
256,192,52279,12,4,55064
416,40,56779,6,2,L|360:96|416:152|480:88,2,240,2|2|6
408,344,60207,6,2,L|344:280,2,80,2|2|2
472,344,60850,1,0
472,280,61064,1,4
472,104,61493,1,4
40,40,63636,5,2
104,40,63850,1,2
104,104,64064,1,2
40,104,64279,1,0
40,168,64493,2,2,L|120:168,2,80,2|2|2
256,192,67064,12,4,68350
40,344,68779,5,4
256,32,82493,6,0,C|232:64|264:96|248:152|272:168,2,160,0|0|2
336,32,83564,1,0
176,32,83779,1,4
480,192,84207,5,8
480,112,84422,2,0,B|456:64|400:88,2,80,0|2|0
480,192,85064,1,8
480,272,85279,2,0,B|456:320|400:296,1,80,0|4
256,232,85921,6,0,C|232:264|264:296|248:352|272:368,2,160,0|0|2
256,144,86992,1,0
256,232,87207,1,4
384,312,87636,5,0
384,224,87850,2,0,B|520:168|344:120,1,160,2|0
312,136,88493,1,8
312,224,88707,1,0
312,312,88921,1,6
256,192,89350,12,2,90636
256,144,91279,6,2,B|256:56,2,80,2|2|0
256,240,91921,2,2,B|256:336,2,80,6|0|2
256,64,92779,1,6
256,64,92993,6,2,L|264:72|248:144|264:232,1,160
261,217,93636,2,0,L|262:306,1,80,2|4
256,192,94493,12,6,95779
256,352,96207,6,2,L|256:168,1,160,6|2
256,192,96850,1,0
256,192,97064,2,2,L|256:32,1,160,6|0
416,192,97921,6,2,L|416:88,1,80
416,192,98350,2,0,L|352:256,1,80
416,192,98779,2,4,L|480:256,1,80,2|4
416,192,99207,1,6
190,161,99636,6,2,B|254:81|326:161,1,160,6|2
256,192,100279,1,0
322,223,100493,2,2,B|258:303|186:223,1,160,6|2
96,192,101350,6,2,B|152:192|152:272,1,80
96,192,101779,2,0,B|40:192|40:112,1,80
96,192,102207,2,0,B|40:192|40:272,1,80,2|4
149,142,102636,1,6
256,96,103064,6,2,B|360:96|360:216,1,160,6|2
256,192,103707,1,0
256,288,103921,2,2,B|152:288|152:168,1,160,6|2
352,336,104779,5,0
432,280,104993,1,0
472,192,105207,1,2
432,104,105421,1,0
352,48,105636,2,0,B|272:32|176:48,2,160,4|4|6
304,120,106707,5,0
208,152,106921,1,2
304,176,107136,1,0
208,208,107350,1,4
304,232,107564,1,4
256,320,108207,6,4,B|160:296|32:184|216:-16|440:48|488:264|312:312|232:232,1,640
440,128,123636,6,0,B|440:32|336:32,1,160,0|4
256,32,124279,1,2
175,31,124493,2,2,B|74:31|74:127,1,160,2|4
336,192,125350,6,2,B|168:192,3,160,2|2|2|6
72,256,127064,6,0,B|72:352|176:352,1,160,0|4
256,352,127707,1,2
337,353,127921,2,2,B|438:353|438:257,1,160,2|4
176,192,128778,6,2,B|344:192,3,160,2|2|6|6
480,112,130493,6,2,B|480:296,1,160,2|12
32,272,131350,2,2,B|32:88,1,160,10|4
336,192,132207,6,2,B|168:192,3,160,2|10|2|6
256,56,134136,5,2
200,120,134350,1,0
256,184,134564,1,8
312,120,134778,1,4
256,56,134993,1,0
256,192,135636,12,4,136921
256,192,137350,5,6
256,32,137993,1,0
256,32,138207,1,2
40,192,138850,1,0
40,192,139064,1,2
40,192,139278,1,0
256,352,139707,1,0
256,352,139921,2,0,B|256:168,2,160,2|0|4
496,192,141421,5,0
496,192,141636,2,2,B|320:192,1,160
336,192,142278,1,0
336,192,142493,2,2,B|152:192,1,160
176,192,143136,1,0
176,192,143350,2,0,B|8:192,2,160,2|4|2
384,80,145064,5,2
128,80,145921,1,2
128,304,146778,2,0,B|248:184,2,160,2|0|2
384,304,148493,1,2
256,192,149350,12,2,150636
