osu file format v14

[General]
AudioFilename: Crazy Hot.mp3
AudioLeadIn: 0
PreviewTime: 132869
Countdown: 1
SampleSet: Soft
StackLeniency: 0.7
Mode: 3
LetterboxInBreaks: 1
SpecialStyle: 1
WidescreenStoryboard: 0

[Editor]
Bookmarks: 97313,150647,162498,240832,314721
DistanceSpacing: 1.3
BeatDivisor: 4
GridSize: 8
TimelineZoom: 1

[Metadata]
Title:Crazy Hot
TitleUnicode:Crazy Hot
Artist:
ArtistUnicode:坂上なち
Creator:Randy_tnt
Version:Insane
Source:
Tags:
BeatmapID:878425
BeatmapSetID:403987

[Difficulty]
HPDrainRate:8
CircleSize:4
OverallDifficulty:8
ApproachRate:5
SliderMultiplier:1.4
SliderTickRate:1

[Events]
//Background and Video events
0,0,"maxresdefault.jpg",0,0
//Break Periods
//Storyboard Layer 0 (Background)
//Storyboard Layer 1 (Fail)
//Storyboard Layer 2 (Pass)
//Storyboard Layer 3 (Foreground)
//Storyboard Sound Samples

[TimingPoints]
1017,370.37037037037,4,2,0,100,1,0

[HitObjects]
448,192,1017,5,0,0:0:0:0:
320,192,1202,1,0,0:0:0:0:
192,192,1295,1,0,0:0:0:0:
64,192,1387,1,0,0:0:0:0:
192,192,1573,1,0,0:0:0:0:
320,192,1665,1,0,0:0:0:0:
448,192,1758,1,0,0:0:0:0:
320,192,1850,1,0,0:0:0:0:
192,192,1943,1,0,0:0:0:0:
320,192,2035,1,0,0:0:0:0:
448,192,2128,1,0,0:0:0:0:
320,192,2221,1,0,0:0:0:0:
192,192,2313,1,0,0:0:0:0:
64,192,2406,1,0,0:0:0:0:
448,192,2498,128,0,3239:0:0:0:0:
64,192,2869,1,0,0:0:0:0:
320,192,3054,1,0,0:0:0:0:
192,192,3239,128,0,3610:0:0:0:0:
448,192,3610,1,0,0:0:0:0:
64,192,3795,1,0,0:0:0:0:
320,192,3980,128,0,4721:0:0:0:0:
192,192,4165,1,0,0:0:0:0:
64,192,4258,1,0,0:0:0:0:
192,192,4350,1,0,0:0:0:0:
64,192,4443,1,0,0:0:0:0:
192,192,4535,1,0,0:0:0:0:
448,192,4721,128,0,5276:0:0:0:0:
320,192,5091,1,0,0:0:0:0:
192,192,5276,1,0,0:0:0:0:
64,192,5461,128,0,6017:0:0:0:0:
192,192,5647,1,0,0:0:0:0:
320,192,5832,128,0,6295:0:0:0:0:
448,192,6017,1,0,0:0:0:0:
192,192,6202,1,0,0:0:0:0:
64,192,6480,1,0,0:0:0:0:
320,192,6758,1,0,0:0:0:0:
448,192,6943,1,0,0:0:0:0:
320,192,7128,1,0,0:0:0:0:
192,192,7221,1,0,0:0:0:0:
64,192,7313,1,0,0:0:0:0:
192,192,7406,1,0,0:0:0:0:
320,192,7498,1,0,0:0:0:0:
448,192,7684,128,0,8239:0:0:0:0:
320,192,7869,1,0,0:0:0:0:
192,192,8054,1,0,0:0:0:0:
64,192,8239,1,0,0:0:0:0:
320,192,8424,128,0,8980:0:0:0:0:
64,192,8795,1,0,0:0:0:0:
192,192,8887,1,0,0:0:0:0:
64,192,8980,1,0,0:0:0:0:
192,192,9073,1,0,0:0:0:0:
448,192,9165,128,0,9721:0:0:0:0:
320,192,9165,1,0,0:0:0:0:
320,192,9535,1,0,0:0:0:0:
192,192,9628,1,0,0:0:0:0:
320,192,9721,1,0,0:0:0:0:
192,192,9813,1,0,0:0:0:0:
64,192,9906,1,0,0:0:0:0:
448,192,9906,128,0,10461:0:0:0:0:
192,192,10276,1,0,0:0:0:0:
320,192,10369,1,0,0:0:0:0:
192,192,10461,1,0,0:0:0:0:
64,192,10554,1,0,0:0:0:0:
192,192,10647,1,0,0:0:0:0:
448,192,10647,128,0,11017:0:0:0:0:
192,192,11017,1,0,0:0:0:0:
320,192,11110,1,0,0:0:0:0:
192,192,11202,1,0,0:0:0:0:
64,192,11295,1,0,0:0:0:0:
192,192,11387,1,0,0:0:0:0:
320,192,11387,128,0,11573:0:0:0:0:
448,192,11573,128,0,11758:0:0:0:0:
64,192,11758,128,0,11943:0:0:0:0:
448,192,11943,128,0,12128:0:0:0:0:
192,192,12128,128,0,12313:0:0:0:0:
320,192,12406,1,0,0:0:0:0:
192,192,12684,1,0,0:0:0:0:
320,192,12776,1,0,0:0:0:0:
448,192,12869,1,0,0:0:0:0:
192,192,12869,1,0,0:0:0:0:
320,192,12961,1,0,0:0:0:0:
448,192,13054,1,0,0:0:0:0:
320,192,13147,1,0,0:0:0:0:
448,192,13239,1,0,0:0:0:0:
64,192,13332,1,0,0:0:0:0:
192,192,13424,1,0,0:0:0:0:
448,192,13424,128,0,13610:0:0:0:0:
64,192,13610,1,0,0:0:0:0:
192,192,13980,1,0,0:0:0:0:
320,192,14073,1,0,0:0:0:0:
448,192,14165,1,0,0:0:0:0:
320,192,14258,1,0,0:0:0:0:
192,192,14350,1,0,0:0:0:0:
64,192,14443,1,0,0:0:0:0:
192,192,14535,1,0,0:0:0:0:
448,192,14721,1,0,0:0:0:0:
320,192,14813,1,0,0:0:0:0:
192,192,14998,1,0,0:0:0:0:
64,192,15184,1,0,0:0:0:0:
192,192,15369,1,0,0:0:0:0:
448,192,15461,1,0,0:0:0:0:
64,192,15647,1,0,0:0:0:0:
320,192,15647,128,0,15832:0:0:0:0:
192,192,15832,1,0,0:0:0:0:
64,192,15924,1,0,0:0:0:0:
192,192,16017,1,0,0:0:0:0:
320,192,16110,1,0,0:0:0:0:
448,192,16202,1,0,0:0:0:0:
320,192,16295,1,0,0:0:0:0:
192,192,16387,1,0,0:0:0:0:
64,192,16480,1,0,0:0:0:0:
192,192,16573,1,0,0:0:0:0:
448,192,16573,128,0,16758:0:0:0:0:
320,192,16758,1,0,0:0:0:0:
64,192,16943,1,0,0:0:0:0:
320,192,17128,1,0,0:0:0:0:
448,192,17313,1,0,0:0:0:0:
192,192,17498,1,0,0:0:0:0:
320,192,17684,1,0,0:0:0:0:
192,192,17776,1,0,0:0:0:0:
64,192,17869,1,0,0:0:0:0:
192,192,17961,1,0,0:0:0:0:
320,192,18054,1,0,0:0:0:0:
448,192,18239,1,0,0:0:0:0:
192,192,18332,1,0,0:0:0:0:
64,192,18424,1,0,0:0:0:0:
320,192,18610,1,0,0:0:0:0:
192,192,18795,1,0,0:0:0:0:
64,192,18887,1,0,0:0:0:0:
320,192,19073,1,0,0:0:0:0:
448,192,19350,1,0,0:0:0:0:
320,192,19535,1,0,0:0:0:0:
192,192,19628,1,0,0:0:0:0:
64,192,19721,1,0,0:0:0:0:
192,192,19813,1,0,0:0:0:0:
320,192,19906,1,0,0:0:0:0:
192,192,19998,1,0,0:0:0:0:
320,192,20091,1,0,0:0:0:0:
448,192,20184,1,0,0:0:0:0:
320,192,20276,1,0,0:0:0:0:
192,192,20461,1,0,0:0:0:0:
64,192,20647,1,0,0:0:0:0:
192,192,20739,1,0,0:0:0:0:
320,192,20832,1,0,0:0:0:0:
448,192,20924,1,0,0:0:0:0:
320,192,21017,1,0,0:0:0:0:
192,192,21110,1,0,0:0:0:0:
320,192,21202,1,0,0:0:0:0:
192,192,21295,1,0,0:0:0:0:
64,192,21387,1,0,0:0:0:0:
192,192,21573,1,0,0:0:0:0:
320,192,21758,1,0,0:0:0:0:
320,192,21943,1,0,0:0:0:0:
192,192,22035,1,0,0:0:0:0:
64,192,22128,1,0,0:0:0:0:
192,192,22221,1,0,0:0:0:0:
320,192,22313,1,0,0:0:0:0:
448,192,22498,1,0,0:0:0:0:
320,192,22591,1,0,0:0:0:0:
192,192,22684,1,0,0:0:0:0:
64,192,22776,1,0,0:0:0:0:
192,192,22869,1,0,0:0:0:0:
320,192,22961,1,0,0:0:0:0:
448,192,23054,1,0,0:0:0:0:
320,192,23239,1,0,0:0:0:0:
64,192,23424,1,0,0:0:0:0:
192,192,23610,1,0,0:0:0:0:
320,192,23702,1,0,0:0:0:0:
448,192,23795,1,0,0:0:0:0:
320,192,23980,1,0,0:0:0:0:
192,192,24073,1,0,0:0:0:0:
64,192,24165,1,0,0:0:0:0:
192,192,24258,1,0,0:0:0:0:
320,192,24350,1,0,0:0:0:0:
448,192,24443,1,0,0:0:0:0:
320,192,24535,1,0,0:0:0:0:
64,192,24721,128,0,24906:0:0:0:0:
192,192,24998,128,0,25276:0:0:0:0:
448,192,25276,128,0,25461:0:0:0:0:
64,192,25461,128,0,25739:0:0:0:0:
192,192,25554,1,0,0:0:0:0:
320,192,25647,1,0,0:0:0:0:
448,192,25739,1,0,0:0:0:0:
320,192,25832,1,0,0:0:0:0:
192,192,25924,1,0,0:0:0:0:
320,192,26017,1,0,0:0:0:0:
64,192,26202,1,0,0:0:0:0:
320,192,26573,1,0,0:0:0:0:
192,192,26943,1,0,0:0:0:0:
64,192,27313,1,0,0:0:0:0:
448,192,27684,1,0,0:0:0:0:
64,192,28054,1,0,0:0:0:0:
192,192,28424,1,0,0:0:0:0:
448,192,28795,1,0,0:0:0:0:
192,192,29165,1,0,0:0:0:0:
320,192,29535,1,0,0:0:0:0:
64,192,29906,1,0,0:0:0:0:
448,192,30276,1,0,0:0:0:0:
192,192,30647,1,0,0:0:0:0:
64,192,31017,1,0,0:0:0:0:
320,192,31387,1,0,0:0:0:0:
192,192,31758,1,0,0:0:0:0:
448,192,32128,1,0,0:0:0:0:
192,192,32498,1,0,0:0:0:0:
64,192,32869,1,0,0:0:0:0:
320,192,33239,1,0,0:0:0:0:
192,192,33610,1,0,0:0:0:0:
448,192,33980,1,0,0:0:0:0:
192,192,34350,1,0,0:0:0:0:
64,192,34721,1,0,0:0:0:0:
320,192,35091,1,0,0:0:0:0:
448,192,35461,1,0,0:0:0:0:
192,192,35832,1,0,0:0:0:0:
320,192,36202,1,0,0:0:0:0:
64,192,36573,1,0,0:0:0:0:
320,192,36943,1,0,0:0:0:0:
64,192,37313,1,0,0:0:0:0:
192,192,37406,1,0,0:0:0:0:
320,192,37498,1,0,0:0:0:0:
448,192,37591,1,0,0:0:0:0:
320,192,37684,1,0,0:0:0:0:
192,192,37776,1,0,0:0:0:0:
64,192,37869,1,0,0:0:0:0:
192,192,37961,1,0,0:0:0:0:
320,192,38054,1,0,0:0:0:0:
64,192,38054,128,0,38239:0:0:0:0:
448,192,38239,1,0,0:0:0:0:
192,192,38239,128,0,38424:0:0:0:0:
448,192,38424,1,0,0:0:0:0:
320,192,38424,128,0,38610:0:0:0:0:
64,192,38610,1,0,0:0:0:0:
192,192,38610,128,0,38795:0:0:0:0:
448,192,38795,1,0,0:0:0:0:
320,192,38795,128,0,38980:0:0:0:0:
64,192,38980,1,0,0:0:0:0:
192,192,38980,128,0,39165:0:0:0:0:
448,192,39165,1,0,0:0:0:0:
64,192,39165,128,0,39350:0:0:0:0:
320,192,39350,1,0,0:0:0:0:
448,192,39350,128,0,39535:0:0:0:0:
192,192,39535,1,0,0:0:0:0:
64,192,39535,128,0,39721:0:0:0:0:
192,192,39906,1,0,0:0:0:0:
320,192,40091,1,0,0:0:0:0:
448,192,40276,1,0,0:0:0:0:
320,192,40461,1,0,0:0:0:0:
192,192,40647,1,0,0:0:0:0:
64,192,40832,1,0,0:0:0:0:
192,192,41017,1,0,0:0:0:0:
320,192,41017,128,0,41758:0:0:0:0:
64,192,41202,1,0,0:0:0:0:
192,192,41387,1,0,0:0:0:0:
64,192,41573,1,0,0:0:0:0:
448,192,41758,1,0,0:0:0:0:
448,192,41943,1,0,0:0:0:0:
192,192,41943,128,0,42869:0:0:0:0:
64,192,42128,1,0,0:0:0:0:
448,192,42313,1,0,0:0:0:0:
320,192,42498,1,0,0:0:0:0:
64,192,42684,1,0,0:0:0:0:
448,192,42869,128,0,43424:0:0:0:0:
64,192,42869,1,0,0:0:0:0:
320,192,43054,1,0,0:0:0:0:
64,192,43239,1,0,0:0:0:0:
192,192,43424,1,0,0:0:0:0:
320,192,43610,1,0,0:0:0:0:
192,192,43702,1,0,0:0:0:0:
64,192,43795,1,0,0:0:0:0:
192,192,43887,1,0,0:0:0:0:
320,192,43980,1,0,0:0:0:0:
448,192,43980,128,0,44350:0:0:0:0:
192,192,44350,1,0,0:0:0:0:
64,192,44535,1,0,0:0:0:0:
320,192,44721,1,0,0:0:0:0:
192,192,44721,128,0,45091:0:0:0:0:
64,192,45091,1,0,0:0:0:0:
448,192,45276,1,0,0:0:0:0:
192,192,45461,1,0,0:0:0:0:
448,192,45461,128,0,45647:0:0:0:0:
64,192,45647,1,0,0:0:0:0:
192,192,45647,128,0,45832:0:0:0:0:
320,192,45832,1,0,0:0:0:0:
448,192,45832,128,0,46017:0:0:0:0:
64,192,46017,1,0,0:0:0:0:
320,192,46017,128,0,46202:0:0:0:0:
192,192,46202,1,0,0:0:0:0:
64,192,46295,1,0,0:0:0:0:
192,192,46387,1,0,0:0:0:0:
320,192,46480,1,0,0:0:0:0:
448,192,46573,1,0,0:0:0:0:
320,192,46665,1,0,0:0:0:0:
64,192,46758,1,0,0:0:0:0:
192,192,46943,128,0,47313:0:0:0:0:
448,192,46943,1,0,0:0:0:0:
320,192,47128,1,0,0:0:0:0:
64,192,47313,1,0,0:0:0:0:
320,192,47498,1,0,0:0:0:0:
448,192,47684,1,0,0:0:0:0:
64,192,47684,1,0,0:0:0:0:
192,192,47869,1,0,0:0:0:0:
320,192,48054,1,0,0:0:0:0:
448,192,48239,1,0,0:0:0:0:
320,192,48424,1,0,0:0:0:0:
192,192,48610,1,0,0:0:0:0:
64,192,48795,1,0,0:0:0:0:
320,192,48980,1,0,0:0:0:0:
448,192,49165,1,0,0:0:0:0:
320,192,49258,1,0,0:0:0:0:
192,192,49350,1,0,0:0:0:0:
64,192,49443,1,0,0:0:0:0:
448,192,49443,128,0,49535:0:0:0:0:
192,192,49535,1,0,0:0:0:0:
64,192,49535,128,0,49628:0:0:0:0:
320,192,49628,1,0,0:0:0:0:
192,192,49628,128,0,49721:0:0:0:0:
448,192,49721,1,0,0:0:0:0:
320,192,49813,1,0,0:0:0:0:
192,192,49906,1,0,0:0:0:0:
64,192,49998,1,0,0:0:0:0:
192,192,50091,1,0,0:0:0:0:
320,192,50184,1,0,0:0:0:0:
448,192,50276,1,0,0:0:0:0:
320,192,50369,1,0,0:0:0:0:
192,192,50461,1,0,0:0:0:0:
64,192,50554,1,0,0:0:0:0:
192,192,50647,1,0,0:0:0:0:
448,192,50647,128,0,50832:0:0:0:0:
320,192,50832,1,0,0:0:0:0:
64,192,50832,128,0,51017:0:0:0:0:
192,192,51017,1,0,0:0:0:0:
320,192,51017,128,0,51387:0:0:0:0:
192,192,51387,128,0,52128:0:0:0:0:
64,192,51573,1,0,0:0:0:0:
448,192,51758,1,0,0:0:0:0:
64,192,51943,1,0,0:0:0:0:
320,192,52128,128,0,52869:0:0:0:0:
192,192,52313,1,0,0:0:0:0:
448,192,52498,1,0,0:0:0:0:
192,192,52684,1,0,0:0:0:0:
64,192,52869,1,0,0:0:0:0:
192,192,53054,1,0,0:0:0:0:
320,192,53239,1,0,0:0:0:0:
448,192,53424,1,0,0:0:0:0:
320,192,53610,1,0,0:0:0:0:
64,192,53610,128,0,53980:0:0:0:0:
192,192,53795,1,0,0:0:0:0:
448,192,53980,1,0,0:0:0:0:
320,192,53980,128,0,54350:0:0:0:0:
192,192,54165,1,0,0:0:0:0:
64,192,54350,128,0,54535:0:0:0:0:
192,192,54535,1,0,0:0:0:0:
448,192,54535,128,0,54906:0:0:0:0:
64,192,54721,1,0,0:0:0:0:
192,192,54906,1,0,0:0:0:0:
320,192,55091,1,0,0:0:0:0:
448,192,55276,1,0,0:0:0:0:
320,192,55461,1,0,0:0:0:0:
192,192,55554,1,0,0:0:0:0:
64,192,55647,1,0,0:0:0:0:
192,192,55739,1,0,0:0:0:0:
320,192,55832,1,0,0:0:0:0:
448,192,55832,128,0,56017:0:0:0:0:
192,192,56017,1,0,0:0:0:0:
64,192,56017,128,0,56202:0:0:0:0:
320,192,56202,1,0,0:0:0:0:
448,192,56202,128,0,56387:0:0:0:0:
192,192,56387,1,0,0:0:0:0:
320,192,56387,128,0,56573:0:0:0:0:
64,192,56573,1,0,0:0:0:0:
192,192,56758,1,0,0:0:0:0:
320,192,56943,1,0,0:0:0:0:
448,192,57128,1,0,0:0:0:0:
64,192,57498,1,0,0:0:0:0:
192,192,57591,1,0,0:0:0:0:
320,192,57684,1,0,0:0:0:0:
448,192,57776,1,0,0:0:0:0:
320,192,57869,1,0,0:0:0:0:
192,192,57961,1,0,0:0:0:0:
64,192,58054,1,0,0:0:0:0:
192,192,58147,1,0,0:0:0:0:
320,192,58239,1,0,0:0:0:0:
192,192,58332,1,0,0:0:0:0:
320,192,58424,1,0,0:0:0:0:
192,192,58517,1,0,0:0:0:0:
320,192,58610,128,0,58795:0:0:0:0:
64,192,58795,1,0,0:0:0:0:
448,192,58795,128,0,59165:0:0:0:0:
192,192,58980,1,0,0:0:0:0:
64,192,59350,128,0,59721:0:0:0:0:
320,192,59906,128,0,60276:0:0:0:0:
64,192,60276,128,0,60832:0:0:0:0:
320,192,60832,128,0,61202:0:0:0:0:
192,192,61387,1,0,0:0:0:0:
320,192,61480,1,0,0:0:0:0:
448,192,61573,1,0,0:0:0:0:
320,192,61665,1,0,0:0:0:0:
192,192,61758,1,0,0:0:0:0:
320,192,61850,1,0,0:0:0:0:
192,192,61943,1,0,0:0:0:0:
64,192,62128,1,0,0:0:0:0:
320,192,62313,1,0,0:0:0:0:
448,192,62498,1,0,0:0:0:0:
192,192,62684,1,0,0:0:0:0:
320,192,62776,1,0,0:0:0:0:
448,192,62869,1,0,0:0:0:0:
320,192,62961,1,0,0:0:0:0:
192,192,63054,1,0,0:0:0:0:
192,192,63239,1,0,0:0:0:0:
320,192,63332,1,0,0:0:0:0:
448,192,63424,1,0,0:0:0:0:
64,192,63610,1,0,0:0:0:0:
448,192,63795,1,0,0:0:0:0:
320,192,63887,1,0,0:0:0:0:
192,192,63980,1,0,0:0:0:0:
192,192,64165,1,0,0:0:0:0:
64,192,64350,1,0,0:0:0:0:
192,192,64443,1,0,0:0:0:0:
320,192,64535,1,0,0:0:0:0:
448,192,64535,1,0,0:0:0:0:
192,192,64721,1,0,0:0:0:0:
64,192,64721,1,0,0:0:0:0:
448,192,64906,1,0,0:0:0:0:
192,192,65091,1,0,0:0:0:0:
64,192,65091,1,0,0:0:0:0:
320,192,65276,1,0,0:0:0:0:
448,192,65461,1,0,0:0:0:0:
64,192,65461,1,0,0:0:0:0:
192,192,65647,1,0,0:0:0:0:
320,192,65832,1,0,0:0:0:0:
64,192,66017,1,0,0:0:0:0:
192,192,66017,1,0,0:0:0:0:
320,192,66202,1,0,0:0:0:0:
448,192,66202,1,0,0:0:0:0:
192,192,66295,1,0,0:0:0:0:
64,192,66387,1,0,0:0:0:0:
192,192,66480,1,0,0:0:0:0:
320,192,66573,1,0,0:0:0:0:
448,192,66665,1,0,0:0:0:0:
320,192,66758,1,0,0:0:0:0:
192,192,66850,1,0,0:0:0:0:
64,192,66943,1,0,0:0:0:0:
192,192,67035,1,0,0:0:0:0:
64,192,67128,1,0,0:0:0:0:
192,192,67221,1,0,0:0:0:0:
320,192,67313,1,0,0:0:0:0:
448,192,67406,1,0,0:0:0:0:
320,192,67498,1,0,0:0:0:0:
192,192,67591,1,0,0:0:0:0:
64,192,67684,1,0,0:0:0:0:
448,192,67684,128,0,68239:0:0:0:0:
192,192,67869,1,0,0:0:0:0:
320,192,68054,1,0,0:0:0:0:
64,192,68239,1,0,0:0:0:0:
320,192,68239,128,0,68795:0:0:0:0:
192,192,68424,1,0,0:0:0:0:
64,192,68610,1,0,0:0:0:0:
448,192,68610,1,0,0:0:0:0:
192,192,68795,1,0,0:0:0:0:
64,192,68795,128,0,69350:0:0:0:0:
320,192,68980,1,0,0:0:0:0:
448,192,69165,1,0,0:0:0:0:
320,192,69258,1,0,0:0:0:0:
192,192,69350,1,0,0:0:0:0:
320,192,69443,1,0,0:0:0:0:
448,192,69535,1,0,0:0:0:0:
320,192,69628,1,0,0:0:0:0:
192,192,69721,1,0,0:0:0:0:
320,192,69813,1,0,0:0:0:0:
448,192,69906,1,0,0:0:0:0:
320,192,69998,1,0,0:0:0:0:
192,192,70091,1,0,0:0:0:0:
64,192,70184,1,0,0:0:0:0:
192,192,70276,1,0,0:0:0:0:
320,192,70461,1,0,0:0:0:0:
448,192,70647,1,0,0:0:0:0:
320,192,70739,1,0,0:0:0:0:
192,192,70832,1,0,0:0:0:0:
64,192,70924,1,0,0:0:0:0:
192,192,71017,1,0,0:0:0:0:
320,192,71110,1,0,0:0:0:0:
448,192,71202,1,0,0:0:0:0:
320,192,71295,1,0,0:0:0:0:
192,192,71387,1,0,0:0:0:0:
320,192,71480,1,0,0:0:0:0:
192,192,71573,1,0,0:0:0:0:
64,192,71665,1,0,0:0:0:0:
192,192,71758,1,0,0:0:0:0:
320,192,71850,1,0,0:0:0:0:
448,192,71943,1,0,0:0:0:0:
320,192,72035,1,0,0:0:0:0:
192,192,72128,1,0,0:0:0:0:
64,192,72128,128,0,72684:0:0:0:0:
448,192,72684,1,0,0:0:0:0:
192,192,72776,1,0,0:0:0:0:
320,192,72869,128,0,73610:0:0:0:0:
64,192,72869,1,0,0:0:0:0:
192,192,73054,1,0,0:0:0:0:
448,192,73147,1,0,0:0:0:0:
64,192,73239,1,0,0:0:0:0:
448,192,73332,1,0,0:0:0:0:
192,192,73424,1,0,0:0:0:0:
448,192,73517,1,0,0:0:0:0:
64,192,73610,1,0,0:0:0:0:
192,192,73610,128,0,73980:0:0:0:0:
448,192,73795,1,0,0:0:0:0:
320,192,73980,1,0,0:0:0:0:
64,192,74073,1,0,0:0:0:0:
192,192,74165,1,0,0:0:0:0:
448,192,74350,1,0,0:0:0:0:
320,192,74443,1,0,0:0:0:0:
192,192,74535,1,0,0:0:0:0:
64,192,74628,1,0,0:0:0:0:
192,192,74721,1,0,0:0:0:0:
448,192,74721,1,0,0:0:0:0:
448,192,74906,1,0,0:0:0:0:
320,192,75091,128,0,75461:0:0:0:0:
192,192,75276,1,0,0:0:0:0:
64,192,75369,1,0,0:0:0:0:
192,192,75461,1,0,0:0:0:0:
64,192,75554,1,0,0:0:0:0:
192,192,75647,1,0,0:0:0:0:
320,192,75739,1,0,0:0:0:0:
448,192,75832,1,0,0:0:0:0:
320,192,75924,1,0,0:0:0:0:
192,192,76017,1,0,0:0:0:0:
64,192,76202,1,0,0:0:0:0:
320,192,76387,1,0,0:0:0:0:
64,192,76573,1,0,0:0:0:0:
448,192,76573,1,0,0:0:0:0:
448,192,76758,1,0,0:0:0:0:
192,192,76943,1,0,0:0:0:0:
320,192,76943,1,0,0:0:0:0:
64,192,77128,1,0,0:0:0:0:
192,192,77313,1,0,0:0:0:0:
320,192,77498,1,0,0:0:0:0:
192,192,77684,1,0,0:0:0:0:
64,192,77684,1,0,0:0:0:0:
320,192,77869,1,0,0:0:0:0:
448,192,77869,1,0,0:0:0:0:
192,192,78054,1,0,0:0:0:0:
64,192,78054,1,0,0:0:0:0:
320,192,78147,1,0,0:0:0:0:
448,192,78239,1,0,0:0:0:0:
320,192,78332,1,0,0:0:0:0:
192,192,78424,1,0,0:0:0:0:
64,192,78517,1,0,0:0:0:0:
192,192,78610,1,0,0:0:0:0:
320,192,78702,1,0,0:0:0:0:
192,192,78795,1,0,0:0:0:0:
320,192,78887,1,0,0:0:0:0:
192,192,78980,1,0,0:0:0:0:
320,192,79073,1,0,0:0:0:0:
448,192,79165,1,0,0:0:0:0:
320,192,79258,1,0,0:0:0:0:
192,192,79350,1,0,0:0:0:0:
64,192,79443,1,0,0:0:0:0:
192,192,79535,1,0,0:0:0:0:
448,192,79535,128,0,80276:0:0:0:0:
320,192,79628,1,0,0:0:0:0:
192,192,79721,1,0,0:0:0:0:
320,192,79906,1,0,0:0:0:0:
192,192,80091,1,0,0:0:0:0:
192,192,80276,128,0,80647:0:0:0:0:
64,192,80276,1,0,0:0:0:0:
320,192,80461,1,0,0:0:0:0:
448,192,80647,1,0,0:0:0:0:
64,192,80647,128,0,81017:0:0:0:0:
320,192,80832,1,0,0:0:0:0:
192,192,81017,1,0,0:0:0:0:
448,192,81017,128,0,81573:0:0:0:0:
320,192,81202,128,0,81387:0:0:0:0:
192,192,81387,1,0,0:0:0:0:
64,192,81480,1,0,0:0:0:0:
192,192,81573,1,0,0:0:0:0:
320,192,81665,1,0,0:0:0:0:
448,192,81758,1,0,0:0:0:0:
320,192,81850,1,0,0:0:0:0:
192,192,81943,1,0,0:0:0:0:
64,192,82035,1,0,0:0:0:0:
192,192,82128,1,0,0:0:0:0:
448,192,82128,1,0,0:0:0:0:
320,192,82313,1,0,0:0:0:0:
64,192,82498,1,0,0:0:0:0:
320,192,82498,1,0,0:0:0:0:
192,192,82591,1,0,0:0:0:0:
320,192,82684,1,0,0:0:0:0:
448,192,82776,1,0,0:0:0:0:
320,192,82869,1,0,0:0:0:0:
192,192,82961,1,0,0:0:0:0:
64,192,83054,1,0,0:0:0:0:
192,192,83147,1,0,0:0:0:0:
320,192,83239,1,0,0:0:0:0:
448,192,83332,1,0,0:0:0:0:
320,192,83424,1,0,0:0:0:0:
192,192,83517,1,0,0:0:0:0:
64,192,83610,1,0,0:0:0:0:
192,192,83702,1,0,0:0:0:0:
320,192,83795,1,0,0:0:0:0:
448,192,83887,1,0,0:0:0:0:
320,192,83980,1,0,0:0:0:0:
192,192,84073,1,0,0:0:0:0:
64,192,84165,1,0,0:0:0:0:
192,192,84258,1,0,0:0:0:0:
320,192,84350,1,0,0:0:0:0:
448,192,84443,1,0,0:0:0:0:
320,192,84535,1,0,0:0:0:0:
64,192,84535,1,0,0:0:0:0:
192,192,84721,1,0,0:0:0:0:
64,192,84906,1,0,0:0:0:0:
320,192,84906,1,0,0:0:0:0:
448,192,84998,1,0,0:0:0:0:
320,192,85091,1,0,0:0:0:0:
192,192,85184,1,0,0:0:0:0:
64,192,85276,1,0,0:0:0:0:
192,192,85369,1,0,0:0:0:0:
320,192,85461,1,0,0:0:0:0:
448,192,85461,128,0,85647:0:0:0:0:
192,192,85647,1,0,0:0:0:0:
320,192,85832,1,0,0:0:0:0:
192,192,85924,1,0,0:0:0:0:
64,192,86017,1,0,0:0:0:0:
192,192,86202,1,0,0:0:0:0:
320,192,86387,1,0,0:0:0:0:
64,192,86573,1,0,0:0:0:0:
192,192,86665,1,0,0:0:0:0:
320,192,86758,1,0,0:0:0:0:
448,192,86943,1,0,0:0:0:0:
320,192,87128,1,0,0:0:0:0:
192,192,87221,1,0,0:0:0:0:
64,192,87313,1,0,0:0:0:0:
192,192,87406,1,0,0:0:0:0:
320,192,87498,1,0,0:0:0:0:
448,192,87591,1,0,0:0:0:0:
320,192,87684,1,0,0:0:0:0:
192,192,87776,1,0,0:0:0:0:
64,192,87869,1,0,0:0:0:0:
192,192,87961,1,0,0:0:0:0:
320,192,88054,1,0,0:0:0:0:
448,192,88147,1,0,0:0:0:0:
320,192,88239,1,0,0:0:0:0:
192,192,88332,1,0,0:0:0:0:
64,192,88424,1,0,0:0:0:0:
448,192,88424,1,0,0:0:0:0:
320,192,88610,1,0,0:0:0:0:
64,192,88795,1,0,0:0:0:0:
192,192,88887,1,0,0:0:0:0:
320,192,88980,1,0,0:0:0:0:
448,192,89073,1,0,0:0:0:0:
320,192,89165,1,0,0:0:0:0:
64,192,89165,1,0,0:0:0:0:
192,192,89350,1,0,0:0:0:0:
320,192,89443,1,0,0:0:0:0:
448,192,89535,1,0,0:0:0:0:
320,192,89628,1,0,0:0:0:0:
192,192,89721,1,0,0:0:0:0:
448,192,89906,128,0,90091:0:0:0:0:
320,192,89998,1,0,0:0:0:0:
192,192,90091,128,0,90276:0:0:0:0:
64,192,90184,1,0,0:0:0:0:
320,192,90276,1,0,0:0:0:0:
448,192,90369,1,0,0:0:0:0:
320,192,90461,1,0,0:0:0:0:
64,192,90461,128,0,90832:0:0:0:0:
192,192,90647,1,0,0:0:0:0:
320,192,90739,1,0,0:0:0:0:
448,192,90832,1,0,0:0:0:0:
320,192,90924,1,0,0:0:0:0:
192,192,91017,1,0,0:0:0:0:
64,192,91110,1,0,0:0:0:0:
192,192,91202,1,0,0:0:0:0:
320,192,91295,1,0,0:0:0:0:
448,192,91387,1,0,0:0:0:0:
64,192,91387,1,0,0:0:0:0:
192,192,91573,1,0,0:0:0:0:
448,192,91758,1,0,0:0:0:0:
320,192,91850,1,0,0:0:0:0:
192,192,91943,1,0,0:0:0:0:
64,192,92128,1,0,0:0:0:0:
192,192,92221,1,0,0:0:0:0:
320,192,92313,1,0,0:0:0:0:
448,192,92406,1,0,0:0:0:0:
320,192,92498,1,0,0:0:0:0:
64,192,92498,1,0,0:0:0:0:
192,192,92684,1,0,0:0:0:0:
448,192,92869,1,0,0:0:0:0:
64,192,92869,1,0,0:0:0:0:
320,192,93054,1,0,0:0:0:0:
192,192,93147,1,0,0:0:0:0:
64,192,93239,1,0,0:0:0:0:
192,192,93332,1,0,0:0:0:0:
320,192,93424,1,0,0:0:0:0:
448,192,93517,1,0,0:0:0:0:
320,192,93610,1,0,0:0:0:0:
192,192,93702,1,0,0:0:0:0:
64,192,93795,1,0,0:0:0:0:
192,192,93887,1,0,0:0:0:0:
320,192,93980,1,0,0:0:0:0:
448,192,94073,1,0,0:0:0:0:
320,192,94165,1,0,0:0:0:0:
64,192,94165,1,0,0:0:0:0:
192,192,94350,1,0,0:0:0:0:
448,192,94535,1,0,0:0:0:0:
192,192,94721,1,0,0:0:0:0:
320,192,94813,1,0,0:0:0:0:
192,192,94906,1,0,0:0:0:0:
192,192,95091,1,0,0:0:0:0:
64,192,95184,1,0,0:0:0:0:
192,192,95276,1,0,0:0:0:0:
320,192,95369,1,0,0:0:0:0:
448,192,95461,1,0,0:0:0:0:
320,192,95554,1,0,0:0:0:0:
192,192,95647,1,0,0:0:0:0:
64,192,95647,128,0,96017:0:0:0:0:
320,192,95832,1,0,0:0:0:0:
448,192,96017,1,0,0:0:0:0:
192,192,96202,1,0,0:0:0:0:
320,192,96387,1,0,0:0:0:0:
448,192,96573,128,0,96758:0:0:0:0:
320,192,96665,1,0,0:0:0:0:
192,192,96758,1,0,0:0:0:0:
64,192,96850,1,0,0:0:0:0:
192,192,96943,1,0,0:0:0:0:
320,192,97035,1,0,0:0:0:0:
448,192,97128,1,0,0:0:0:0:
320,192,97221,1,0,0:0:0:0:
192,192,97313,1,0,0:0:0:0:
64,192,97313,1,0,0:0:0:0:
320,192,97498,1,0,0:0:0:0:
448,192,97684,1,0,0:0:0:0:
192,192,97869,1,0,0:0:0:0:
64,192,98054,1,0,0:0:0:0:
320,192,98239,1,0,0:0:0:0:
448,192,98424,1,0,0:0:0:0:
64,192,98610,1,0,0:0:0:0:
192,192,98795,1,0,0:0:0:0:
320,192,98887,1,0,0:0:0:0:
448,192,98980,1,0,0:0:0:0:
320,192,99073,1,0,0:0:0:0:
192,192,99165,1,0,0:0:0:0:
64,192,99258,1,0,0:0:0:0:
192,192,99350,1,0,0:0:0:0:
320,192,99443,1,0,0:0:0:0:
448,192,99535,1,0,0:0:0:0:
320,192,99721,1,0,0:0:0:0:
192,192,99906,1,0,0:0:0:0:
64,192,99906,1,0,0:0:0:0:
320,192,100091,1,0,0:0:0:0:
448,192,100276,128,0,100647:0:0:0:0:
192,192,100461,1,0,0:0:0:0:
64,192,100647,128,0,101017:0:0:0:0:
320,192,100832,1,0,0:0:0:0:
192,192,101017,1,0,0:0:0:0:
448,192,101017,128,0,101387:0:0:0:0:
320,192,101202,1,0,0:0:0:0:
192,192,101387,128,0,101758:0:0:0:0:
320,192,101573,1,0,0:0:0:0:
64,192,101758,128,0,102313:0:0:0:0:
320,192,101850,1,0,0:0:0:0:
448,192,101943,1,0,0:0:0:0:
320,192,102035,1,0,0:0:0:0:
192,192,102128,1,0,0:0:0:0:
320,192,102221,1,0,0:0:0:0:
448,192,102313,1,0,0:0:0:0:
192,192,102406,1,0,0:0:0:0:
320,192,102498,1,0,0:0:0:0:
448,192,102591,1,0,0:0:0:0:
320,192,102684,1,0,0:0:0:0:
192,192,102776,1,0,0:0:0:0:
64,192,102869,1,0,0:0:0:0:
192,192,102961,1,0,0:0:0:0:
448,192,103054,1,0,0:0:0:0:
320,192,103054,1,0,0:0:0:0:
192,192,103239,1,0,0:0:0:0:
320,192,103424,1,0,0:0:0:0:
64,192,103610,1,0,0:0:0:0:
320,192,103795,1,0,0:0:0:0:
64,192,103980,1,0,0:0:0:0:
448,192,104165,1,0,0:0:0:0:
320,192,104258,1,0,0:0:0:0:
192,192,104350,1,0,0:0:0:0:
64,192,104443,1,0,0:0:0:0:
192,192,104535,1,0,0:0:0:0:
320,192,104628,1,0,0:0:0:0:
448,192,104721,1,0,0:0:0:0:
320,192,104906,1,0,0:0:0:0:
192,192,104906,1,0,0:0:0:0:
64,192,105091,1,0,0:0:0:0:
320,192,105276,1,0,0:0:0:0:
448,192,105276,1,0,0:0:0:0:
192,192,105461,1,0,0:0:0:0:
448,192,105647,1,0,0:0:0:0:
320,192,105832,1,0,0:0:0:0:
192,192,106017,1,0,0:0:0:0:
448,192,106202,1,0,0:0:0:0:
64,192,106202,1,0,0:0:0:0:
192,192,106387,1,0,0:0:0:0:
448,192,106573,1,0,0:0:0:0:
64,192,106758,1,0,0:0:0:0:
320,192,106758,1,0,0:0:0:0:
192,192,106943,1,0,0:0:0:0:
448,192,107128,1,0,0:0:0:0:
192,192,107313,1,0,0:0:0:0:
320,192,107498,1,0,0:0:0:0:
448,192,107498,1,0,0:0:0:0:
192,192,107684,1,0,0:0:0:0:
64,192,107869,1,0,0:0:0:0:
192,192,108054,1,0,0:0:0:0:
320,192,108239,1,0,0:0:0:0:
448,192,108424,1,0,0:0:0:0:
320,192,108517,1,0,0:0:0:0:
192,192,108610,1,0,0:0:0:0:
64,192,108702,1,0,0:0:0:0:
192,192,108795,1,0,0:0:0:0:
320,192,108887,1,0,0:0:0:0:
448,192,108980,1,0,0:0:0:0:
320,192,109073,1,0,0:0:0:0:
192,192,109165,1,0,0:0:0:0:
64,192,109165,128,0,109350:0:0:0:0:
320,192,109350,1,0,0:0:0:0:
192,192,109350,128,0,109535:0:0:0:0:
64,192,109535,1,0,0:0:0:0:
320,192,109535,128,0,109721:0:0:0:0:
192,192,109721,1,0,0:0:0:0:
448,192,109721,128,0,109906:0:0:0:0:
64,192,109906,1,0,0:0:0:0:
320,192,109906,128,0,110091:0:0:0:0:
448,192,110091,1,0,0:0:0:0:
192,192,110091,128,0,110276:0:0:0:0:
64,192,110276,1,0,0:0:0:0:
320,192,110276,128,0,110461:0:0:0:0:
192,192,110461,1,0,0:0:0:0:
448,192,110461,128,0,110647:0:0:0:0:
64,192,110647,1,0,0:0:0:0:
320,192,110832,1,0,0:0:0:0:
192,192,111017,1,0,0:0:0:0:
320,192,111202,1,0,0:0:0:0:
192,192,111295,1,0,0:0:0:0:
64,192,111387,1,0,0:0:0:0:
448,192,111573,1,0,0:0:0:0:
320,192,111665,1,0,0:0:0:0:
192,192,111758,1,0,0:0:0:0:
64,192,112128,1,0,0:0:0:0:
320,192,112313,1,0,0:0:0:0:
64,192,112498,1,0,0:0:0:0:
448,192,112684,1,0,0:0:0:0:
192,192,112684,1,0,0:0:0:0:
64,192,112869,1,0,0:0:0:0:
320,192,113054,1,0,0:0:0:0:
448,192,113239,1,0,0:0:0:0:
192,192,113239,1,0,0:0:0:0:
320,192,113424,1,0,0:0:0:0:
64,192,113610,1,0,0:0:0:0:
448,192,113610,128,0,114165:0:0:0:0:
192,192,114165,128,0,114535:0:0:0:0:
320,192,114165,1,0,0:0:0:0:
64,192,114350,1,0,0:0:0:0:
448,192,114535,128,0,114906:0:0:0:0:
192,192,114721,1,0,0:0:0:0:
64,192,114813,1,0,0:0:0:0:
192,192,114906,1,0,0:0:0:0:
320,192,114998,1,0,0:0:0:0:
448,192,115091,1,0,0:0:0:0:
64,192,115091,1,0,0:0:0:0:
320,192,115276,1,0,0:0:0:0:
192,192,115276,1,0,0:0:0:0:
448,192,115461,1,0,0:0:0:0:
320,192,115461,1,0,0:0:0:0:
192,192,115647,1,0,0:0:0:0:
64,192,115647,1,0,0:0:0:0:
320,192,115832,1,0,0:0:0:0:
192,192,115832,1,0,0:0:0:0:
448,192,116017,1,0,0:0:0:0:
320,192,116017,1,0,0:0:0:0:
192,192,116202,1,0,0:0:0:0:
64,192,116387,1,0,0:0:0:0:
192,192,116573,1,0,0:0:0:0:
320,192,116758,1,0,0:0:0:0:
448,192,116943,1,0,0:0:0:0:
320,192,117128,1,0,0:0:0:0:
448,192,117313,1,0,0:0:0:0:
192,192,117498,1,0,0:0:0:0:
64,192,117684,1,0,0:0:0:0:
192,192,117869,1,0,0:0:0:0:
448,192,118054,1,0,0:0:0:0:
320,192,118239,1,0,0:0:0:0:
192,192,118424,1,0,0:0:0:0:
64,192,118610,1,0,0:0:0:0:
448,192,118610,1,0,0:0:0:0:
192,192,118795,1,0,0:0:0:0:
320,192,118795,1,0,0:0:0:0:
64,192,118980,1,0,0:0:0:0:
448,192,118980,1,0,0:0:0:0:
320,192,119165,1,0,0:0:0:0:
192,192,119350,1,0,0:0:0:0:
448,192,119535,128,0,120276:0:0:0:0:
320,192,119721,1,0,0:0:0:0:
192,192,119906,1,0,0:0:0:0:
64,192,120091,1,0,0:0:0:0:
192,192,120184,1,0,0:0:0:0:
320,192,120276,1,0,0:0:0:0:
192,192,120369,1,0,0:0:0:0:
64,192,120461,1,0,0:0:0:0:
192,192,120554,1,0,0:0:0:0:
320,192,120647,1,0,0:0:0:0:
448,192,120739,1,0,0:0:0:0:
320,192,120832,1,0,0:0:0:0:
192,192,120924,1,0,0:0:0:0:
64,192,121017,1,0,0:0:0:0:
448,192,121017,1,0,0:0:0:0:
320,192,121202,1,0,0:0:0:0:
192,192,121387,1,0,0:0:0:0:
64,192,121387,1,0,0:0:0:0:
192,192,121573,1,0,0:0:0:0:
320,192,121758,1,0,0:0:0:0:
448,192,121758,1,0,0:0:0:0:
192,192,121943,1,0,0:0:0:0:
64,192,122128,1,0,0:0:0:0:
192,192,122128,1,0,0:0:0:0:
448,192,122128,128,0,122498:0:0:0:0:
64,192,122498,128,0,122869:0:0:0:0:
192,192,122684,1,0,0:0:0:0:
320,192,122869,1,0,0:0:0:0:
448,192,123054,1,0,0:0:0:0:
320,192,123239,1,0,0:0:0:0:
192,192,123424,1,0,0:0:0:0:
64,192,123610,1,0,0:0:0:0:
192,192,123795,1,0,0:0:0:0:
448,192,123980,1,0,0:0:0:0:
64,192,123980,1,0,0:0:0:0:
320,192,124165,1,0,0:0:0:0:
192,192,124350,1,0,0:0:0:0:
320,192,124350,1,0,0:0:0:0:
64,192,124535,1,0,0:0:0:0:
192,192,124721,1,0,0:0:0:0:
448,192,124721,1,0,0:0:0:0:
320,192,124906,1,0,0:0:0:0:
448,192,125091,1,0,0:0:0:0:
64,192,125091,1,0,0:0:0:0:
320,192,125276,128,0,125461:0:0:0:0:
192,192,125461,128,0,125647:0:0:0:0:
64,192,125647,128,0,125832:0:0:0:0:
192,192,125832,1,0,0:0:0:0:
320,192,126017,1,0,0:0:0:0:
448,192,126202,1,0,0:0:0:0:
320,192,126387,1,0,0:0:0:0:
64,192,126573,1,0,0:0:0:0:
192,192,126943,1,0,0:0:0:0:
320,192,127128,1,0,0:0:0:0:
192,192,127313,1,0,0:0:0:0:
64,192,127498,1,0,0:0:0:0:
192,192,127684,1,0,0:0:0:0:
320,192,127869,1,0,0:0:0:0:
448,192,128054,1,0,0:0:0:0:
192,192,128239,128,0,128610:0:0:0:0:
448,192,128424,1,0,0:0:0:0:
64,192,128610,1,0,0:0:0:0:
192,192,128795,1,0,0:0:0:0:
320,192,128887,1,0,0:0:0:0:
448,192,128980,1,0,0:0:0:0:
320,192,129073,1,0,0:0:0:0:
192,192,129165,1,0,0:0:0:0:
320,192,129258,1,0,0:0:0:0:
192,192,129350,1,0,0:0:0:0:
320,192,129443,1,0,0:0:0:0:
448,192,129535,1,0,0:0:0:0:
320,192,129628,1,0,0:0:0:0:
192,192,129721,1,0,0:0:0:0:
64,192,129813,1,0,0:0:0:0:
192,192,129906,1,0,0:0:0:0:
448,192,129906,128,0,130276:0:0:0:0:
192,192,130461,128,0,131017:0:0:0:0:
448,192,130832,1,0,0:0:0:0:
320,192,131017,1,0,0:0:0:0:
448,192,131110,1,0,0:0:0:0:
320,192,131202,1,0,0:0:0:0:
192,192,131295,1,0,0:0:0:0:
320,192,131387,1,0,0:0:0:0:
192,192,131480,1,0,0:0:0:0:
320,192,131573,1,0,0:0:0:0:
448,192,131665,1,0,0:0:0:0:
320,192,131758,1,0,0:0:0:0:
192,192,131850,1,0,0:0:0:0:
64,192,131943,1,0,0:0:0:0:
192,192,132035,1,0,0:0:0:0:
64,192,132128,1,0,0:0:0:0:
192,192,132221,1,0,0:0:0:0:
320,192,132313,1,0,0:0:0:0:
448,192,132498,1,0,0:0:0:0:
64,192,132498,1,0,0:0:0:0:
320,192,132684,1,0,0:0:0:0:
192,192,132684,1,0,0:0:0:0:
64,192,132869,1,0,0:0:0:0:
192,192,132961,1,0,0:0:0:0:
320,192,133054,1,0,0:0:0:0:
448,192,133239,1,0,0:0:0:0:
320,192,133332,1,0,0:0:0:0:
192,192,133424,1,0,0:0:0:0:
64,192,133517,1,0,0:0:0:0:
192,192,133610,1,0,0:0:0:0:
320,192,133795,1,0,0:0:0:0:
448,192,133980,1,0,0:0:0:0:
320,192,134165,1,0,0:0:0:0:
64,192,134350,1,0,0:0:0:0:
192,192,134443,1,0,0:0:0:0:
320,192,134535,1,0,0:0:0:0:
448,192,134721,1,0,0:0:0:0:
320,192,134906,1,0,0:0:0:0:
192,192,134998,1,0,0:0:0:0:
64,192,135091,1,0,0:0:0:0:
192,192,135276,1,0,0:0:0:0:
320,192,135369,1,0,0:0:0:0:
448,192,135461,1,0,0:0:0:0:
448,192,135647,1,0,0:0:0:0:
192,192,135832,1,0,0:0:0:0:
64,192,135832,1,0,0:0:0:0:
320,192,136202,1,0,0:0:0:0:
448,192,136202,1,0,0:0:0:0:
192,192,136573,1,0,0:0:0:0:
64,192,136573,1,0,0:0:0:0:
192,192,136758,1,0,0:0:0:0:
320,192,136758,1,0,0:0:0:0:
448,192,136943,1,0,0:0:0:0:
320,192,136943,1,0,0:0:0:0:
192,192,137128,1,0,0:0:0:0:
64,192,137313,1,0,0:0:0:0:
192,192,137406,1,0,0:0:0:0:
320,192,137498,1,0,0:0:0:0:
448,192,137591,1,0,0:0:0:0:
320,192,137684,1,0,0:0:0:0:
192,192,137776,1,0,0:0:0:0:
64,192,137869,1,0,0:0:0:0:
192,192,137961,1,0,0:0:0:0:
320,192,138054,1,0,0:0:0:0:
192,192,138147,1,0,0:0:0:0:
320,192,138239,1,0,0:0:0:0:
192,192,138332,1,0,0:0:0:0:
320,192,138424,1,0,0:0:0:0:
448,192,138517,1,0,0:0:0:0:
320,192,138610,1,0,0:0:0:0:
192,192,138702,1,0,0:0:0:0:
64,192,138795,128,0,139350:0:0:0:0:
320,192,138980,1,0,0:0:0:0:
448,192,139165,1,0,0:0:0:0:
320,192,139350,128,0,139906:0:0:0:0:
192,192,139535,1,0,0:0:0:0:
64,192,139721,1,0,0:0:0:0:
448,192,139906,1,0,0:0:0:0:
192,192,140091,1,0,0:0:0:0:
448,192,140276,1,0,0:0:0:0:
64,192,140461,1,0,0:0:0:0:
192,192,140554,1,0,0:0:0:0:
320,192,140647,1,0,0:0:0:0:
448,192,140739,1,0,0:0:0:0:
320,192,140832,1,0,0:0:0:0:
192,192,140924,1,0,0:0:0:0:
64,192,141017,1,0,0:0:0:0:
192,192,141202,1,0,0:0:0:0:
448,192,141387,1,0,0:0:0:0:
64,192,141573,1,0,0:0:0:0:
448,192,141758,128,0,142128:0:0:0:0:
320,192,141758,1,0,0:0:0:0:
192,192,141850,1,0,0:0:0:0:
64,192,141943,1,0,0:0:0:0:
192,192,142035,1,0,0:0:0:0:
64,192,142128,1,0,0:0:0:0:
192,192,142221,1,0,0:0:0:0:
320,192,142313,1,0,0:0:0:0:
448,192,142406,1,0,0:0:0:0:
320,192,142498,1,0,0:0:0:0:
64,192,142498,128,0,143054:0:0:0:0:
448,192,142591,1,0,0:0:0:0:
320,192,142684,1,0,0:0:0:0:
448,192,142776,1,0,0:0:0:0:
320,192,142869,1,0,0:0:0:0:
448,192,142961,1,0,0:0:0:0:
320,192,143054,1,0,0:0:0:0:
192,192,143147,1,0,0:0:0:0:
64,192,143239,1,0,0:0:0:0:
448,192,143239,128,0,143795:0:0:0:0:
192,192,143332,1,0,0:0:0:0:
320,192,143424,1,0,0:0:0:0:
192,192,143610,1,0,0:0:0:0:
320,192,143795,1,0,0:0:0:0:
64,192,143980,128,0,144535:0:0:0:0:
192,192,143980,1,0,0:0:0:0:
320,192,144073,1,0,0:0:0:0:
448,192,144165,1,0,0:0:0:0:
320,192,144258,1,0,0:0:0:0:
192,192,144350,1,0,0:0:0:0:
320,192,144443,1,0,0:0:0:0:
192,192,144535,1,0,0:0:0:0:
448,192,144721,128,0,145091:0:0:0:0:
192,192,144906,1,0,0:0:0:0:
320,192,145091,128,0,145461:0:0:0:0:
64,192,145276,1,0,0:0:0:0:
192,192,145461,128,0,145832:0:0:0:0:
64,192,145647,1,0,0:0:0:0:
320,192,145739,1,0,0:0:0:0:
448,192,145832,1,0,0:0:0:0:
320,192,145924,1,0,0:0:0:0:
448,192,146017,1,0,0:0:0:0:
320,192,146110,1,0,0:0:0:0:
192,192,146202,1,0,0:0:0:0:
64,192,146202,128,0,146387:0:0:0:0:
448,192,146387,1,0,0:0:0:0:
320,192,146387,128,0,146573:0:0:0:0:
192,192,146573,1,0,0:0:0:0:
320,192,146758,1,0,0:0:0:0:
64,192,146943,1,0,0:0:0:0:
192,192,147035,1,0,0:0:0:0:
320,192,147128,1,0,0:0:0:0:
448,192,147221,1,0,0:0:0:0:
320,192,147313,1,0,0:0:0:0:
64,192,147313,128,0,147684:0:0:0:0:
192,192,147498,1,0,0:0:0:0:
448,192,147498,1,0,0:0:0:0:
320,192,147684,128,0,148054:0:0:0:0:
448,192,147684,128,0,148054:0:0:0:0:
192,192,147869,1,0,0:0:0:0:
64,192,147869,1,0,0:0:0:0:
64,192,148054,128,0,148424:0:0:0:0:
192,192,148054,128,0,148795:0:0:0:0:
448,192,148239,1,0,0:0:0:0:
320,192,148239,1,0,0:0:0:0:
320,192,148424,128,0,148795:0:0:0:0:
448,192,148424,1,0,0:0:0:0:
64,192,148610,1,0,0:0:0:0:
448,192,148702,1,0,0:0:0:0:
64,192,148795,1,0,0:0:0:0:
448,192,148887,1,0,0:0:0:0:
320,192,148980,1,0,0:0:0:0:
192,192,149073,1,0,0:0:0:0:
64,192,149165,1,0,0:0:0:0:
192,192,149258,1,0,0:0:0:0:
320,192,149350,1,0,0:0:0:0:
448,192,149443,1,0,0:0:0:0:
320,192,149535,1,0,0:0:0:0:
192,192,149628,1,0,0:0:0:0:
64,192,149721,1,0,0:0:0:0:
192,192,149813,1,0,0:0:0:0:
320,192,149906,1,0,0:0:0:0:
448,192,149906,128,0,150091:0:0:0:0:
192,192,150091,1,0,0:0:0:0:
64,192,150184,1,0,0:0:0:0:
320,192,150276,1,0,0:0:0:0:
192,192,150369,1,0,0:0:0:0:
64,192,150461,1,0,0:0:0:0:
192,192,150554,1,0,0:0:0:0:
320,192,150647,1,0,0:0:0:0:
448,192,150647,128,0,150832:0:0:0:0:
192,192,150832,1,0,0:0:0:0:
320,192,150832,128,0,151202:0:0:0:0:
64,192,151017,1,0,0:0:0:0:
448,192,151202,1,0,0:0:0:0:
192,192,151387,128,0,151758:0:0:0:0:
64,192,151387,1,0,0:0:0:0:
448,192,151573,1,0,0:0:0:0:
320,192,151758,1,0,0:0:0:0:
64,192,152128,1,0,0:0:0:0:
192,192,152128,1,0,0:0:0:0:
448,192,152406,1,0,0:0:0:0:
320,192,152406,1,0,0:0:0:0:
320,192,152684,1,0,0:0:0:0:
192,192,152684,1,0,0:0:0:0:
64,192,152869,128,0,153054:0:0:0:0:
320,192,153054,1,0,0:0:0:0:
448,192,153239,1,0,0:0:0:0:
192,192,153424,1,0,0:0:0:0:
64,192,153517,1,0,0:0:0:0:
192,192,153610,1,0,0:0:0:0:
64,192,153702,1,0,0:0:0:0:
192,192,153795,1,0,0:0:0:0:
64,192,153887,1,0,0:0:0:0:
192,192,153980,1,0,0:0:0:0:
320,192,154073,1,0,0:0:0:0:
448,192,154165,1,0,0:0:0:0:
320,192,154258,1,0,0:0:0:0:
448,192,154350,1,0,0:0:0:0:
320,192,154443,1,0,0:0:0:0:
448,192,154535,1,0,0:0:0:0:
320,192,154628,1,0,0:0:0:0:
192,192,154721,1,0,0:0:0:0:
64,192,154813,1,0,0:0:0:0:
192,192,154906,1,0,0:0:0:0:
64,192,154998,1,0,0:0:0:0:
192,192,155091,1,0,0:0:0:0:
320,192,155184,1,0,0:0:0:0:
448,192,155276,1,0,0:0:0:0:
320,192,155369,1,0,0:0:0:0:
192,192,155461,1,0,0:0:0:0:
64,192,155554,1,0,0:0:0:0:
192,192,155647,1,0,0:0:0:0:
320,192,155739,1,0,0:0:0:0:
192,192,155832,1,0,0:0:0:0:
320,192,155924,1,0,0:0:0:0:
192,192,156017,1,0,0:0:0:0:
320,192,156110,1,0,0:0:0:0:
448,192,156202,1,0,0:0:0:0:
320,192,156295,1,0,0:0:0:0:
192,192,156387,1,0,0:0:0:0:
320,192,156573,128,0,157128:0:0:0:0:
192,192,157313,128,0,158054:0:0:0:0:
448,192,158054,128,0,158795:0:0:0:0:
320,192,158980,128,0,159165:0:0:0:0:
64,192,159165,128,0,159350:0:0:0:0:
448,192,159350,128,0,159535:0:0:0:0:
192,192,159535,128,0,159721:0:0:0:0:
320,192,159721,128,0,159906:0:0:0:0:
64,192,159906,128,0,160091:0:0:0:0:
192,192,160091,128,0,160276:0:0:0:0:
320,192,160276,128,0,160461:0:0:0:0:
64,192,160461,128,0,160647:0:0:0:0:
448,192,160647,128,0,160832:0:0:0:0:
320,192,160832,128,0,161017:0:0:0:0:
192,192,161110,1,0,0:0:0:0:
64,192,161202,1,0,0:0:0:0:
192,192,161295,1,0,0:0:0:0:
320,192,161387,1,0,0:0:0:0:
448,192,161480,1,0,0:0:0:0:
320,192,161573,1,0,0:0:0:0:
192,192,161665,1,0,0:0:0:0:
64,192,161758,1,0,0:0:0:0:
192,192,161850,1,0,0:0:0:0:
64,192,161943,1,0,0:0:0:0:
192,192,162035,1,0,0:0:0:0:
320,192,162128,1,0,0:0:0:0:
448,192,162128,128,0,162313:0:0:0:0:
192,192,162313,1,0,0:0:0:0:
448,192,162498,1,0,0:0:0:0:
64,192,162498,1,0,0:0:0:0:
320,192,162498,128,0,163424:0:0:0:0:
64,192,163424,1,0,0:0:0:0:
448,192,163424,128,0,163795:0:0:0:0:
192,192,163610,1,0,0:0:0:0:
64,192,163795,128,0,164165:0:0:0:0:
320,192,163795,1,0,0:0:0:0:
192,192,163980,1,0,0:0:0:0:
448,192,164165,1,0,0:0:0:0:
192,192,164350,1,0,0:0:0:0:
448,192,164535,128,0,165091:0:0:0:0:
192,192,165091,1,0,0:0:0:0:
64,192,165276,1,0,0:0:0:0:
320,192,165276,1,0,0:0:0:0:
448,192,165461,1,0,0:0:0:0:
320,192,165647,1,0,0:0:0:0:
192,192,165739,1,0,0:0:0:0:
64,192,165832,1,0,0:0:0:0:
192,192,165924,1,0,0:0:0:0:
320,192,166017,1,0,0:0:0:0:
192,192,166110,1,0,0:0:0:0:
320,192,166202,1,0,0:0:0:0:
192,192,166295,1,0,0:0:0:0:
320,192,166387,1,0,0:0:0:0:
448,192,166480,1,0,0:0:0:0:
320,192,166573,1,0,0:0:0:0:
192,192,166665,1,0,0:0:0:0:
64,192,166758,1,0,0:0:0:0:
192,192,166850,1,0,0:0:0:0:
320,192,166943,1,0,0:0:0:0:
448,192,166943,128,0,167684:0:0:0:0:
192,192,167128,1,0,0:0:0:0:
64,192,167313,1,0,0:0:0:0:
320,192,167313,1,0,0:0:0:0:
192,192,167498,1,0,0:0:0:0:
192,192,167684,128,0,168424:0:0:0:0:
320,192,167869,1,0,0:0:0:0:
448,192,167961,1,0,0:0:0:0:
320,192,168239,1,0,0:0:0:0:
64,192,168332,1,0,0:0:0:0:
320,192,168424,1,0,0:0:0:0:
448,192,168517,1,0,0:0:0:0:
320,192,168610,1,0,0:0:0:0:
192,192,168795,1,0,0:0:0:0:
64,192,168887,1,0,0:0:0:0:
320,192,169073,1,0,0:0:0:0:
192,192,169258,1,0,0:0:0:0:
320,192,169350,1,0,0:0:0:0:
448,192,169443,1,0,0:0:0:0:
320,192,169535,1,0,0:0:0:0:
64,192,169721,1,0,0:0:0:0:
192,192,169813,1,0,0:0:0:0:
320,192,169906,1,0,0:0:0:0:
192,192,169998,1,0,0:0:0:0:
64,192,170091,1,0,0:0:0:0:
192,192,170184,1,0,0:0:0:0:
320,192,170276,1,0,0:0:0:0:
448,192,170369,1,0,0:0:0:0:
320,192,170461,1,0,0:0:0:0:
192,192,170554,1,0,0:0:0:0:
320,192,170647,1,0,0:0:0:0:
192,192,170739,1,0,0:0:0:0:
320,192,170832,1,0,0:0:0:0:
448,192,170924,1,0,0:0:0:0:
64,192,171017,1,0,0:0:0:0:
448,192,171110,1,0,0:0:0:0:
64,192,171202,1,0,0:0:0:0:
192,192,171295,1,0,0:0:0:0:
320,192,171387,128,0,171573:0:0:0:0:
448,192,171573,1,0,0:0:0:0:
192,192,171758,1,0,0:0:0:0:
64,192,171850,1,0,0:0:0:0:
192,192,171943,1,0,0:0:0:0:
320,192,172035,1,0,0:0:0:0:
448,192,172128,1,0,0:0:0:0:
320,192,172221,1,0,0:0:0:0:
192,192,172313,1,0,0:0:0:0:
448,192,172498,1,0,0:0:0:0:
64,192,172684,1,0,0:0:0:0:
320,192,172869,1,0,0:0:0:0:
192,192,172961,1,0,0:0:0:0:
64,192,173054,1,0,0:0:0:0:
192,192,173147,1,0,0:0:0:0:
320,192,173239,1,0,0:0:0:0:
448,192,173332,1,0,0:0:0:0:
64,192,173424,128,0,173980:0:0:0:0:
192,192,173610,1,0,0:0:0:0:
320,192,173702,1,0,0:0:0:0:
448,192,173795,1,0,0:0:0:0:
320,192,173887,1,0,0:0:0:0:
192,192,173980,1,0,0:0:0:0:
320,192,174073,1,0,0:0:0:0:
192,192,174165,1,0,0:0:0:0:
448,192,174350,1,0,0:0:0:0:
320,192,174535,1,0,0:0:0:0:
64,192,174721,1,0,0:0:0:0:
192,192,174813,1,0,0:0:0:0:
448,192,174998,1,0,0:0:0:0:
320,192,175184,1,0,0:0:0:0:
192,192,175276,1,0,0:0:0:0:
64,192,175461,1,0,0:0:0:0:
192,192,175647,1,0,0:0:0:0:
448,192,175832,1,0,0:0:0:0:
320,192,176017,1,0,0:0:0:0:
64,192,176202,1,0,0:0:0:0:
192,192,176295,1,0,0:0:0:0:
320,192,176387,1,0,0:0:0:0:
448,192,176480,1,0,0:0:0:0:
320,192,176573,1,0,0:0:0:0:
192,192,176665,1,0,0:0:0:0:
64,192,176758,1,0,0:0:0:0:
192,192,176850,1,0,0:0:0:0:
320,192,176943,1,0,0:0:0:0:
448,192,177035,1,0,0:0:0:0:
320,192,177128,1,0,0:0:0:0:
448,192,177221,1,0,0:0:0:0:
320,192,177313,1,0,0:0:0:0:
64,192,177313,1,0,0:0:0:0:
192,192,177313,128,0,177684:0:0:0:0:
448,192,177498,1,0,0:0:0:0:
320,192,177684,1,0,0:0:0:0:
64,192,177869,1,0,0:0:0:0:
192,192,177961,1,0,0:0:0:0:
320,192,178054,1,0,0:0:0:0:
448,192,178147,1,0,0:0:0:0:
320,192,178239,1,0,0:0:0:0:
192,192,178332,1,0,0:0:0:0:
64,192,178424,1,0,0:0:0:0:
448,192,178424,1,0,0:0:0:0:
320,192,178610,1,0,0:0:0:0:
192,192,178795,1,0,0:0:0:0:
320,192,178887,1,0,0:0:0:0:
448,192,178980,1,0,0:0:0:0:
320,192,179073,1,0,0:0:0:0:
192,192,179165,1,0,0:0:0:0:
64,192,179258,1,0,0:0:0:0:
192,192,179350,1,0,0:0:0:0:
64,192,179443,1,0,0:0:0:0:
192,192,179535,1,0,0:0:0:0:
64,192,179628,1,0,0:0:0:0:
320,192,179721,1,0,0:0:0:0:
448,192,179813,1,0,0:0:0:0:
320,192,179906,1,0,0:0:0:0:
448,192,179998,1,0,0:0:0:0:
320,192,180091,1,0,0:0:0:0:
64,192,180091,128,0,181017:0:0:0:0:
192,192,180276,1,0,0:0:0:0:
320,192,180461,1,0,0:0:0:0:
448,192,180647,1,0,0:0:0:0:
320,192,180832,1,0,0:0:0:0:
192,192,181017,1,0,0:0:0:0:
320,192,181110,1,0,0:0:0:0:
448,192,181202,1,0,0:0:0:0:
320,192,181295,1,0,0:0:0:0:
192,192,181387,1,0,0:0:0:0:
64,192,181480,1,0,0:0:0:0:
192,192,181573,1,0,0:0:0:0:
320,192,181665,1,0,0:0:0:0:
64,192,181758,128,0,182498:0:0:0:0:
448,192,181758,128,0,182498:0:0:0:0:
320,192,182498,128,0,183239:0:0:0:0:
192,192,182498,128,0,183239:0:0:0:0:
448,192,183239,128,0,183980:0:0:0:0:
64,192,183239,128,0,183980:0:0:0:0:
320,192,183980,128,0,184350:0:0:0:0:
192,192,183980,128,0,184350:0:0:0:0:
64,192,184350,1,0,0:0:0:0:
448,192,184350,1,0,0:0:0:0:
320,192,184535,1,0,0:0:0:0:
192,192,184535,1,0,0:0:0:0:
64,192,184721,128,0,185091:0:0:0:0:
192,192,184906,128,0,185276:0:0:0:0:
320,192,185091,128,0,185461:0:0:0:0:
448,192,185276,128,0,185647:0:0:0:0:
64,192,185461,1,0,0:0:0:0:
192,192,185647,1,0,0:0:0:0:
320,192,185832,128,0,186017:0:0:0:0:
64,192,186017,128,0,186202:0:0:0:0:
448,192,186202,128,0,186387:0:0:0:0:
320,192,186387,1,0,0:0:0:0:
192,192,186480,1,0,0:0:0:0:
64,192,186573,1,0,0:0:0:0:
192,192,186665,1,0,0:0:0:0:
320,192,186758,1,0,0:0:0:0:
448,192,186758,128,0,186943:0:0:0:0:
64,192,186943,128,0,187313:0:0:0:0:
192,192,187128,1,0,0:0:0:0:
320,192,187313,1,0,0:0:0:0:
448,192,187498,1,0,0:0:0:0:
192,192,187684,128,0,188054:0:0:0:0:
320,192,188054,1,0,0:0:0:0:
448,192,188147,1,0,0:0:0:0:
320,192,188239,1,0,0:0:0:0:
192,192,188332,1,0,0:0:0:0:
64,192,188424,128,0,188795:0:0:0:0:
192,192,188887,1,0,0:0:0:0:
320,192,188980,1,0,0:0:0:0:
448,192,189073,1,0,0:0:0:0:
192,192,189165,128,0,189535:0:0:0:0:
320,192,189535,1,0,0:0:0:0:
448,192,189628,1,0,0:0:0:0:
320,192,189721,1,0,0:0:0:0:
192,192,189813,1,0,0:0:0:0:
64,192,189906,128,0,190276:0:0:0:0:
192,192,190369,1,0,0:0:0:0:
320,192,190461,1,0,0:0:0:0:
192,192,190554,1,0,0:0:0:0:
448,192,190647,128,0,190832:0:0:0:0:
320,192,190832,128,0,191017:0:0:0:0:
192,192,191017,128,0,191202:0:0:0:0:
64,192,191202,128,0,191387:0:0:0:0:
448,192,191387,1,0,0:0:0:0:
192,192,191573,1,0,0:0:0:0:
320,192,191758,1,0,0:0:0:0:
64,192,191758,1,0,0:0:0:0:
448,192,191943,1,0,0:0:0:0:
320,192,192035,1,0,0:0:0:0:
192,192,192128,1,0,0:0:0:0:
64,192,192313,1,0,0:0:0:0:
448,192,192313,1,0,0:0:0:0:
320,192,192498,1,0,0:0:0:0:
192,192,192684,1,0,0:0:0:0:
320,192,192684,1,0,0:0:0:0:
64,192,192869,1,0,0:0:0:0:
192,192,192869,1,0,0:0:0:0:
320,192,193054,1,0,0:0:0:0:
320,192,193239,1,0,0:0:0:0:
64,192,193239,1,0,0:0:0:0:
448,192,193332,1,0,0:0:0:0:
320,192,193424,1,0,0:0:0:0:
448,192,193517,1,0,0:0:0:0:
192,192,193610,1,0,0:0:0:0:
64,192,193610,1,0,0:0:0:0:
320,192,193795,128,0,193980:0:0:0:0:
192,192,193980,128,0,194165:0:0:0:0:
448,192,194165,128,0,194350:0:0:0:0:
64,192,194350,128,0,194535:0:0:0:0:
320,192,194535,128,0,194721:0:0:0:0:
192,192,194721,128,0,194906:0:0:0:0:
448,192,194906,128,0,195091:0:0:0:0:
64,192,194998,1,0,0:0:0:0:
192,192,195091,1,0,0:0:0:0:
64,192,195184,1,0,0:0:0:0:
192,192,195276,1,0,0:0:0:0:
320,192,195369,1,0,0:0:0:0:
448,192,195461,128,0,195647:0:0:0:0:
64,192,195461,128,0,195647:0:0:0:0:
320,192,195647,1,0,0:0:0:0:
192,192,195647,1,0,0:0:0:0:
320,192,195832,1,0,0:0:0:0:
192,192,196017,128,0,196202:0:0:0:0:
448,192,196017,128,0,196202:0:0:0:0:
64,192,196295,1,0,0:0:0:0:
192,192,196387,1,0,0:0:0:0:
320,192,196480,1,0,0:0:0:0:
192,192,196573,128,0,196758:0:0:0:0:
320,192,196758,128,0,196943:0:0:0:0:
192,192,196943,128,0,197128:0:0:0:0:
448,192,197128,128,0,197313:0:0:0:0:
64,192,197313,128,0,197498:0:0:0:0:
192,192,197591,1,0,0:0:0:0:
320,192,197684,1,0,0:0:0:0:
448,192,197776,1,0,0:0:0:0:
320,192,197869,1,0,0:0:0:0:
192,192,197961,1,0,0:0:0:0:
64,192,198054,1,0,0:0:0:0:
448,192,198054,128,0,198424:0:0:0:0:
320,192,198239,128,0,198610:0:0:0:0:
192,192,198610,128,0,198795:0:0:0:0:
64,192,198795,1,0,0:0:0:0:
320,192,198887,1,0,0:0:0:0:
448,192,198980,1,0,0:0:0:0:
320,192,199073,1,0,0:0:0:0:
192,192,199165,1,0,0:0:0:0:
64,192,199258,1,0,0:0:0:0:
192,192,199350,1,0,0:0:0:0:
320,192,199443,1,0,0:0:0:0:
448,192,199535,1,0,0:0:0:0:
64,192,199535,128,0,199721:0:0:0:0:
192,192,199721,128,0,199906:0:0:0:0:
320,192,199906,128,0,200091:0:0:0:0:
448,192,200091,128,0,200276:0:0:0:0:
320,192,200276,128,0,200461:0:0:0:0:
64,192,200554,1,0,0:0:0:0:
192,192,200647,1,0,0:0:0:0:
320,192,200739,1,0,0:0:0:0:
448,192,200832,1,0,0:0:0:0:
320,192,200924,1,0,0:0:0:0:
192,192,201017,1,0,0:0:0:0:
64,192,201110,1,0,0:0:0:0:
320,192,201202,1,0,0:0:0:0:
448,192,201295,1,0,0:0:0:0:
320,192,201387,1,0,0:0:0:0:
448,192,201480,1,0,0:0:0:0:
320,192,201573,1,0,0:0:0:0:
192,192,201665,1,0,0:0:0:0:
64,192,201758,1,0,0:0:0:0:
192,192,201850,1,0,0:0:0:0:
64,192,201943,1,0,0:0:0:0:
192,192,202035,1,0,0:0:0:0:
320,192,202128,1,0,0:0:0:0:
448,192,202221,1,0,0:0:0:0:
320,192,202313,1,0,0:0:0:0:
448,192,202406,1,0,0:0:0:0:
320,192,202498,1,0,0:0:0:0:
192,192,202591,1,0,0:0:0:0:
64,192,202684,1,0,0:0:0:0:
192,192,202776,1,0,0:0:0:0:
64,192,202869,1,0,0:0:0:0:
192,192,202961,1,0,0:0:0:0:
64,192,203054,1,0,0:0:0:0:
192,192,203147,1,0,0:0:0:0:
320,192,203239,1,0,0:0:0:0:
448,192,203332,1,0,0:0:0:0:
320,192,203424,1,0,0:0:0:0:
192,192,203517,1,0,0:0:0:0:
64,192,203610,1,0,0:0:0:0:
192,192,203702,1,0,0:0:0:0:
320,192,203795,1,0,0:0:0:0:
448,192,203887,1,0,0:0:0:0:
320,192,203980,1,0,0:0:0:0:
192,192,204073,1,0,0:0:0:0:
64,192,204165,1,0,0:0:0:0:
192,192,204258,1,0,0:0:0:0:
320,192,204350,1,0,0:0:0:0:
448,192,204443,1,0,0:0:0:0:
320,192,204535,1,0,0:0:0:0:
64,192,204721,1,0,0:0:0:0:
448,192,204721,1,0,0:0:0:0:
192,192,204721,128,0,204998:0:0:0:0:
320,192,204721,128,0,204998:0:0:0:0:
448,192,205091,1,0,0:0:0:0:
64,192,205091,1,0,0:0:0:0:
192,192,205461,1,0,0:0:0:0:
448,192,205739,1,0,0:0:0:0:
192,192,206017,1,0,0:0:0:0:
64,192,206202,1,0,0:0:0:0:
320,192,206480,1,0,0:0:0:0:
448,192,206758,1,0,0:0:0:0:
320,192,206943,1,0,0:0:0:0:
192,192,207035,1,0,0:0:0:0:
320,192,207128,1,0,0:0:0:0:
192,192,207221,1,0,0:0:0:0:
64,192,207313,1,0,0:0:0:0:
448,192,207313,1,0,0:0:0:0:
320,192,207498,1,0,0:0:0:0:
192,192,207498,1,0,0:0:0:0:
448,192,207684,1,0,0:0:0:0:
320,192,207684,1,0,0:0:0:0:
192,192,207869,1,0,0:0:0:0:
64,192,207869,1,0,0:0:0:0:
320,192,208054,128,0,208424:0:0:0:0:
64,192,208424,1,0,0:0:0:0:
192,192,208702,1,0,0:0:0:0:
320,192,208795,1,0,0:0:0:0:
448,192,208887,1,0,0:0:0:0:
320,192,208980,1,0,0:0:0:0:
192,192,209073,1,0,0:0:0:0:
64,192,209165,1,0,0:0:0:0:
192,192,209258,1,0,0:0:0:0:
448,192,209350,1,0,0:0:0:0:
320,192,209350,1,0,0:0:0:0:
192,192,209443,1,0,0:0:0:0:
64,192,209535,1,0,0:0:0:0:
192,192,209628,1,0,0:0:0:0:
320,192,209721,1,0,0:0:0:0:
448,192,209813,1,0,0:0:0:0:
320,192,209906,1,0,0:0:0:0:
192,192,209998,1,0,0:0:0:0:
320,192,210091,1,0,0:0:0:0:
448,192,210184,1,0,0:0:0:0:
320,192,210276,1,0,0:0:0:0:
192,192,210369,1,0,0:0:0:0:
64,192,210461,1,0,0:0:0:0:
192,192,210554,1,0,0:0:0:0:
320,192,210647,1,0,0:0:0:0:
448,192,210832,1,0,0:0:0:0:
192,192,211017,1,0,0:0:0:0:
64,192,211202,1,0,0:0:0:0:
192,192,211295,1,0,0:0:0:0:
320,192,211387,1,0,0:0:0:0:
192,192,211573,1,0,0:0:0:0:
64,192,211758,1,0,0:0:0:0:
448,192,211943,1,0,0:0:0:0:
320,192,212035,1,0,0:0:0:0:
192,192,212128,1,0,0:0:0:0:
64,192,212313,1,0,0:0:0:0:
320,192,212498,1,0,0:0:0:0:
448,192,212591,1,0,0:0:0:0:
320,192,212684,1,0,0:0:0:0:
192,192,212776,1,0,0:0:0:0:
320,192,212869,1,0,0:0:0:0:
192,192,212961,1,0,0:0:0:0:
320,192,213054,1,0,0:0:0:0:
192,192,213147,1,0,0:0:0:0:
64,192,213239,1,0,0:0:0:0:
192,192,213332,1,0,0:0:0:0:
64,192,213424,1,0,0:0:0:0:
192,192,213517,1,0,0:0:0:0:
320,192,213610,1,0,0:0:0:0:
448,192,213702,1,0,0:0:0:0:
320,192,213795,1,0,0:0:0:0:
192,192,213887,1,0,0:0:0:0:
64,192,213980,1,0,0:0:0:0:
192,192,214073,1,0,0:0:0:0:
320,192,214165,1,0,0:0:0:0:
448,192,214258,1,0,0:0:0:0:
320,192,214350,1,0,0:0:0:0:
192,192,214443,1,0,0:0:0:0:
320,192,214535,1,0,0:0:0:0:
192,192,214628,1,0,0:0:0:0:
320,192,214721,1,0,0:0:0:0:
192,192,214813,1,0,0:0:0:0:
448,192,214906,1,0,0:0:0:0:
320,192,214998,1,0,0:0:0:0:
192,192,215091,1,0,0:0:0:0:
64,192,215184,1,0,0:0:0:0:
192,192,215276,1,0,0:0:0:0:
320,192,215369,1,0,0:0:0:0:
448,192,215461,1,0,0:0:0:0:
320,192,215554,1,0,0:0:0:0:
192,192,215647,1,0,0:0:0:0:
320,192,215739,1,0,0:0:0:0:
448,192,215832,1,0,0:0:0:0:
320,192,215924,1,0,0:0:0:0:
64,192,215924,128,0,216573:0:0:0:0:
448,192,216017,1,0,0:0:0:0:
320,192,216573,128,0,216943:0:0:0:0:
192,192,216758,1,0,0:0:0:0:
64,192,216850,1,0,0:0:0:0:
192,192,216943,1,0,0:0:0:0:
64,192,217035,1,0,0:0:0:0:
192,192,217128,1,0,0:0:0:0:
320,192,217221,1,0,0:0:0:0:
448,192,217313,1,0,0:0:0:0:
192,192,217498,1,0,0:0:0:0:
320,192,217684,1,0,0:0:0:0:
448,192,217869,1,0,0:0:0:0:
320,192,218054,1,0,0:0:0:0:
192,192,218239,1,0,0:0:0:0:
64,192,218610,128,0,218980:0:0:0:0:
320,192,218795,1,0,0:0:0:0:
448,192,218980,1,0,0:0:0:0:
192,192,219350,1,0,0:0:0:0:
320,192,219535,1,0,0:0:0:0:
448,192,219721,1,0,0:0:0:0:
320,192,219906,1,0,0:0:0:0:
448,192,220276,1,0,0:0:0:0:
192,192,220647,1,0,0:0:0:0:
64,192,220832,1,0,0:0:0:0:
192,192,221017,1,0,0:0:0:0:
320,192,221202,1,0,0:0:0:0:
64,192,221387,1,0,0:0:0:0:
192,192,221573,1,0,0:0:0:0:
448,192,221758,128,0,222128:0:0:0:0:
320,192,221943,128,0,222313:0:0:0:0:
64,192,222313,1,0,0:0:0:0:
192,192,222498,1,0,0:0:0:0:
320,192,222684,128,0,223054:0:0:0:0:
64,192,223054,1,0,0:0:0:0:
192,192,223239,1,0,0:0:0:0:
320,192,223424,1,0,0:0:0:0:
192,192,223795,1,0,0:0:0:0:
320,192,223980,1,0,0:0:0:0:
448,192,224165,1,0,0:0:0:0:
192,192,224535,1,0,0:0:0:0:
64,192,224721,1,0,0:0:0:0:
192,192,224906,1,0,0:0:0:0:
64,192,225091,1,0,0:0:0:0:
320,192,225276,1,0,0:0:0:0:
192,192,225647,1,0,0:0:0:0:
320,192,225832,1,0,0:0:0:0:
448,192,226017,1,0,0:0:0:0:
64,192,226202,1,0,0:0:0:0:
320,192,226387,128,0,226573:0:0:0:0:
192,192,226758,1,0,0:0:0:0:
448,192,226943,1,0,0:0:0:0:
64,192,227128,128,0,227313:0:0:0:0:
320,192,227498,1,0,0:0:0:0:
192,192,227684,1,0,0:0:0:0:
64,192,227869,1,0,0:0:0:0:
192,192,228054,1,0,0:0:0:0:
320,192,228239,1,0,0:0:0:0:
448,192,228424,1,0,0:0:0:0:
320,192,228517,1,0,0:0:0:0:
192,192,228610,1,0,0:0:0:0:
64,192,228702,1,0,0:0:0:0:
192,192,228795,1,0,0:0:0:0:
320,192,228887,1,0,0:0:0:0:
448,192,228980,1,0,0:0:0:0:
320,192,229073,1,0,0:0:0:0:
192,192,229165,1,0,0:0:0:0:
320,192,229258,1,0,0:0:0:0:
64,192,229535,1,0,0:0:0:0:
192,192,229721,1,0,0:0:0:0:
448,192,229906,1,0,0:0:0:0:
320,192,230091,1,0,0:0:0:0:
64,192,230276,1,0,0:0:0:0:
448,192,230276,1,0,0:0:0:0:
320,192,230647,128,0,231758:0:0:0:0:
320,192,232128,1,0,0:0:0:0:
448,192,232313,1,0,0:0:0:0:
192,192,232498,1,0,0:0:0:0:
64,192,232684,1,0,0:0:0:0:
320,192,232869,1,0,0:0:0:0:
448,192,233054,1,0,0:0:0:0:
64,192,233239,1,0,0:0:0:0:
192,192,233239,1,0,0:0:0:0:
448,192,233424,1,0,0:0:0:0:
320,192,233424,1,0,0:0:0:0:
192,192,233795,1,0,0:0:0:0:
448,192,233980,1,0,0:0:0:0:
64,192,234165,1,0,0:0:0:0:
320,192,234350,1,0,0:0:0:0:
192,192,234350,1,0,0:0:0:0:
448,192,234535,1,0,0:0:0:0:
192,192,234721,1,0,0:0:0:0:
64,192,234721,1,0,0:0:0:0:
320,192,235091,1,0,0:0:0:0:
64,192,235276,1,0,0:0:0:0:
192,192,235461,1,0,0:0:0:0:
448,192,235647,1,0,0:0:0:0:
320,192,235832,1,0,0:0:0:0:
64,192,236017,1,0,0:0:0:0:
192,192,236202,1,0,0:0:0:0:
448,192,236387,1,0,0:0:0:0:
64,192,236387,1,0,0:0:0:0:
320,192,236387,128,0,236758:0:0:0:0:
192,192,236387,128,0,236758:0:0:0:0:
448,192,236943,128,0,237313:0:0:0:0:
320,192,237313,128,0,237684:0:0:0:0:
192,192,237684,128,0,237869:0:0:0:0:
320,192,238054,128,0,238424:0:0:0:0:
64,192,238239,1,0,0:0:0:0:
192,192,238424,1,0,0:0:0:0:
64,192,238610,1,0,0:0:0:0:
192,192,238795,1,0,0:0:0:0:
320,192,239165,1,0,0:0:0:0:
192,192,239350,1,0,0:0:0:0:
448,192,239535,1,0,0:0:0:0:
64,192,239535,128,0,239906:0:0:0:0:
320,192,239906,128,0,240091:0:0:0:0:
192,192,239906,1,0,0:0:0:0:
448,192,240091,128,0,240276:0:0:0:0:
320,192,240276,128,0,240461:0:0:0:0:
192,192,240461,128,0,240647:0:0:0:0:
64,192,240647,128,0,240832:0:0:0:0:
192,192,240924,1,0,0:0:0:0:
320,192,241017,1,0,0:0:0:0:
64,192,241017,128,0,241387:0:0:0:0:
448,192,241017,128,0,241387:0:0:0:0:
192,192,241202,1,0,0:0:0:0:
320,192,241387,1,0,0:0:0:0:
64,192,241573,1,0,0:0:0:0:
192,192,241758,128,0,242128:0:0:0:0:
448,192,241758,128,0,242128:0:0:0:0:
320,192,241943,1,0,0:0:0:0:
64,192,242128,1,0,0:0:0:0:
320,192,242498,128,0,243239:0:0:0:0:
64,192,242498,128,0,243239:0:0:0:0:
192,192,242498,128,0,243239:0:0:0:0:
320,192,243424,1,0,0:0:0:0:
192,192,243610,1,0,0:0:0:0:
64,192,243610,1,0,0:0:0:0:
320,192,243795,1,0,0:0:0:0:
192,192,243980,1,0,0:0:0:0:
320,192,243980,1,0,0:0:0:0:
64,192,244165,1,0,0:0:0:0:
320,192,244350,1,0,0:0:0:0:
448,192,244350,1,0,0:0:0:0:
192,192,244535,1,0,0:0:0:0:
64,192,244721,1,0,0:0:0:0:
192,192,244906,1,0,0:0:0:0:
320,192,245091,1,0,0:0:0:0:
192,192,245276,1,0,0:0:0:0:
64,192,245276,1,0,0:0:0:0:
320,192,245461,1,0,0:0:0:0:
448,192,245461,1,0,0:0:0:0:
320,192,245647,1,0,0:0:0:0:
192,192,245647,1,0,0:0:0:0:
64,192,245739,1,0,0:0:0:0:
192,192,245832,1,0,0:0:0:0:
320,192,245924,1,0,0:0:0:0:
448,192,246017,1,0,0:0:0:0:
320,192,246110,1,0,0:0:0:0:
192,192,246202,1,0,0:0:0:0:
64,192,246295,1,0,0:0:0:0:
192,192,246387,1,0,0:0:0:0:
320,192,246480,1,0,0:0:0:0:
448,192,246573,1,0,0:0:0:0:
320,192,246665,1,0,0:0:0:0:
64,192,246758,128,0,247128:0:0:0:0:
448,192,246758,128,0,247128:0:0:0:0:
192,192,246758,1,0,0:0:0:0:
320,192,246943,1,0,0:0:0:0:
192,192,247128,1,0,0:0:0:0:
320,192,247313,128,0,247684:0:0:0:0:
448,192,247313,128,0,247684:0:0:0:0:
64,192,247498,1,0,0:0:0:0:
192,192,247869,128,0,248239:0:0:0:0:
64,192,247869,128,0,248239:0:0:0:0:
320,192,248054,1,0,0:0:0:0:
448,192,248239,1,0,0:0:0:0:
320,192,248424,1,0,0:0:0:0:
192,192,248517,1,0,0:0:0:0:
64,192,248610,1,0,0:0:0:0:
192,192,248702,1,0,0:0:0:0:
64,192,248795,1,0,0:0:0:0:
192,192,248887,1,0,0:0:0:0:
320,192,248980,1,0,0:0:0:0:
448,192,248980,128,0,249350:0:0:0:0:
320,192,249535,1,0,0:0:0:0:
192,192,249628,1,0,0:0:0:0:
64,192,249721,1,0,0:0:0:0:
192,192,249813,1,0,0:0:0:0:
320,192,249906,1,0,0:0:0:0:
448,192,249998,1,0,0:0:0:0:
320,192,250091,1,0,0:0:0:0:
192,192,250184,1,0,0:0:0:0:
64,192,250276,1,0,0:0:0:0:
192,192,250369,1,0,0:0:0:0:
320,192,250461,1,0,0:0:0:0:
448,192,250554,1,0,0:0:0:0:
320,192,250647,1,0,0:0:0:0:
192,192,250739,1,0,0:0:0:0:
64,192,250832,1,0,0:0:0:0:
192,192,250924,1,0,0:0:0:0:
320,192,251017,1,0,0:0:0:0:
448,192,251110,1,0,0:0:0:0:
192,192,251202,1,0,0:0:0:0:
320,192,251387,1,0,0:0:0:0:
64,192,251573,128,0,251943:0:0:0:0:
448,192,251573,128,0,251943:0:0:0:0:
192,192,251758,1,0,0:0:0:0:
320,192,252128,1,0,0:0:0:0:
192,192,252313,128,0,252684:0:0:0:0:
320,192,252313,128,0,252684:0:0:0:0:
64,192,252498,1,0,0:0:0:0:
448,192,252498,1,0,0:0:0:0:
448,192,252684,1,0,0:0:0:0:
64,192,252684,1,0,0:0:0:0:
192,192,252869,1,0,0:0:0:0:
320,192,253054,1,0,0:0:0:0:
64,192,253239,1,0,0:0:0:0:
192,192,253332,1,0,0:0:0:0:
320,192,253424,1,0,0:0:0:0:
448,192,253610,1,0,0:0:0:0:
192,192,253795,1,0,0:0:0:0:
64,192,253980,1,0,0:0:0:0:
192,192,254073,1,0,0:0:0:0:
320,192,254165,1,0,0:0:0:0:
448,192,254258,1,0,0:0:0:0:
320,192,254350,1,0,0:0:0:0:
192,192,254535,1,0,0:0:0:0:
64,192,254721,1,0,0:0:0:0:
192,192,254813,1,0,0:0:0:0:
320,192,254906,1,0,0:0:0:0:
448,192,254998,1,0,0:0:0:0:
320,192,255276,1,0,0:0:0:0:
192,192,255461,128,0,255647:0:0:0:0:
320,192,255647,1,0,0:0:0:0:
448,192,255832,128,0,256017:0:0:0:0:
64,192,255832,128,0,256017:0:0:0:0:
320,192,256017,1,0,0:0:0:0:
192,192,256017,1,0,0:0:0:0:
320,192,256202,128,0,256387:0:0:0:0:
192,192,256202,128,0,256387:0:0:0:0:
64,192,256387,1,0,0:0:0:0:
320,192,256573,128,0,256758:0:0:0:0:
192,192,256573,128,0,256758:0:0:0:0:
448,192,256758,1,0,0:0:0:0:
320,192,256943,1,0,0:0:0:0:
64,192,257128,1,0,0:0:0:0:
448,192,257313,1,0,0:0:0:0:
320,192,257406,1,0,0:0:0:0:
192,192,257498,1,0,0:0:0:0:
64,192,257591,1,0,0:0:0:0:
192,192,257684,1,0,0:0:0:0:
320,192,257776,1,0,0:0:0:0:
192,192,257869,1,0,0:0:0:0:
320,192,257961,1,0,0:0:0:0:
192,192,258054,1,0,0:0:0:0:
320,192,258147,1,0,0:0:0:0:
192,192,258239,1,0,0:0:0:0:
320,192,258332,1,0,0:0:0:0:
192,192,258424,1,0,0:0:0:0:
320,192,258517,1,0,0:0:0:0:
448,192,258610,1,0,0:0:0:0:
192,192,258702,1,0,0:0:0:0:
64,192,258795,128,0,259535:0:0:0:0:
320,192,258980,1,0,0:0:0:0:
192,192,259165,1,0,0:0:0:0:
448,192,259165,1,0,0:0:0:0:
320,192,259350,1,0,0:0:0:0:
192,192,259535,1,0,0:0:0:0:
448,192,259721,128,0,259906:0:0:0:0:
192,192,259906,128,0,260091:0:0:0:0:
320,192,260091,128,0,260276:0:0:0:0:
64,192,260276,128,0,260461:0:0:0:0:
192,192,260369,1,0,0:0:0:0:
448,192,260461,128,0,260647:0:0:0:0:
320,192,260461,1,0,0:0:0:0:
192,192,260647,1,0,0:0:0:0:
64,192,260832,1,0,0:0:0:0:
448,192,261017,1,0,0:0:0:0:
192,192,261387,128,0,261573:0:0:0:0:
448,192,261573,1,0,0:0:0:0:
64,192,261758,128,0,261943:0:0:0:0:
320,192,261943,1,0,0:0:0:0:
448,192,261943,128,0,262128:0:0:0:0:
192,192,262128,1,0,0:0:0:0:
320,192,262128,128,0,262313:0:0:0:0:
64,192,262313,1,0,0:0:0:0:
448,192,262313,128,0,262498:0:0:0:0:
192,192,262498,1,0,0:0:0:0:
320,192,262498,128,0,262684:0:0:0:0:
64,192,262684,1,0,0:0:0:0:
192,192,262684,128,0,262869:0:0:0:0:
448,192,262869,1,0,0:0:0:0:
320,192,262961,1,0,0:0:0:0:
448,192,263054,1,0,0:0:0:0:
320,192,263147,1,0,0:0:0:0:
192,192,263239,1,0,0:0:0:0:
64,192,263332,1,0,0:0:0:0:
192,192,263424,1,0,0:0:0:0:
64,192,263517,1,0,0:0:0:0:
192,192,263610,1,0,0:0:0:0:
320,192,263610,128,0,263980:0:0:0:0:
192,192,263980,1,0,0:0:0:0:
448,192,264073,1,0,0:0:0:0:
320,192,264165,1,0,0:0:0:0:
448,192,264258,1,0,0:0:0:0:
320,192,264350,1,0,0:0:0:0:
192,192,264443,1,0,0:0:0:0:
64,192,264535,1,0,0:0:0:0:
192,192,264628,1,0,0:0:0:0:
320,192,264721,1,0,0:0:0:0:
448,192,264906,1,0,0:0:0:0:
192,192,265091,1,0,0:0:0:0:
320,192,265184,1,0,0:0:0:0:
448,192,265276,1,0,0:0:0:0:
320,192,265369,1,0,0:0:0:0:
64,192,265461,1,0,0:0:0:0:
320,192,265647,1,0,0:0:0:0:
192,192,265832,1,0,0:0:0:0:
64,192,266017,1,0,0:0:0:0:
192,192,266110,1,0,0:0:0:0:
320,192,266202,1,0,0:0:0:0:
448,192,266387,1,0,0:0:0:0:
192,192,266573,1,0,0:0:0:0:
320,192,266758,1,0,0:0:0:0:
192,192,266850,1,0,0:0:0:0:
64,192,266943,1,0,0:0:0:0:
320,192,267128,1,0,0:0:0:0:
64,192,267313,1,0,0:0:0:0:
192,192,267313,1,0,0:0:0:0:
448,192,267498,1,0,0:0:0:0:
192,192,267684,1,0,0:0:0:0:
320,192,267684,1,0,0:0:0:0:
64,192,267869,1,0,0:0:0:0:
320,192,268054,1,0,0:0:0:0:
448,192,268054,1,0,0:0:0:0:
192,192,268239,1,0,0:0:0:0:
448,192,268424,1,0,0:0:0:0:
64,192,268610,1,0,0:0:0:0:
192,192,268610,1,0,0:0:0:0:
320,192,268795,1,0,0:0:0:0:
448,192,268980,1,0,0:0:0:0:
192,192,269165,1,0,0:0:0:0:
320,192,269258,1,0,0:0:0:0:
448,192,269350,1,0,0:0:0:0:
320,192,269443,1,0,0:0:0:0:
448,192,269535,1,0,0:0:0:0:
320,192,269628,1,0,0:0:0:0:
448,192,269721,1,0,0:0:0:0:
320,192,269813,1,0,0:0:0:0:
448,192,269906,1,0,0:0:0:0:
320,192,269998,1,0,0:0:0:0:
192,192,270091,1,0,0:0:0:0:
64,192,270184,1,0,0:0:0:0:
192,192,270276,1,0,0:0:0:0:
320,192,270369,1,0,0:0:0:0:
448,192,270461,1,0,0:0:0:0:
64,192,270461,1,0,0:0:0:0:
192,192,270647,1,0,0:0:0:0:
320,192,270832,1,0,0:0:0:0:
64,192,271017,1,0,0:0:0:0:
320,192,271202,1,0,0:0:0:0:
448,192,271202,1,0,0:0:0:0:
192,192,271387,1,0,0:0:0:0:
320,192,271573,1,0,0:0:0:0:
64,192,271758,1,0,0:0:0:0:
192,192,271758,1,0,0:0:0:0:
448,192,271943,1,0,0:0:0:0:
320,192,272128,1,0,0:0:0:0:
192,192,272128,1,0,0:0:0:0:
64,192,272313,1,0,0:0:0:0:
192,192,272498,1,0,0:0:0:0:
448,192,272498,1,0,0:0:0:0:
320,192,272684,1,0,0:0:0:0:
64,192,273054,1,0,0:0:0:0:
320,192,273239,1,0,0:0:0:0:
64,192,273424,1,0,0:0:0:0:
192,192,273610,1,0,0:0:0:0:
320,192,273702,1,0,0:0:0:0:
192,192,273795,1,0,0:0:0:0:
64,192,273887,1,0,0:0:0:0:
192,192,273980,1,0,0:0:0:0:
320,192,274073,1,0,0:0:0:0:
448,192,274165,1,0,0:0:0:0:
320,192,274258,1,0,0:0:0:0:
192,192,274350,1,0,0:0:0:0:
64,192,274443,1,0,0:0:0:0:
192,192,274535,1,0,0:0:0:0:
320,192,274628,1,0,0:0:0:0:
448,192,274721,1,0,0:0:0:0:
320,192,274813,1,0,0:0:0:0:
192,192,274906,1,0,0:0:0:0:
320,192,274998,1,0,0:0:0:0:
192,192,275091,1,0,0:0:0:0:
320,192,275184,1,0,0:0:0:0:
192,192,275276,1,0,0:0:0:0:
448,192,275461,1,0,0:0:0:0:
64,192,275647,1,0,0:0:0:0:
192,192,275832,1,0,0:0:0:0:
320,192,275924,1,0,0:0:0:0:
448,192,276017,1,0,0:0:0:0:
320,192,276110,1,0,0:0:0:0:
64,192,276202,1,0,0:0:0:0:
192,192,276295,1,0,0:0:0:0:
320,192,276387,1,0,0:0:0:0:
448,192,276480,1,0,0:0:0:0:
64,192,276573,1,0,0:0:0:0:
192,192,276573,1,0,0:0:0:0:
320,192,276758,1,0,0:0:0:0:
448,192,276943,1,0,0:0:0:0:
320,192,277035,1,0,0:0:0:0:
192,192,277128,1,0,0:0:0:0:
320,192,277313,1,0,0:0:0:0:
448,192,277313,1,0,0:0:0:0:
192,192,277498,1,0,0:0:0:0:
64,192,277684,1,0,0:0:0:0:
192,192,277776,1,0,0:0:0:0:
320,192,277869,1,0,0:0:0:0:
192,192,278054,1,0,0:0:0:0:
320,192,278054,1,0,0:0:0:0:
64,192,278239,1,0,0:0:0:0:
192,192,278424,1,0,0:0:0:0:
320,192,278517,1,0,0:0:0:0:
448,192,278610,1,0,0:0:0:0:
320,192,278702,1,0,0:0:0:0:
192,192,278795,1,0,0:0:0:0:
64,192,278887,1,0,0:0:0:0:
448,192,278980,1,0,0:0:0:0:
192,192,279165,1,0,0:0:0:0:
320,192,279165,1,0,0:0:0:0:
64,192,279350,1,0,0:0:0:0:
320,192,279535,1,0,0:0:0:0:
448,192,279535,1,0,0:0:0:0:
192,192,279906,1,0,0:0:0:0:
64,192,279906,1,0,0:0:0:0:
320,192,280276,1,0,0:0:0:0:
448,192,280276,1,0,0:0:0:0:
64,192,280647,1,0,0:0:0:0:
192,192,280647,1,0,0:0:0:0:
320,192,280832,1,0,0:0:0:0:
192,192,281017,1,0,0:0:0:0:
448,192,281202,1,0,0:0:0:0:
64,192,281202,1,0,0:0:0:0:
192,192,281387,1,0,0:0:0:0:
320,192,281480,1,0,0:0:0:0:
448,192,281573,1,0,0:0:0:0:
320,192,281665,1,0,0:0:0:0:
192,192,281758,1,0,0:0:0:0:
64,192,281850,1,0,0:0:0:0:
192,192,281943,1,0,0:0:0:0:
320,192,282035,1,0,0:0:0:0:
192,192,282128,1,0,0:0:0:0:
320,192,282221,1,0,0:0:0:0:
192,192,282313,1,0,0:0:0:0:
448,192,282406,1,0,0:0:0:0:
64,192,282498,1,0,0:0:0:0:
320,192,282684,1,0,0:0:0:0:
448,192,282684,1,0,0:0:0:0:
192,192,282869,1,0,0:0:0:0:
64,192,282869,1,0,0:0:0:0:
320,192,283054,1,0,0:0:0:0:
448,192,283054,1,0,0:0:0:0:
192,192,283239,1,0,0:0:0:0:
448,192,283424,1,0,0:0:0:0:
192,192,283610,1,0,0:0:0:0:
320,192,283610,1,0,0:0:0:0:
64,192,283795,1,0,0:0:0:0:
320,192,283980,1,0,0:0:0:0:
448,192,283980,1,0,0:0:0:0:
192,192,284165,1,0,0:0:0:0:
64,192,284165,1,0,0:0:0:0:
320,192,284350,1,0,0:0:0:0:
192,192,284350,1,0,0:0:0:0:
448,192,284535,1,0,0:0:0:0:
64,192,284535,1,0,0:0:0:0:
192,192,284906,1,0,0:0:0:0:
320,192,284998,1,0,0:0:0:0:
448,192,285091,1,0,0:0:0:0:
320,192,285184,1,0,0:0:0:0:
192,192,285276,1,0,0:0:0:0:
64,192,285369,1,0,0:0:0:0:
192,192,285461,1,0,0:0:0:0:
448,192,285461,1,0,0:0:0:0:
448,192,285647,1,0,0:0:0:0:
320,192,285739,1,0,0:0:0:0:
192,192,285832,1,0,0:0:0:0:
64,192,285924,1,0,0:0:0:0:
192,192,286017,1,0,0:0:0:0:
448,192,286017,1,0,0:0:0:0:
320,192,286202,1,0,0:0:0:0:
192,192,286295,1,0,0:0:0:0:
64,192,286387,1,0,0:0:0:0:
192,192,286480,1,0,0:0:0:0:
320,192,286573,1,0,0:0:0:0:
448,192,286665,1,0,0:0:0:0:
320,192,286758,1,0,0:0:0:0:
64,192,286758,1,0,0:0:0:0:
192,192,286943,1,0,0:0:0:0:
320,192,287128,1,0,0:0:0:0:
64,192,287313,1,0,0:0:0:0:
448,192,287498,1,0,0:0:0:0:
64,192,287684,1,0,0:0:0:0:
192,192,287869,1,0,0:0:0:0:
320,192,287961,1,0,0:0:0:0:
448,192,288054,1,0,0:0:0:0:
320,192,288147,1,0,0:0:0:0:
192,192,288239,1,0,0:0:0:0:
64,192,288332,1,0,0:0:0:0:
448,192,288424,1,0,0:0:0:0:
192,192,288610,1,0,0:0:0:0:
320,192,288610,1,0,0:0:0:0:
64,192,288795,1,0,0:0:0:0:
192,192,288887,1,0,0:0:0:0:
320,192,288980,1,0,0:0:0:0:
64,192,289165,1,0,0:0:0:0:
448,192,289165,1,0,0:0:0:0:
320,192,289350,1,0,0:0:0:0:
64,192,289535,1,0,0:0:0:0:
192,192,289628,1,0,0:0:0:0:
320,192,289721,1,0,0:0:0:0:
448,192,289813,1,0,0:0:0:0:
64,192,289906,1,0,0:0:0:0:
192,192,289998,1,0,0:0:0:0:
320,192,290091,1,0,0:0:0:0:
448,192,290184,1,0,0:0:0:0:
320,192,290276,1,0,0:0:0:0:
192,192,290369,1,0,0:0:0:0:
64,192,290461,1,0,0:0:0:0:
192,192,290554,1,0,0:0:0:0:
320,192,290647,1,0,0:0:0:0:
448,192,290739,1,0,0:0:0:0:
320,192,290832,1,0,0:0:0:0:
192,192,290924,1,0,0:0:0:0:
64,192,291017,1,0,0:0:0:0:
448,192,291202,1,0,0:0:0:0:
192,192,291202,1,0,0:0:0:0:
320,192,291387,1,0,0:0:0:0:
64,192,291573,1,0,0:0:0:0:
192,192,291573,1,0,0:0:0:0:
320,192,291758,1,0,0:0:0:0:
192,192,291850,1,0,0:0:0:0:
64,192,291943,1,0,0:0:0:0:
192,192,292035,1,0,0:0:0:0:
320,192,292128,1,0,0:0:0:0:
448,192,292221,1,0,0:0:0:0:
64,192,292313,1,0,0:0:0:0:
448,192,292498,1,0,0:0:0:0:
320,192,292498,1,0,0:0:0:0:
192,192,292684,1,0,0:0:0:0:
320,192,292869,1,0,0:0:0:0:
64,192,292869,1,0,0:0:0:0:
192,192,293054,1,0,0:0:0:0:
448,192,293239,1,0,0:0:0:0:
192,192,293424,1,0,0:0:0:0:
320,192,293610,1,0,0:0:0:0:
192,192,293702,1,0,0:0:0:0:
64,192,293795,1,0,0:0:0:0:
192,192,293887,1,0,0:0:0:0:
320,192,293980,1,0,0:0:0:0:
448,192,294073,1,0,0:0:0:0:
320,192,294165,1,0,0:0:0:0:
192,192,294258,1,0,0:0:0:0:
64,192,294350,1,0,0:0:0:0:
448,192,294535,1,0,0:0:0:0:
320,192,294535,1,0,0:0:0:0:
64,192,294721,1,0,0:0:0:0:
192,192,294813,1,0,0:0:0:0:
320,192,294906,1,0,0:0:0:0:
448,192,294906,1,0,0:0:0:0:
64,192,295091,1,0,0:0:0:0:
448,192,295276,1,0,0:0:0:0:
320,192,295461,1,0,0:0:0:0:
192,192,295554,1,0,0:0:0:0:
64,192,295647,1,0,0:0:0:0:
448,192,295832,1,0,0:0:0:0:
320,192,296017,1,0,0:0:0:0:
192,192,296110,1,0,0:0:0:0:
64,192,296202,1,0,0:0:0:0:
192,192,296295,1,0,0:0:0:0:
320,192,296387,1,0,0:0:0:0:
192,192,296480,1,0,0:0:0:0:
64,192,296573,1,0,0:0:0:0:
192,192,296665,1,0,0:0:0:0:
320,192,296758,1,0,0:0:0:0:
448,192,296850,1,0,0:0:0:0:
320,192,296943,1,0,0:0:0:0:
192,192,297035,1,0,0:0:0:0:
64,192,297128,1,0,0:0:0:0:
448,192,297313,1,0,0:0:0:0:
192,192,297498,1,0,0:0:0:0:
448,192,297684,1,0,0:0:0:0:
320,192,297776,1,0,0:0:0:0:
192,192,297869,1,0,0:0:0:0:
64,192,297961,1,0,0:0:0:0:
448,192,298054,1,0,0:0:0:0:
192,192,298239,1,0,0:0:0:0:
64,192,298424,1,0,0:0:0:0:
448,192,298610,1,0,0:0:0:0:
192,192,298795,1,0,0:0:0:0:
320,192,298795,1,0,0:0:0:0:
448,192,298980,1,0,0:0:0:0:
320,192,299073,1,0,0:0:0:0:
64,192,299165,1,0,0:0:0:0:
192,192,299165,1,0,0:0:0:0:
448,192,299350,1,0,0:0:0:0:
320,192,299350,1,0,0:0:0:0:
320,192,299535,1,0,0:0:0:0:
192,192,299535,1,0,0:0:0:0:
64,192,299628,1,0,0:0:0:0:
192,192,299721,1,0,0:0:0:0:
64,192,299813,1,0,0:0:0:0:
192,192,299906,1,0,0:0:0:0:
320,192,299998,1,0,0:0:0:0:
448,192,300091,1,0,0:0:0:0:
320,192,300184,1,0,0:0:0:0:
64,192,300276,1,0,0:0:0:0:
448,192,300276,1,0,0:0:0:0:
192,192,300461,1,0,0:0:0:0:
320,192,300461,1,0,0:0:0:0:
64,192,300647,1,0,0:0:0:0:
192,192,300739,1,0,0:0:0:0:
448,192,300924,1,0,0:0:0:0:
320,192,301017,1,0,0:0:0:0:
64,192,301202,1,0,0:0:0:0:
192,192,301295,1,0,0:0:0:0:
320,192,301387,1,0,0:0:0:0:
192,192,301480,1,0,0:0:0:0:
320,192,301573,1,0,0:0:0:0:
64,192,301758,1,0,0:0:0:0:
192,192,301850,1,0,0:0:0:0:
320,192,301943,1,0,0:0:0:0:
448,192,302035,1,0,0:0:0:0:
320,192,302128,1,0,0:0:0:0:
192,192,302221,1,0,0:0:0:0:
64,192,302313,1,0,0:0:0:0:
192,192,302406,1,0,0:0:0:0:
320,192,302498,1,0,0:0:0:0:
448,192,302591,1,0,0:0:0:0:
320,192,302684,1,0,0:0:0:0:
192,192,302776,1,0,0:0:0:0:
64,192,302869,1,0,0:0:0:0:
448,192,302869,1,0,0:0:0:0:
320,192,303054,1,0,0:0:0:0:
192,192,303054,1,0,0:0:0:0:
448,192,303239,1,0,0:0:0:0:
192,192,303424,1,0,0:0:0:0:
64,192,303424,1,0,0:0:0:0:
320,192,303610,1,0,0:0:0:0:
192,192,303702,1,0,0:0:0:0:
64,192,303795,1,0,0:0:0:0:
192,192,303887,1,0,0:0:0:0:
320,192,303980,1,0,0:0:0:0:
448,192,304073,1,0,0:0:0:0:
320,192,304165,1,0,0:0:0:0:
192,192,304350,1,0,0:0:0:0:
448,192,304535,1,0,0:0:0:0:
64,192,304721,1,0,0:0:0:0:
192,192,304813,1,0,0:0:0:0:
320,192,304906,1,0,0:0:0:0:
448,192,304998,1,0,0:0:0:0:
320,192,305091,1,0,0:0:0:0:
64,192,305276,1,0,0:0:0:0:
448,192,305461,1,0,0:0:0:0:
320,192,305554,1,0,0:0:0:0:
192,192,305647,1,0,0:0:0:0:
64,192,305739,1,0,0:0:0:0:
192,192,305832,1,0,0:0:0:0:
320,192,305924,1,0,0:0:0:0:
448,192,306017,1,0,0:0:0:0:
320,192,306110,1,0,0:0:0:0:
192,192,306202,1,0,0:0:0:0:
320,192,306387,1,0,0:0:0:0:
192,192,306573,1,0,0:0:0:0:
64,192,306665,1,0,0:0:0:0:
320,192,306758,1,0,0:0:0:0:
448,192,306850,1,0,0:0:0:0:
320,192,306943,1,0,0:0:0:0:
192,192,307035,1,0,0:0:0:0:
64,192,307128,1,0,0:0:0:0:
320,192,307313,1,0,0:0:0:0:
448,192,307498,1,0,0:0:0:0:
192,192,307684,1,0,0:0:0:0:
320,192,307869,1,0,0:0:0:0:
192,192,307961,1,0,0:0:0:0:
448,192,308054,1,0,0:0:0:0:
320,192,308147,1,0,0:0:0:0:
64,192,308239,1,0,0:0:0:0:
192,192,308332,1,0,0:0:0:0:
448,192,308424,1,0,0:0:0:0:
320,192,308517,1,0,0:0:0:0:
192,192,308610,1,0,0:0:0:0:
64,192,308702,1,0,0:0:0:0:
320,192,308702,1,0,0:0:0:0:
448,192,308795,1,0,0:0:0:0:
192,192,308887,1,0,0:0:0:0:
64,192,308980,1,0,0:0:0:0:
320,192,308980,1,0,0:0:0:0:
448,192,309073,1,0,0:0:0:0:
192,192,309165,1,0,0:0:0:0:
320,192,309350,1,0,0:0:0:0:
64,192,309535,1,0,0:0:0:0:
192,192,309535,1,0,0:0:0:0:
320,192,309628,1,0,0:0:0:0:
448,192,309721,1,0,0:0:0:0:
320,192,309813,1,0,0:0:0:0:
64,192,309906,1,0,0:0:0:0:
192,192,309906,1,0,0:0:0:0:
320,192,310091,1,0,0:0:0:0:
448,192,310184,1,0,0:0:0:0:
192,192,310276,1,0,0:0:0:0:
320,192,310461,1,0,0:0:0:0:
64,192,310647,1,0,0:0:0:0:
192,192,310647,1,0,0:0:0:0:
320,192,310832,1,0,0:0:0:0:
448,192,310832,1,0,0:0:0:0:
192,192,311017,1,0,0:0:0:0:
320,192,311017,1,0,0:0:0:0:
448,192,311202,1,0,0:0:0:0:
192,192,311387,1,0,0:0:0:0:
320,192,311480,1,0,0:0:0:0:
192,192,311573,1,0,0:0:0:0:
64,192,311665,1,0,0:0:0:0:
320,192,311758,1,0,0:0:0:0:
192,192,311850,1,0,0:0:0:0:
320,192,311943,1,0,0:0:0:0:
448,192,312035,1,0,0:0:0:0:
320,192,312128,1,0,0:0:0:0:
64,192,312128,1,0,0:0:0:0:
192,192,312221,1,0,0:0:0:0:
320,192,312313,1,0,0:0:0:0:
448,192,312498,5,0,0:0:0:0:
320,192,312591,1,0,0:0:0:0:
64,192,312684,1,0,0:0:0:0:
192,192,312869,1,0,0:0:0:0:
320,192,313054,1,0,0:0:0:0:
192,192,313147,1,0,0:0:0:0:
448,192,313239,1,0,0:0:0:0:
64,192,313239,1,0,0:0:0:0:
320,192,313424,1,0,0:0:0:0:
192,192,313424,1,0,0:0:0:0:
448,192,313610,128,0,315091:0:0:0:0:
192,192,313610,128,0,315091:0:0:0:0:
64,192,313610,128,0,315091:0:0:0:0:
320,192,313610,128,0,315091:0:0:0:0:
