osu file format v5

[General]
AudioFilename: Crayon Shin-chan - Dame Dame no Uta.mp3
AudioLeadIn: 0
PreviewTime: -1
Countdown: 0
SampleSet: Normal
StackLeniency: 0.7
Mode: 0
LetterboxInBreaks: 1

[Editor]
Bookmarks: 26602
DistanceSpacing: 0.800000011920929
BeatDivisor: 8
GridSize: 32

[Metadata]
Title:Dame Dame no Uta
Artist:Crayon Shin Chan
Creator:whdenska
Version:Hyper Dame
Source:
Tags:

[Difficulty]
HPDrainRate:7
CircleSize:6
OverallDifficulty:6
SliderMultiplier:1.9
SliderTickRate:2

[Events]
//Background and Video events
0,0,"Uta.jpg"
Video,0,"1562293.flv"
//Break Periods
2,12459,24650
//Storyboard Layer 0 (Background)
//Storyboard Layer 1 (Fail)
//Storyboard Layer 2 (Pass)
//Storyboard Layer 3 (Foreground)
//Storyboard Sound Samples
//Background Colour Transformations
3,100,163,162,255

[TimingPoints]
12,389.61038961039,4,1,0,100,1,0
3269,-50,4,1,0,100,0,0
6195,-100,4,1,0,100,0,0
6720,-50,4,1,0,100,0,0
9277,-100,4,1,0,100,0,0
10677,-200,4,1,0,100,0,0
25016,-100,4,1,0,100,0,0
27213,-50,4,1,0,100,0,0
28233,-100,4,1,0,100,0,0
37058,-200,4,2,0,30,0,0
40091,-50,4,1,0,100,0,0
41720,-100,4,1,0,100,0,0
58003,-50,4,1,0,11,0,0

[HitObjects]
32,352,2031,2,2,B|224:352,1,190
288,352,2739,2,8,B|512:352,1,190
416,288,3567,2,4,B|256:192|160:192|160:224|64:192,3,332.5
480,192,4979,5,2
416,0,5174,1,2
352,192,5369,1,2
288,32,5563,1,2
224,192,5758,1,2
192,32,5953,1,2
128,192,6148,1,2
96,32,6343,1,4
32,128,6537,2,2,B|160:128,2,95
64,192,7073,1,8
32,224,7268,2,4,B|64:288|160:320|320:320|416:288,1,380
480,288,7950,6,2,B|480:128,2,142.5
416,224,8388,2,2,B|256:224,2,142.5
384,320,8778,1,4
256,352,9119,1,4
192,320,9460,2,8,B|96:224,5,95
160,192,10921,2,0,B|272:191,1,95
309,157,11700,2,2,B|379:216|350:316,1,142.5
111,204,25726,6,8,B|41:250|108:282,1,95
128,293,26115,2,8,B|160:321|235:300,1,95
254,286,26505,2,2,B|307:281|316:235,2,47.5
256,192,26895,1,4
256,192,27089,1,4
128,128,27430,2,4,B|352:128,3,190
411,185,28745,6,8,B|367:250|426:262|408:292,1,95
425,345,29135,2,8,B|368:356|311:344,1,95
281,282,29524,1,4
281,282,29687,1,4
281,282,29817,1,4
281,282,30012,1,4
256,192,30336,12,4,31310
77,326,31700,6,2,B|172:352,1,95
77,326,32057,2,2,B|172:352,1,95
256,320,32447,1,4
320,288,32641,1,4
352,224,32836,1,4
320,160,33031,1,4
256,192,33323,12,4,34297
64,352,34589,6,8,B|64:288|128:256,1,95
128,224,34979,1,6
149,179,35076,1,6
192,160,35174,1,6
192,224,35369,2,6,B|256:256|288:320,1,95
288,352,35758,1,8
288,352,35856,1,8
288,352,35953,1,8
288,352,36050,1,8
288,352,36148,1,8
352,224,36343,5,12
352,160,36440,1,12
288,160,36537,1,12
288,96,36635,1,12
224,128,36732,1,12
192,192,36830,1,12
160,96,36927,1,12
128,160,37024,1,12
96,96,37219,1,12
32,224,37414,1,12
128,256,37609,1,12
128,320,37999,2,2,B|160:352|224:352|320:352|352:352|384:288,1,237.5
256,192,39752,12,4,40141
96,288,40531,6,8,B|256:288|480:288,2,380
64,256,41602,1,2
128,224,41830,2,4,B|192:128|256:128|320:160|384:224,1,285
288,320,43550,5,2
256,352,43745,1,2
224,320,43940,1,2
256,288,44135,1,2
256,224,44330,2,4,B|288:160|288:128|256:96|224:32|256:0|288:0,1,237.5
320,64,45986,2,2,B,2,47.5
224,320,46570,6,2,B|192:256,1,47.5
288,288,46960,1,2
320,256,47057,1,2
352,224,47154,1,2
256,192,47252,2,2,B|320:96,1,95
352,128,47934,1,4
384,128,48031,1,4
384,160,48128,1,4
416,160,48226,1,4
416,192,48323,1,4
448,192,48421,1,4
448,224,48518,1,4
448,256,48616,1,4
416,256,48713,1,4
416,288,48811,1,4
384,320,48908,1,4
352,288,49005,1,4
320,256,49103,1,4
288,224,49200,1,4
256,160,49395,6,2,B|160:224|160:224|160:320,1,190
224,288,49979,2,0,B|480:256,1,237.5
192,352,50953,2,2,B|288:352,3,95
320,352,51732,1,8
320,352,51830,1,8
320,352,52024,1,8
320,352,52219,1,8
352,352,52414,2,2,B|384:352|416:352|448:320|448:288|448:192,1,213.75
416,128,53875,2,2,B|384:96|320:96|288:128|288:160|256:192|224:192|192:192|160:192,1,237.5
192,320,55336,2,8,B|256:384,1,71.25
288,320,55580,2,8,B|352:256,1,71.25
288,224,55872,2,8,B|192:160,1,95
160,224,56213,2,8,B|64:320,1,118.75
76,307,56700,1,4
76,307,56846,1,4
160,288,58258,5,4
256,288,58404,1,4
288,288,58550,1,4
352,256,58745,1,4
384,224,58843,1,4
352,192,59037,1,4
288,192,59184,1,4
256,192,59330,1,4
192,224,59476,1,4
160,192,59622,1,4
160,160,59768,1,4
192,128,59914,1,4
256,96,60547,2,4,B|256:160,2,47.5
