osu file format v5

[General]
AudioFilename: Crayon Shin-chan - Dame Dame no Uta.mp3
AudioLeadIn: 0
PreviewTime: -1
Countdown: 0
SampleSet: Normal
StackLeniency: 0.7
Mode: 0
LetterboxInBreaks: 1

[Editor]
DistanceSpacing: 0.800000011920929
BeatDivisor: 4
GridSize: 32

[Metadata]
Title:Dame Dame no Uta
Artist:Crayon Shin Chan
Creator:whdenska
Version:Dame Dame Attack
Source:
Tags:

[Difficulty]
HPDrainRate:6
CircleSize:5
OverallDifficulty:6
SliderMultiplier:1.9
SliderTickRate:2

[Events]
//Background and Video events
0,0,"Uta.jpg"
Video,0,"1562293.flv"
//Break Periods
2,12459,24650
//Storyboard Layer 0 (Background)
//Storyboard Layer 1 (Fail)
//Storyboard Layer 2 (Pass)
//Storyboard Layer 3 (Foreground)
//Storyboard Sound Samples
//Background Colour Transformations
3,100,163,162,255

[TimingPoints]
3492.82580791302,389.61038961039,4,1,0,100,1,0
37058,-200,4,2,0,0,0,0
40091,-100,4,1,0,100,0,0
58003,-100,4,1,0,11,0,0

[HitObjects]
96,320,2031,1,2
160,320,2421,1,2
224,320,2811,1,2
288,320,3200,1,2
384,320,3492,1,2
352,288,3590,1,2
352,288,3687,1,2
320,288,3785,1,2
320,288,3882,1,2
288,320,3979,1,2
320,352,4077,1,2
320,352,4174,1,2
352,352,4272,1,2
352,352,4369,1,2
352,320,4466,1,2
352,288,4564,1,2
320,288,4661,1,2
288,320,4759,1,2
288,352,4856,1,2
288,352,4953,1,2
192,352,5051,6,4,B|192:160,3,190
256,128,6414,1,2
288,192,6609,1,2
256,256,6804,1,2
256,320,6901,1,2
192,288,6999,1,2
224,224,7096,1,2
160,224,7194,1,2
192,160,7291,1,2
128,128,7389,1,2
96,192,7486,1,2
64,256,7584,1,2
64,256,7681,1,2
64,256,7778,1,2
128,320,7973,5,4
192,320,8070,1,4
256,320,8168,1,4
256,320,8265,1,4
320,320,8362,1,4
352,320,8460,1,4
416,320,8557,1,4
480,320,8655,1,4
480,256,8752,1,4
384,256,8849,1,4
320,256,8947,1,4
256,256,9044,1,4
224,256,9142,1,4
192,256,9239,1,4
128,256,9336,1,4
64,256,9434,1,4
256,192,9726,12,0,12259
96,96,25700,5,0
224,96,26090,1,0
192,160,26285,1,0
160,192,26479,1,0
128,224,26674,1,0
160,256,26869,1,0
192,288,27064,1,2
288,288,27453,2,4,B|384:288,3,95
320,224,28720,5,2
352,160,28914,1,2
384,224,29109,1,2
352,288,29304,1,2
288,352,29499,1,2
256,288,29694,1,2
224,224,29888,1,2
256,160,30083,1,2
288,96,30375,2,4,B|352:96|384:128|352:128,3,95
128,224,31642,5,2
128,224,31836,1,2
256,320,32226,1,2
320,288,32421,1,2
256,256,32616,1,2
256,192,32811,1,2
320,224,33005,1,2
320,160,33298,2,4,B|448:160,3,95
128,320,34661,6,8,B|64:288|64:224,1,95
128,320,35051,2,2,B|192:320|224:256,1,95
128,320,35440,2,6,B|128:256,5,47.5
448,256,36317,2,6,B|448:160,3,95
160,64,37778,6,0,B|96:128|96:224|128:256|192:288,1,237.5
256,256,39142,1,0
320,224,39336,1,0
256,192,39531,1,0
320,160,39726,1,0
256,128,39921,1,0
256,192,40603,12,2,41674
256,192,42064,12,2,43135
256,192,43525,12,4,45375
256,64,45700,5,8
256,192,45960,1,6
256,192,46057,1,6
256,192,46155,1,6
256,192,46252,1,6
256,192,46349,1,6
64,320,46544,5,2
96,288,46739,1,2
160,320,46836,2,2,B|320:320,1,142.5
302,320,47323,2,8,B|320:256,1,47.5
384,320,47518,2,2,B,3,47.5
448,256,47908,2,4,B|480:224|512:128|448:96|416:96,3,190
384,128,49369,2,2,B|352:160|320:224|384:224|384:288|320:320,1,190
288,352,50148,2,2,B|256:352|160:384|96:320,1,190
128,256,50927,2,4,B|256:192|320:224|448:192|448:96|384:64,1,380
384,352,52388,5,2
352,352,52583,1,2
320,352,52778,1,2
288,352,52973,1,2
256,288,53168,6,4,B|384:288,2,95
416,224,53947,2,4,B|288:224,2,95
288,160,54629,2,4,B|384:160,2,95
256,96,55408,2,2,B|320:96,15,47.5
96,224,58427,5,0
128,256,58525,1,0
160,288,58720,1,0
192,320,58914,1,0
256,256,59499,1,0
256,96,60668,1,0
256,160,60960,1,0
