osu file format v5

[General]
AudioFilename: Dame Dame no Uta.mp3
AudioLeadIn: 0
PreviewTime: -1
Countdown: 1
SampleSet: Normal
StackLeniency: 0
Mode: 0
LetterboxInBreaks: 1
EditorBookmarks: 26029,37511,40844,46770,72881,97140,108622,111955,131214

[Metadata]
Title:Dame Dame no Uta
Artist:Crayon Shin Chan
Creator:Reikin
Version:DAME DAME DAME DAME
Source:
Tags:

[Difficulty]
HPDrainRate:3
CircleSize:5
OverallDifficulty:8
SliderMultiplier:2.6
SliderTickRate:1

[Events]
//Background and Video events
//Break Periods
2,37711,40094
2,61229,72131
2,108822,111205
//Storyboard Layer 0 (Background)
//Storyboard Layer 1 (Failing)
//Storyboard Layer 2 (Passing)
//Storyboard Layer 3 (Foreground)
//Storyboard Sound Samples
//Background Colour Transformations
3,100,163,162,255

[TimingPoints]
2326,370.37037037037,4,1,0,60,1

[HitObjects]
256,192,1770,1,2
256,192,1863,1,0
256,192,1955,1,2
256,192,2140,1,2
64,64,2325,5,0
96,64,2418,1,0
128,64,2511,1,0
160,96,2603,1,0
192,64,2696,1,0
224,96,2788,1,0
256,128,2881,1,0
288,96,2974,1,0
320,128,3066,1,0
384,96,3251,5,0
416,64,3344,1,0
448,96,3437,1,0
416,128,3529,1,0
448,160,3622,1,0
416,192,3714,1,0
384,224,3807,1,0
416,256,3900,1,0
384,288,3992,1,2
416,320,4085,1,0
384,352,4177,1,2
352,320,4270,1,0
320,288,4363,1,2
288,320,4455,1,0
256,288,4548,1,2
224,320,4640,1,0
192,288,4733,1,2
160,320,4825,1,0
128,288,4918,1,2
160,256,5011,1,0
128,224,5103,1,2
160,192,5196,1,0
192,160,5288,5,2
224,160,5381,1,0
256,128,5474,1,0
256,96,5566,1,0
288,64,5659,1,0
352,96,5844,1,0
416,128,6029,1,0
384,160,6122,1,0
352,192,6214,1,0
384,224,6307,1,0
416,224,6400,1,0
416,288,6585,1,0
384,288,6677,1,0
352,288,6770,1,0
288,256,6955,1,0
256,256,7048,1,0
256,224,7140,2,0,B|256:64,2,130,2|2|2
224,192,7603,1,0
192,192,7696,1,2
160,160,7788,1,0
192,128,7881,1,2
160,96,7974,1,0
128,96,8066,1,2
96,64,8159,1,0
64,96,8251,5,2
64,160,8437,1,0
64,192,8529,1,0
64,288,8807,1,0
128,288,8992,1,0
160,352,9177,1,0
224,352,9363,1,0
256,320,9455,1,0
288,288,9548,1,0
320,320,9640,1,0
352,288,9733,1,0
320,256,9825,1,0
320,224,9918,1,2
320,192,10011,1,0
288,192,10103,1,2
256,160,10196,1,0
256,128,10288,1,2
224,96,10381,1,0
192,128,10474,1,2
160,96,10566,1,0
128,128,10659,1,2
160,160,10751,1,0
192,192,10844,1,2
160,224,10937,1,0
192,256,11029,1,2
224,256,11122,1,0
256,288,11214,5,2
288,320,11307,1,0
320,320,11400,1,0
352,288,11492,1,0
352,256,11585,1,0
384,224,11677,1,0
416,192,11770,1,0
384,160,11863,1,0
416,128,11955,1,0
416,96,12048,1,0
416,64,12140,1,0
384,32,12233,1,0
352,64,12325,1,0
288,64,12511,1,0
256,32,12603,1,0
256,192,12696,12,2,13807
192,64,14177,5,0
320,64,14363,1,0
320,192,14548,1,0
192,192,14733,1,0
192,64,14918,1,0
320,128,15103,1,2
256,128,15196,1,0
192,128,15288,1,2
320,192,15474,1,0
320,320,15659,5,0
192,320,15845,1,0
192,192,16030,1,0
320,192,16215,1,0
320,320,16400,1,0
192,256,16585,1,2
256,256,16678,1,0
320,256,16770,1,2
192,192,16956,1,0
256,96,17140,5,0
352,192,17325,1,0
256,288,17511,1,0
160,192,17696,1,0
256,96,17881,1,0
304,240,18066,1,2
256,192,18159,1,0
208,144,18251,1,2
256,288,18437,1,0
256,192,18529,12,0,18807
256,192,18900,12,2,19733
384,128,20103,5,0
384,256,20289,1,0
256,256,20474,1,0
256,128,20659,1,0
384,128,20844,1,0
320,256,21029,1,2
320,192,21122,1,0
320,128,21214,1,2
256,256,21400,1,0
128,256,21585,5,0
128,128,21771,1,0
256,128,21956,1,0
256,256,22141,1,0
128,256,22326,1,0
192,128,22511,1,2
192,192,22604,1,0
192,256,22696,1,2
256,128,22882,1,0
256,192,23066,12,2,25659
64,64,26029,6,0,B|176:186|288:64,1,260
416,64,26770,2,0,B|440:128|416:192,1,130
320,288,27325,1,0
256,192,27511,12,2,28622
448,320,28992,6,0,B|336:198|224:320,1,260
96,320,29733,2,0,B|72:256|96:192,1,130
192,96,30288,1,0
256,192,30474,12,2,31585
448,64,31955,6,0,B|384:88|320:64,1,130
160,64,32511,1,0
96,64,32696,2,0,B|72:128|96:192,1,130
192,288,33251,1,0
256,192,33437,12,2,34548
64,320,34918,6,0,B|128:296|192:320,1,130
256,320,35288,2,0,B|320:296|384:320,1,130
384,256,35659,2,0,B|408:192|384:128,1,130
384,64,36029,2,0,B|320:40|256:64,1,130
256,192,36400,12,0,37511
192,96,40844,6,0,B|256:72|320:96,3,130
256,160,41585,2,0,B|399:256|113:256|256:352,1,260
256,192,42140,12,2,43437
192,288,43807,6,0,B|256:312|320:288,3,130
256,224,44548,2,0,B|399:128|113:128|256:32,1,260
256,192,45103,12,0,46029
256,192,46214,5,2
256,192,46400,1,2
256,192,46585,1,2
448,320,46770,5,0
416,320,46863,1,0
384,320,46956,1,0
352,288,47048,1,0
320,320,47141,1,0
288,288,47233,1,0
256,256,47326,1,0
224,288,47419,1,0
192,256,47511,1,0
128,288,47696,5,0
96,320,47789,1,0
64,288,47882,1,0
96,256,47974,1,0
64,224,48067,1,0
96,192,48159,1,0
128,160,48252,1,0
96,128,48345,1,0
128,96,48437,1,2
96,64,48530,1,0
128,32,48622,1,2
160,64,48715,1,0
192,96,48808,1,2
224,64,48900,1,0
256,96,48993,1,2
288,64,49085,1,0
320,96,49178,1,2
352,64,49270,1,0
384,96,49363,1,2
352,128,49456,1,0
384,160,49548,1,2
352,192,49641,1,0
320,224,49733,5,2
288,224,49826,1,0
256,256,49919,1,0
256,288,50011,1,0
224,320,50104,1,0
160,288,50289,1,0
96,256,50474,1,0
128,224,50567,1,0
160,192,50659,1,0
128,160,50752,1,0
96,160,50845,1,0
96,96,51030,1,0
128,96,51122,1,0
160,96,51215,1,0
224,128,51400,1,0
256,128,51493,1,0
256,160,51585,2,0,B|256:320,2,130,2|2|2
288,192,52048,1,0
320,192,52141,1,2
352,224,52233,1,0
320,256,52326,1,2
352,288,52419,1,0
384,288,52511,1,2
416,320,52604,1,0
448,288,52696,5,2
448,224,52882,1,2
448,160,53066,1,2
448,96,53252,1,2
384,96,53437,1,2
352,32,53622,1,0
320,32,53714,1,0
288,32,53808,1,0
224,64,53993,1,0
160,96,54178,1,0
192,160,54363,1,0
224,224,54548,1,0
256,224,54641,1,0
256,256,54733,1,0
288,288,54826,1,0
320,256,54919,1,0
384,256,55104,1,0
352,192,55289,1,0
320,128,55474,1,0
256,96,55659,5,2
224,64,55752,1,0
192,64,55845,1,2
160,96,55937,1,0
160,128,56030,1,2
128,160,56122,1,0
96,192,56215,1,2
128,224,56308,1,0
96,256,56400,1,2
96,288,56493,1,0
96,320,56585,1,2
128,352,56678,1,0
160,320,56770,1,2
192,352,56863,1,0
224,320,56956,1,2
256,352,57048,1,0
256,192,57141,12,2,61029
256,192,72881,5,2
256,192,72974,1,0
256,192,73066,1,2
256,192,73251,1,2
448,64,73436,5,0
416,64,73529,1,0
384,64,73622,1,0
352,96,73714,1,0
320,64,73807,1,0
288,96,73899,1,0
256,128,73992,1,0
224,96,74085,1,0
192,128,74177,1,0
128,96,74362,5,0
96,64,74455,1,0
64,96,74548,1,0
96,128,74640,1,0
64,160,74733,1,0
96,192,74825,1,0
128,224,74918,1,0
96,256,75011,1,0
128,288,75103,1,2
96,320,75196,1,0
128,352,75288,1,2
160,320,75381,1,0
192,288,75474,1,2
224,320,75566,1,0
256,288,75659,1,2
288,320,75751,1,0
320,288,75844,1,2
352,320,75936,1,0
384,288,76029,1,2
352,256,76122,1,0
384,224,76214,1,2
352,192,76307,1,0
320,160,76399,5,2
288,160,76492,1,0
256,128,76585,1,0
256,96,76677,1,0
224,64,76770,1,0
160,96,76955,1,0
96,128,77140,1,0
128,160,77233,1,0
160,192,77325,1,0
128,224,77418,1,0
96,224,77511,1,0
96,288,77696,1,0
128,288,77788,1,0
160,288,77881,1,0
224,256,78066,1,0
256,256,78159,1,0
256,224,78251,2,0,B|256:64,2,130,2|2|2
288,192,78714,1,0
320,192,78807,1,2
352,160,78899,1,0
320,128,78992,1,2
352,96,79085,1,0
384,96,79177,1,2
416,64,79270,1,0
448,96,79362,5,2
448,160,79548,1,0
448,192,79640,1,0
448,288,79918,1,0
384,288,80103,1,0
352,352,80288,1,0
288,352,80474,1,0
256,320,80566,1,0
224,288,80659,1,0
192,320,80751,1,0
160,288,80844,1,0
192,256,80936,1,0
192,224,81029,1,2
192,192,81122,1,0
224,192,81214,1,2
256,160,81307,1,0
256,128,81399,1,2
288,96,81492,1,0
320,128,81585,1,2
352,96,81677,1,0
384,128,81770,1,2
352,160,81862,1,0
320,192,81955,1,2
352,224,82048,1,0
320,256,82140,1,2
288,256,82233,1,0
256,288,82325,5,2
224,320,82418,1,0
192,320,82511,1,0
160,288,82603,1,0
160,256,82696,1,0
128,224,82788,1,0
96,192,82881,1,0
128,160,82974,1,0
96,128,83066,1,0
96,96,83159,1,0
96,64,83251,1,0
128,32,83344,1,0
160,64,83436,1,0
224,64,83622,1,0
256,32,83714,1,0
256,192,83807,12,2,84918
320,64,85288,5,0
192,64,85474,1,0
192,192,85659,1,0
320,192,85844,1,0
320,64,86029,1,0
192,128,86214,1,2
256,128,86307,1,0
320,128,86399,1,2
192,192,86585,1,0
192,320,86770,5,0
320,320,86956,1,0
320,192,87141,1,0
192,192,87326,1,0
192,320,87511,1,0
320,256,87696,1,2
256,256,87789,1,0
192,256,87881,1,2
320,192,88067,1,0
256,96,88251,5,0
160,192,88436,1,0
256,288,88622,1,0
352,192,88807,1,0
256,96,88992,1,0
208,240,89177,1,2
256,192,89270,1,0
304,144,89362,1,2
256,288,89548,1,0
256,192,89640,12,0,89918
256,192,90011,12,2,90844
128,128,91214,5,0
128,256,91400,1,0
256,256,91585,1,0
256,128,91770,1,0
128,128,91955,1,0
192,256,92140,1,2
192,192,92233,1,0
192,128,92325,1,2
256,256,92511,1,0
384,256,92696,5,0
384,128,92882,1,0
256,128,93067,1,0
256,256,93252,1,0
384,256,93437,1,0
320,128,93622,1,2
320,192,93715,1,0
320,256,93807,1,2
256,128,93993,1,0
256,192,94177,12,2,96770
64,64,97140,6,0,B|176:186|288:64,1,260
352,64,97696,1,0
416,64,97881,1,0
416,96,97974,1,0
416,128,98066,1,0
416,160,98159,1,0
416,192,98251,1,0
320,288,98436,1,0
256,192,98622,12,2,99733
448,320,100103,6,0,B|384:296|320:320,1,130
256,320,100473,2,0,B|192:296|128:320,1,130
128,256,100844,1,0
128,224,100937,1,0
128,192,101029,1,0
128,160,101122,1,0
128,128,101214,1,0
192,96,101399,1,0
256,192,101585,12,2,102696
448,64,103066,6,0,B|336:186|224:64,1,260
160,64,103622,1,0
160,128,103807,1,0
160,160,103900,1,0
160,192,103992,1,0
128,256,104177,1,0
192,288,104362,1,0
256,192,104548,12,2,105659
64,320,106029,6,0,B|128:296|192:320,1,130
256,320,106399,2,0,B|320:296|384:320,1,130
384,256,106770,2,0,B|408:192|384:128,1,130
384,64,107140,1,0
256,192,107511,12,2,108622
320,96,111955,6,0,B|256:72|192:96,3,130
256,160,112696,2,0,B|113:256|399:256|256:352,1,260
256,192,113251,12,2,114548
320,288,114918,6,0,B|256:312|192:288,3,130
256,224,115659,2,0,B|113:128|399:128|256:32,1,260
256,192,116214,12,0,117511
