osu file format v5

[General]
AudioFilename: party 4u-holy nite mix.mp3
AudioLeadIn: 0
PreviewTime: -1
Countdown: 2
SampleSet: Normal
StackLeniency: 0.7
Mode: 0
LetterboxInBreaks: 1
SkinPreference:Default
EditorBookmarks: 13800,27385,42479,51158,63800,71158,87574
EditorDistanceSpacing: 0.600000023841858

[Metadata]
Title:Party 4u "Holy Nite Mix"
Artist:Cranky
Creator:avira0922
Version:Another
Source:
Tags:

[Difficulty]
HPDrainRate:6
CircleSize:5
OverallDifficulty:7
SliderMultiplier:2.2
SliderTickRate:2

[Events]
//Background and Video events
1,0,"num1000remix-.wmv"
0,0,"num1000-2remix.png"
//Break Periods
//Storyboard Layer 0 (Background)
//Storyboard Layer 1 (Failing)
//Storyboard Layer 2 (Passing)
//Storyboard Layer 3 (Foreground)
//Storyboard Sound Samples
//Background Colour Transformations
3,100,163,162,255

[TimingPoints]
1725,377.358490566038,4,1,0,100,1,0
22857,-100,4,2,0,100,0,0
25498,-100,4,1,0,100,0,0
29272,-100,4,2,0,100,0,0
29649,-100,4,1,0,100,0,0
30026,-100,4,2,0,100,0,0
30404,-100,4,1,0,100,0,0
32291,-100,4,2,0,100,0,0
32668,-100,4,1,0,100,0,0
33045,-100,4,2,0,100,0,0
33423,-100,4,1,0,100,0,0
52291,-100,4,1,0,79,0,0
62102,-100,4,1,0,100,0,0
63989,-100,4,2,0,100,0,0
64366,-100,4,1,0,100,0,0
64743,-100,4,2,0,100,0,0
65121,-100,4,1,0,100,0,0
88517,-100,4,1,0,81,0,0
89272,-100,4,1,0,100,0,0

[Colours]
Combo1 : 255,183,74
Combo2 : 128,255,128
Combo3 : 89,172,255
Combo4 : 255,128,128

[HitObjects]
56,328,13800,1,0
96,280,13989,1,0
144,328,14177,1,0
192,280,14366,1,0
232,336,14555,2,0,B|280:280|343:354,3,110,2|2|2|2
424,256,15309,5,0
472,208,15498,1,0
416,168,15687,1,0
472,128,15875,1,0
416,96,16064,1,2
416,96,16253,1,2
472,56,16441,1,2
472,56,16630,1,2
336,72,16819,5,0
336,72,17008,1,0
280,112,17196,1,0
280,112,17385,1,0
224,144,17574,2,0,B|224:288,3,110,2|2|2|2
80,304,18328,5,0
80,304,18517,1,0
128,264,18706,1,0
128,264,18894,1,0
176,224,19083,2,2,B|176:96,3,110,2|2|2|2
400,80,19838,6,0,B|456:80,2,55,4|0|0
400,120,20215,2,0,B|472:152,2,55,4|0|0
392,160,20592,2,0,B|432:200,2,55,4|4|0
360,192,20970,2,0,B|392:256,2,55,4|4|0
312,200,21347,6,0,B|312:320,1,110,0|0
256,344,21725,1,4
256,344,21913,2,0,B|147:256|21:373,1,220,0|0
256,72,22857,5,4
256,72,22951,1,2
256,72,23045,1,2
152,152,23234,5,4
152,152,23328,1,2
152,152,23423,1,2
184,280,23611,5,4
184,280,23706,1,2
184,280,23800,1,2
312,280,23989,5,4
312,280,24083,1,2
312,280,24177,1,2
352,152,24366,5,4
352,152,24460,1,2
352,152,24555,1,2
256,192,24743,5,4
256,192,24838,1,2
256,192,24932,1,2
256,192,25121,5,4
256,192,25215,1,2
256,192,25309,1,2
256,192,25404,12,4,26630
256,96,27385,5,2
256,192,27574,1,2
352,192,27762,1,2
256,192,27951,1,2
152,192,28140,1,2
256,192,28328,1,2
256,288,28517,1,2
432,24,28894,6,0,B|584:104|392:208,1,220,0|8
430,185,29460,1,8
430,185,29649,2,0,B|582:265|390:369,1,220,0|8
428,346,30215,1,8
296,328,30404,5,2
296,296,30498,1,2
296,264,30592,1,2
216,216,30781,5,2
216,248,30875,1,2
216,280,30970,1,2
144,328,31158,5,2
144,296,31253,1,2
144,264,31347,1,2
64,216,31536,5,2
64,248,31630,1,0
64,280,31725,1,0
32,88,31913,6,0,B|137:18|253:98,1,220,0|8
238,88,32479,1,8
238,88,32668,2,0,B|343:18|459:98,1,220,0|8
444,88,33234,1,8
408,216,33423,5,2
400,248,33517,1,2
392,280,33611,1,2
320,192,33800,5,2
312,224,33894,1,2
304,256,33989,1,2
224,224,34177,5,2
216,256,34272,1,2
208,288,34366,1,2
128,256,34555,5,2
120,288,34649,1,2
112,320,34743,1,2
64,96,34932,6,0,B|154:96,2,55
96,160,35309,2,0,B|186:160,2,55
128,224,35687,2,0,B|218:224,2,55
168,288,36064,2,0,B|258:288,2,55
288,288,36441,6,2,B|378:288,2,55
336,224,36819,2,2,B|426:224,2,55
368,160,37196,2,2,B|458:160,2,55
392,96,37574,2,2,B|482:96,2,55
480,224,37951,6,0,B|480:160,2,55
416,224,38328,2,0,B|416:160,2,55
352,224,38706,2,0,B|352:160,2,55
288,224,39083,2,0,B|288:160,2,55
224,224,39460,6,2,B|224:288,2,55
160,224,39838,2,2,B|160:296,2,55
96,224,40215,2,2,B|96:296,2,55
32,224,40592,2,2,B|32:296,2,55
256,192,41158,12,4,42102
112,120,42479,5,0
160,168,42668,1,0
208,216,42857,1,2
256,264,43045,1,2
256,264,43234,5,0
304,216,43423,1,0
352,168,43611,1,2
400,120,43800,1,2
256,192,43989,12,0,45121
161,95,45498,6,0,L|135:124|135:156|183:212,1,110,0|0
224,184,45875,1,2
288,184,46064,1,2
352,184,46253,2,0,L|378:213|378:245|330:301,1,110,0|0
288,280,46630,1,2
224,280,46819,1,2
256,192,47008,12,4,48140
288,224,48328,6,0,C|448:224,1,110,0|0
288,168,48706,2,0,C|288:56,1,110,2|2
232,168,49083,2,0,C|72:168,1,110,0|0
232,224,49460,2,0,C|232:336,1,110,2|2
232,334,49838,1,2
256,192,50026,12,0,51158
256,128,51347,6,0,C|352:32,1,110,0|4
256,128,51724,2,0,C|144:24,1,110,0|4
256,128,52102,1,4
256,192,52291,5,2
256,224,52385,1,2
256,256,52479,1,2
256,288,52574,1,2
256,320,52668,1,2
72,264,53045,5,0
120,304,53234,1,0
184,328,53423,2,0,L|296:328,1,110
360,328,53800,1,2
360,296,53894,1,2
360,232,54083,1,2
360,200,54177,1,2
360,64,54555,5,0
304,104,54743,1,0
248,136,54932,2,0,L|248:272,1,110
248,312,55309,1,2
216,312,55404,1,2
152,312,55592,1,2
120,312,55687,1,2
120,136,56064,6,0,B|120:264,1,110,0|0
120,312,56441,2,0,B|176:253|247:348,1,110,0|0
280,312,56819,1,2
280,280,56913,1,2
280,216,57102,1,2
280,184,57196,1,2
440,144,57574,6,0,B|296:144,1,110,0|0
280,184,57951,2,0,B|280:296,1,110,0|0
216,296,58328,1,2
184,296,58423,1,2
120,296,58611,1,2
88,296,58706,1,2
72,168,59083,6,0,C|96:144|56:120|104:120|80:56,1,110
136,80,59460,1,2
192,48,59649,1,2
256,24,59838,2,0,B|256:176,1,110
256,200,60215,1,2
256,232,60309,1,2
256,264,60404,1,2
256,352,60592,6,0,B|352:272|460:354,3,220,0|2|0|2
440,216,62102,6,0,L|336:120,1,110,0|0
304,96,62479,2,0,L|200:192,1,110,2|0
168,136,62857,2,0,L|64:40,1,110,4|0
87,61,63234,1,2
87,61,63328,1,2
87,61,63423,1,2
200,192,63611,6,0,L|88:312,1,110,2|0
240,208,63989,6,8,L|200:328,1,110,8|0
272,208,64366,6,0,L|304:320,1,110,2|0
312,192,64743,6,8,L|424:312,1,110,8|0
160,144,65121,5,0
208,96,65309,1,0
256,48,65498,1,0
256,48,65687,1,0
304,96,65875,1,2
304,96,65970,1,2
304,96,66064,1,2
352,144,66253,1,2
352,144,66347,1,0
352,144,66441,1,0
352,232,66630,5,0
304,280,66819,1,0
256,328,67008,1,0
256,328,67196,1,0
208,280,67385,1,2
208,280,67479,1,2
208,280,67574,1,2
160,232,67762,1,2
160,232,67857,1,2
160,232,67951,1,2
104,192,68140,6,0,L|104:312,1,110,0|0
160,328,68517,1,2
208,280,68706,1,2
256,232,68894,2,0,L|256:80,1,110
304,80,69272,1,2
360,48,69460,1,2
424,24,69649,2,0,L|424:184,1,110
424,200,70026,1,2
424,200,70121,1,2
424,200,70215,1,2
296,240,70592,2,0,L|296:296|344:368,1,110,4|4
256,192,71158,6,0,B|352:96,1,110,0|0
256,192,71536,2,0,B|352:288,1,110,0|0
256,192,71913,2,0,B|160:288,1,110,2|2
256,192,72291,1,2
256,192,72479,1,2
256,192,72668,6,0,B|160:96,1,110,0|0
256,192,73045,2,0,B|352:96,1,110,0|0
256,192,73423,1,2
256,192,73611,1,2
256,192,73800,2,0,B|256:328,1,110,2|2
408,208,74177,5,0
408,208,74366,1,0
360,160,74555,1,0
360,160,74743,1,0
312,112,74932,1,2
312,112,75121,1,2
264,64,75309,1,2
264,64,75404,1,0
264,64,75498,1,2
168,160,75687,5,0
168,160,75875,1,0
216,208,76064,1,0
216,208,76253,1,0
264,256,76441,1,2
264,256,76630,1,2
312,304,76819,1,2
312,304,76913,1,0
312,304,77008,1,2
256,192,77196,12,4,78140
256,112,78517,6,0,B|160:208,1,110
256,112,78894,2,0,B|360:208,1,110
256,112,79272,5,0
256,224,79555,2,4,B|256:312,1,82.5,4|4
256,192,80026,12,4,81347
256,256,81724,6,0,B|160:160,1,110
256,256,82102,2,0,B|360:160,1,110
256,256,82479,5,4
256,192,82668,2,4,B|256:80,1,110,0|4
256,192,83234,12,4,84366
160,192,84743,6,0,B|256:96,1,110
160,192,85121,2,0,B|264:288,1,110
160,192,85498,5,4
224,192,85687,2,4,B|384:192,1,110,0|4
256,192,86253,12,0,87385
256,192,87574,6,0,L|315:241,2,55
256,192,87857,2,0,L|257:133,2,55
256,192,88140,2,0,L|206:241,2,55,0|0|0
256,192,88517,5,2
256,192,88611,1,2
256,192,88706,1,2
256,192,88800,1,2
256,192,88894,1,2
72,192,89272,5,2
112,136,89460,1,2
136,112,89555,1,2
232,88,89838,2,0,B|360:88,1,110
408,88,90215,1,2
408,88,90309,1,2
408,88,90404,2,2,B|408:232,1,110,2|0
408,328,90781,5,2
344,328,90970,1,2
312,312,91064,1,2
216,328,91347,2,0,B|163:264|103:356,3,110,0|0|0|2
123,328,92008,1,2
123,328,92102,1,2
72,208,92291,6,0,B|24:152|88:104,1,110,2|0
128,72,92668,2,0,B|178:139|249:38,1,110,2|0
288,72,93045,2,0,L|304:56|320:72|336:56|352:72|368:56|384:72|400:56|416:72|432:56|448:72,1,220,0|2
443,67,93517,1,2
443,67,93611,1,2
344,152,93800,5,2
400,112,93989,1,0
344,72,94177,1,2
288,112,94366,1,0
344,152,94555,1,2
344,184,94649,1,2
344,216,94743,2,0,B|344:328,2,110,2|0|4
216,256,95309,6,0,B|168:200|232:152,1,110,2|2
192,96,95687,1,0
152,152,95875,1,0
112,208,96064,2,0,B|160:264|96:312,1,110,2|2
168,304,96441,1,0
216,256,96630,1,2
344,256,96819,5,0
344,192,97008,1,0
344,160,97102,1,2
248,160,97385,1,0
248,224,97574,1,2
280,224,97668,1,2
312,224,97762,1,2
344,224,97857,1,2
376,224,97951,1,2
368,48,98328,6,0,B|504:48,1,110,2|0
144,144,98706,2,0,B|8:144,1,110,4|2
368,240,99083,2,0,B|504:240,1,110,2|0
144,336,99460,2,0,B|8:336,1,110,4|2
256,192,99838,12,4,100970
