osu file format v14

[General]
AudioFilename: La Campanella.mp3
AudioLeadIn: 0
PreviewTime: 23450
Countdown: 0
SampleSet: Soft
StackLeniency: 0.7
Mode: 3
LetterboxInBreaks: 0
SpecialStyle: 0
WidescreenStoryboard: 1

[Editor]
DistanceSpacing: 1.2
BeatDivisor: 3
GridSize: 32
TimelineZoom: 2.1

[Metadata]
Title:La Campanella : Nu Rave
TitleUnicode:La Campanella : Nu Rave
Artist:Cranky
ArtistUnicode:Cranky
Creator:nowsmart
Version:4K HD
Source:DJMax Portable 3
Tags:Franz Liszt Pentavision Z_B Technika 2
BeatmapID:545952
BeatmapSetID:235491

[Difficulty]
HPDrainRate:7.5
CircleSize:4
OverallDifficulty:7.5
ApproachRate:5
SliderMultiplier:1.4
SliderTickRate:1

[Events]
//Background and Video events
0,0,"BG1-crop.jpg",0,0
Video,530,"DJMAX PORTABLE 3] La Campanella Nu Rave - cranky - BGA _ MV - YouTube~1.avi"
//Break Periods
//Storyboard Layer 0 (Background)
//Storyboard Layer 1 (Fail)
//Storyboard Layer 2 (Pass)
//Storyboard Layer 3 (Foreground)
//Storyboard Sound Samples

[TimingPoints]
192,337.078651685393,3,2,0,5,1,0
38618,337.078651685393,4,2,0,5,1,0
39966,-100,4,2,0,5,0,1
50752,337.078651685393,3,2,0,5,1,1
51763,-100,3,2,0,5,0,0
59853,337.078651685393,4,2,0,5,1,0
67942,898.876404494382,3,2,0,5,1,0
67942,-37.4531835205993,3,2,0,5,0,0
68391,674.157303370787,3,2,0,5,1,0
68391,-50,3,2,0,5,0,0
68728,561.797752808989,3,2,0,5,1,0
68728,-59.8802395209581,3,2,0,5,0,0
69008,449.438202247191,3,2,0,5,1,0
69008,-75.187969924812,3,2,0,5,0,0
69232,393.44262295082,3,2,0,5,1,0
69232,-85.4700854700855,3,2,0,5,0,0
69625,337.078651685393,3,2,0,5,1,0
69962,337.078651685393,3,2,0,5,1,0
71984,346.820809248555,5,2,0,5,1,0
71984,-97.0873786407767,5,2,0,5,0,0
72215,292.682926829268,4,2,0,5,1,0
72215,-114.942528735632,4,2,0,5,0,0
72410,260.869565217391,4,2,0,5,1,0
72410,-129.87012987013,4,2,0,5,0,0
72583,206.896551724138,4,2,0,5,1,0
72583,-163.934426229508,4,2,0,5,0,0
72720,181.818181818182,4,2,0,5,1,0
72720,-185.185185185185,4,2,0,5,0,0
72841,166.666666666667,4,2,0,5,1,0
72841,-204.081632653061,4,2,0,5,0,0
72952,203.389830508475,4,2,0,5,1,0
72952,-166.666666666667,4,2,0,5,0,0
73087,266.666666666667,4,2,0,5,1,0
73087,-126.582278481013,4,2,0,5,0,0
73264,285.714285714286,4,2,0,5,1,0
73264,-117.647058823529,4,2,0,5,0,0
73454,342.857142857143,4,2,0,5,1,0
73454,-99.009900990099,4,2,0,5,0,0
73682,337.078651685393,5,2,0,5,1,0
73850,335.946248600224,5,2,0,5,1,0
76537,337.078651685393,4,2,0,5,1,0
77885,-100,4,2,0,5,0,1
90020,344.827586206897,4,2,0,5,1,0
90020,-98.0392156862745,4,2,0,5,0,0
90709,461.538461538462,3,2,0,5,1,0
90709,-72.992700729927,3,2,0,5,0,0
91399,461.538461538462,3,2,0,5,1,0
91399,-72.992700729927,3,2,0,5,0,0
97427,461.538461538462,4,2,0,5,1,0
97427,-72.992700729927,4,2,0,5,0,0
98910,461.538461538462,4,2,0,5,1,0
98910,-72.992700729927,4,2,0,5,0,0
100629,447.761194029851,4,2,0,5,1,0
100629,-75.187969924812,4,2,0,5,0,0
101288,439.56043956044,4,2,0,5,1,0
101288,-76.9230769230769,4,2,0,5,0,0
101943,436.363636363636,4,2,0,5,1,0
101943,-77.5193798449612,4,2,0,5,0,0
102590,480,4,2,0,5,1,0
102590,-70.4225352112676,4,2,0,5,0,0
103070,571.428571428571,4,2,0,5,1,0
103070,-58.8235294117647,4,2,0,5,0,0
103927,461.538461538462,4,2,0,5,1,0
103927,-72.992700729927,4,2,0,5,0,0
104388,352.941176470588,4,2,0,5,1,0
104388,-95.2380952380952,4,2,0,5,0,0
105093,344.827586206897,4,2,0,5,1,0
105093,-98.0392156862745,4,2,0,5,0,0

[HitObjects]
64,192,192,5,0,0:0:0:40:D#5s.wav
64,192,529,1,0,0:0:0:40:D#5s.wav
64,192,866,1,0,0:0:0:40:D#5s.wav
320,192,1203,1,0,0:0:0:40:D#7s.wav
320,192,1540,1,0,0:0:0:40:D#7s.wav
320,192,1877,1,0,0:0:0:40:D#7s.wav
64,192,2214,1,0,0:0:0:40:D#5s.wav
320,192,2635,1,0,0:0:0:40:D#7s.wav
320,192,3057,1,0,0:0:0:40:D#7s.wav
64,192,3478,1,0,0:0:0:40:D#5s.wav
320,192,3984,1,0,0:0:0:30:D#7s.wav
320,192,4489,1,0,0:0:0:20:D#7s.wav
64,192,5922,1,0,0:0:0:40:D#6s.wav
320,192,6090,1,0,0:0:0:40:D#7s.wav
320,192,6259,1,0,0:0:0:40:D#7s.wav
448,192,6427,1,0,0:0:0:40:D#8s.wav
320,192,6596,1,0,0:0:0:40:D#7s.wav
448,192,6765,1,0,0:0:0:40:D#8s.wav
192,192,6933,1,0,0:0:0:40:C#7s.wav
448,192,7102,1,0,0:0:0:40:D#8s.wav
64,192,7270,1,0,0:0:0:40:B6s.wav
192,192,7270,1,0,0:0:0:20:normal-hitnormal.wav
448,192,7439,1,0,0:0:0:40:D#8s.wav
320,192,7607,1,0,0:0:0:40:B6s.wav
448,192,7776,1,0,0:0:0:40:D#8s.wav
192,192,7944,1,0,0:0:0:40:A#6s.wav
448,192,8113,1,0,0:0:0:40:D#8s.wav
64,192,8281,1,0,0:0:0:20:normal-hitnormal.wav
320,192,8281,1,0,0:0:0:40:G#6s.wav
448,192,8450,1,0,0:0:0:40:D#8s.wav
192,192,8618,1,0,0:0:0:40:G6s.wav
448,192,8787,1,0,0:0:0:40:D#8s.wav
320,192,8956,1,0,0:0:0:40:G#6s.wav
448,192,9124,1,0,0:0:0:40:D#8s.wav
64,192,9124,1,0,0:0:0:20:normal-hitnormal.wav
64,192,9293,1,0,0:0:0:20:normal-hitnormal.wav
192,192,9293,1,0,0:0:0:40:A#6s.wav
448,192,9461,1,0,0:0:0:40:D#8s.wav
320,192,9630,1,0,0:0:0:40:D#6s.wav
64,192,9798,1,0,0:0:0:40:D#7s.wav
320,192,9967,1,0,0:0:0:40:D#6s.wav
64,192,10135,1,0,0:0:0:40:D#7s.wav
448,192,10304,1,0,0:0:0:20:normal-hitnormal.wav
192,192,10304,1,0,0:0:0:40:E6s.wav
64,192,10472,1,0,0:0:0:40:D#7s.wav
320,192,10641,1,0,0:0:0:40:D#6s.wav
448,192,10641,1,0,0:0:0:20:normal-hitnormal.wav
64,192,10809,1,0,0:0:0:40:D#7s.wav
192,192,10894,1,0,0:0:0:20:normal-hitnormal.wav
320,192,10978,1,0,0:0:0:40:C#6s.wav
64,192,11147,1,0,0:0:0:40:D#7s.wav
448,192,11147,1,0,0:0:0:20:normal-hitnormal.wav
448,192,11315,1,0,0:0:0:20:normal-hitnormal.wav
320,192,11315,1,0,0:0:0:40:B5s.wav
64,192,11484,1,0,0:0:0:40:D#7s.wav
448,192,11652,1,0,0:0:0:40:B5s.wav
64,192,11821,1,0,0:0:0:40:D#7s.wav
320,192,11989,1,0,0:0:0:40:A#5s.wav
64,192,12158,1,0,0:0:0:40:D#7s.wav
192,192,12326,1,0,0:0:0:40:G#5s.wav
448,192,12326,1,0,0:0:0:20:normal-hitnormal.wav
64,192,12495,1,0,0:0:0:40:D#7s.wav
448,192,12663,1,0,0:0:0:40:G5s.wav
64,192,12832,1,0,0:0:0:40:D#7s.wav
192,192,13000,1,0,0:0:0:40:G#5s.wav
64,192,13169,1,0,0:0:0:40:D#7s.wav
448,192,13169,1,0,0:0:0:20:normal-hitnormal.wav
320,192,13338,1,0,0:0:0:20:normal-hitnormal.wav
448,192,13338,1,0,0:0:0:40:A#5s.wav
64,192,13506,1,0,0:0:0:40:D#7s.wav
320,192,13675,1,0,0:0:0:40:D#5s.wav
192,192,13843,1,0,0:0:0:40:D#6s.wav
320,192,14012,1,0,0:0:0:40:D#6s.wav
64,192,14180,1,0,0:0:0:40:D#7s.wav
320,192,14349,1,0,0:0:0:40:D#7s.wav
192,192,14349,1,0,0:0:0:20:normal-hitnormal.wav
448,192,14517,1,0,0:0:0:40:D#8s.wav
192,192,14686,1,0,0:0:0:20:normal-hitnormal.wav
320,192,14686,1,0,0:0:0:40:D#7s.wav
448,192,14854,1,0,0:0:0:40:D#8s.wav
64,192,14939,1,0,0:0:0:20:normal-hitnormal.wav
192,192,15023,1,0,0:0:0:40:C#7s.wav
320,192,15191,1,0,0:0:0:20:normal-hitnormal.wav
448,192,15191,1,0,0:0:0:40:D#8s.wav
192,192,15360,1,0,0:0:0:20:normal-hitnormal.wav
64,192,15360,1,0,0:0:0:40:B6s.wav
448,192,15529,1,0,0:0:0:40:D#8s.wav
64,192,15697,1,0,0:0:0:40:B6s.wav
448,192,15866,1,0,0:0:0:40:D#8s.wav
192,192,16034,1,0,0:0:0:40:A#6s.wav
448,192,16203,1,0,0:0:0:40:D#8s.wav
320,192,16371,1,0,0:0:0:40:G#6s.wav
64,192,16371,1,0,0:0:0:20:normal-hitnormal.wav
448,192,16540,1,0,0:0:0:40:D#8s.wav
64,192,16708,1,0,0:0:0:40:G6s.wav
448,192,16877,1,0,0:0:0:40:D#8s.wav
320,192,17045,1,0,0:0:0:40:G#6s.wav
448,192,17214,1,0,0:0:0:40:D#8s.wav
64,192,17214,1,0,0:0:0:20:normal-hitnormal.wav
192,192,17383,1,0,0:0:0:40:A#6s.wav
64,192,17383,1,0,0:0:0:20:normal-hitnormal.wav
448,192,17551,1,0,0:0:0:40:D#8s.wav
320,192,17720,1,0,0:0:0:40:D#6s.wav
448,192,17888,1,0,0:0:0:40:D#8s.wav
320,192,18057,1,0,0:0:0:40:D#6s.wav
192,192,18225,1,0,0:0:0:40:D#7s.wav
448,192,18394,1,0,0:0:0:40:E6s.wav
64,192,18394,1,0,0:0:0:20:normal-hitnormal.wav
192,192,18562,1,0,0:0:0:40:G#7s.wav
320,192,18731,1,0,0:0:0:20:normal-hitnormal.wav
448,192,18731,1,0,0:0:0:40:D#6s.wav
192,192,18899,1,0,0:0:0:40:G#7s.wav
320,192,18984,1,0,0:0:0:20:normal-hitnormal.wav
64,192,19068,1,0,0:0:0:40:C#6s.wav
192,192,19236,1,0,0:0:0:40:G#7s.wav
448,192,19236,1,0,0:0:0:20:normal-hitnormal.wav
448,192,19405,1,0,0:0:0:20:normal-hitnormal.wav
320,192,19405,1,0,0:0:0:40:D#6s.wav
192,192,19574,1,0,0:0:0:40:D#7s.wav
64,192,19742,1,0,0:0:0:40:G#6s.wav
192,192,19911,1,0,0:0:0:40:B6s.wav
320,192,20079,1,0,0:0:0:40:D#7s.wav
448,192,20248,1,0,0:0:0:40:D#8s.wav
64,192,20416,1,0,0:0:0:20:normal-hitnormal.wav
320,192,20416,1,0,0:0:0:40:D#6s.wav
192,192,20585,1,0,0:0:0:40:D#7s.wav
64,192,20669,1,0,0:0:0:0:
448,192,20753,1,0,0:0:0:40:G6s.wav
320,192,20922,1,0,0:0:0:35:A#6s.wav
448,192,21006,1,0,0:0:0:0:
64,192,21090,1,0,0:0:0:40:D#7s.wav
192,192,21259,1,0,0:0:0:40:D#8s.wav
320,192,21343,1,0,0:0:0:0:
448,192,21427,1,0,0:0:0:40:B6s.wav
64,192,21427,1,0,0:0:0:20:normal-hitnormal.wav
448,192,21680,1,0,0:0:0:40:B6s.wav
192,192,21765,1,0,0:0:0:20:normal-hitnormal.wav
320,192,21933,1,0,0:0:0:40:B6s.wav
448,192,22017,1,0,0:0:0:40:B6s.wav
192,192,22102,1,0,0:0:0:20:normal-hitnormal.wav
64,192,22102,1,0,0:0:0:40:B6s.wav
320,192,22270,1,0,0:0:0:40:B6s.wav
448,192,22354,1,0,0:0:0:40:B6s.wav
64,192,22439,1,0,0:0:0:20:normal-hitnormal.wav
192,192,22523,1,0,0:0:0:0:
320,192,22607,1,0,0:0:0:0:
64,192,22691,1,0,0:0:0:0:
320,192,22776,1,0,0:0:0:20:normal-hitnormal.wav
448,192,22776,1,0,0:0:0:0:
192,192,22860,1,0,0:0:0:0:
64,192,22944,1,0,0:0:0:0:
448,192,23029,1,0,0:0:0:0:
64,192,23113,1,0,0:0:0:0:
192,192,23113,1,0,0:0:0:20:normal-hitnormal.wav
320,192,23197,1,0,0:0:0:0:
448,192,23281,1,0,0:0:0:0:
64,192,23366,1,0,0:0:0:0:
320,192,23450,1,0,0:0:0:20:normal-hitnormal.wav
448,192,23450,1,0,0:0:0:40:B6s.wav
448,192,23703,1,0,0:0:0:40:B6s.wav
192,192,23787,1,0,0:0:0:20:normal-hitnormal.wav
320,192,23787,1,0,0:0:0:0:
448,192,23956,1,0,0:0:0:40:B6s.wav
448,192,24124,1,0,0:0:0:40:B6s.wav
64,192,24124,1,0,0:0:0:20:normal-hitnormal.wav
320,192,24293,1,0,0:0:0:40:A#6s.wav
64,192,24461,1,0,0:0:0:20:normal-hitnormal.wav
192,192,24461,1,0,0:0:0:40:G#6s.wav
192,192,24714,1,0,0:0:0:40:G#6s.wav
320,192,24798,1,0,0:0:0:0:
448,192,24798,1,0,0:0:0:20:normal-hitnormal.wav
192,192,24967,1,0,0:0:0:40:G#6s.wav
64,192,25135,1,0,0:0:0:40:G6s.wav
448,192,25135,1,0,0:0:0:20:normal-hitnormal.wav
192,192,25304,1,0,0:0:0:40:G#6s.wav
64,192,25472,1,0,0:0:0:20:normal-hitnormal.wav
320,192,25472,1,0,0:0:0:40:A#6s.wav
64,192,25725,1,0,0:0:0:40:D#6s.wav
192,192,25809,1,0,0:0:0:0:
448,192,25809,1,0,0:0:0:20:normal-hitnormal.wav
64,192,25978,1,0,0:0:0:40:D#6s.wav
64,192,26147,1,0,0:0:0:40:D#6s.wav
320,192,26147,1,0,0:0:0:20:normal-hitnormal.wav
64,192,26315,1,0,0:0:0:40:D#6s.wav
192,192,26484,1,0,0:0:0:40:E6s.wav
320,192,26484,1,0,0:0:0:20:normal-hitnormal.wav
192,192,26736,1,0,0:0:0:40:E6s.wav
448,192,26821,1,0,0:0:0:20:normal-hitnormal.wav
64,192,26821,1,0,0:0:0:0:
192,192,26989,1,0,0:0:0:40:E6s.wav
320,192,27074,1,0,0:0:0:20:normal-hitnormal.wav
64,192,27158,1,0,0:0:0:40:D#6s.wav
448,192,27158,1,0,0:0:0:20:normal-hitnormal.wav
448,192,27326,1,0,0:0:0:40:C#6s.wav
320,192,27326,1,0,0:0:0:20:normal-hitnormal.wav
192,192,27495,1,0,0:0:0:20:normal-hitnormal.wav
64,192,27495,1,0,0:0:0:40:B5s.wav
64,192,27748,1,0,0:0:0:40:B5s.wav
192,192,27832,1,0,0:0:0:0:
448,192,27832,1,0,0:0:0:20:normal-hitnormal.wav
64,192,28000,1,0,0:0:0:40:B5s.wav
64,192,28169,1,0,0:0:0:40:B5s.wav
320,192,28169,1,0,0:0:0:20:normal-hitnormal.wav
448,192,28338,1,0,0:0:0:40:A#5s.wav
320,192,28506,1,0,0:0:0:40:G#5s.wav
192,192,28506,1,0,0:0:0:20:normal-hitnormal.wav
320,192,28759,1,0,0:0:0:40:G#5s.wav
64,192,28843,1,0,0:0:0:20:normal-hitnormal.wav
448,192,28843,1,0,0:0:0:0:
320,192,29012,1,0,0:0:0:40:G#5s.wav
192,192,29180,1,0,0:0:0:40:G5s.wav
64,192,29180,1,0,0:0:0:20:normal-hitnormal.wav
320,192,29349,1,0,0:0:0:40:G#5s.wav
448,192,29517,1,0,0:0:0:40:A#5s.wav
192,192,29517,1,0,0:0:0:20:normal-hitnormal.wav
64,192,29770,1,0,0:0:0:40:D#5s.wav
320,192,29854,1,0,0:0:0:20:normal-hitnormal.wav
448,192,29854,1,0,0:0:0:0:
64,192,30023,1,0,0:0:0:40:D#5s.wav
192,192,30191,1,0,0:0:0:20:normal-hitnormal.wav
320,192,30191,1,0,0:0:0:40:D#6s.wav
448,192,30360,1,0,0:0:0:40:D#7s.wav
320,192,30444,1,0,0:0:0:40:D#7s.wav
64,192,30529,1,0,0:0:0:20:normal-hitnormal.wav
192,192,30529,1,0,0:0:0:40:D#7s.wav
320,192,30697,1,0,0:0:0:10:normal-hitnormal.wav
448,192,30697,1,0,0:0:0:10:normal-hitnormal.wav
64,192,30866,1,0,0:0:0:20:normal-hitnormal.wav
192,192,30866,1,0,0:0:0:0:
320,192,31034,1,0,0:0:0:40:D#7s.wav
192,192,31118,1,0,0:0:0:20:normal-hitnormal.wav
64,192,31203,1,0,0:0:0:20:normal-hitnormal.wav
448,192,31203,1,0,0:0:0:40:D#7s.wav
320,192,31371,1,0,0:0:0:40:C#7s.wav
448,192,31371,1,0,0:0:0:20:normal-hitnormal.wav
192,192,31540,1,0,0:0:0:20:normal-hitnormal.wav
64,192,31540,1,0,0:0:0:40:B6s.wav
64,192,31793,1,0,0:0:0:40:B6s.wav
192,192,31877,1,0,0:0:0:0:
448,192,31877,1,0,0:0:0:20:normal-hitnormal.wav
64,192,32045,1,0,0:0:0:40:B6s.wav
64,192,32214,1,0,0:0:0:40:B6s.wav
320,192,32214,1,0,0:0:0:20:normal-hitnormal.wav
192,192,32383,1,0,0:0:0:40:A#6s.wav
320,192,32551,1,0,0:0:0:40:G#6s.wav
448,192,32551,1,0,0:0:0:20:normal-hitnormal.wav
320,192,32804,1,0,0:0:0:40:G#6s.wav
64,192,32888,1,0,0:0:0:20:normal-hitnormal.wav
448,192,32888,1,0,0:0:0:0:
320,192,33057,1,0,0:0:0:40:G#6s.wav
448,192,33225,1,0,0:0:0:40:G6s.wav
192,192,33225,1,0,0:0:0:20:normal-hitnormal.wav
320,192,33394,1,0,0:0:0:40:G#6s.wav
192,192,33562,1,0,0:0:0:40:A#6s.wav
64,192,33562,1,0,0:0:0:20:normal-hitnormal.wav
448,192,33815,1,0,0:0:0:40:D#6s.wav
192,192,33899,1,0,0:0:0:20:normal-hitnormal.wav
320,192,33899,1,0,0:0:0:0:
448,192,34068,1,0,0:0:0:40:D#6s.wav
448,192,34236,1,0,0:0:0:40:D#6s.wav
192,192,34236,1,0,0:0:0:20:normal-hitnormal.wav
448,192,34405,1,0,0:0:0:40:D#6s.wav
320,192,34574,1,0,0:0:0:40:E6s.wav
64,192,34574,1,0,0:0:0:20:normal-hitnormal.wav
320,192,34826,1,0,0:0:0:40:E6s.wav
64,192,34911,1,0,0:0:0:0:
448,192,34911,1,0,0:0:0:20:normal-hitnormal.wav
320,192,35079,1,0,0:0:0:40:E6s.wav
448,192,35248,1,0,0:0:0:20:normal-hitnormal.wav
192,192,35248,1,0,0:0:0:40:D#6s.wav
64,192,35416,1,0,0:0:0:40:C#6s.wav
192,192,35585,1,0,0:0:0:20:normal-hitnormal.wav
320,192,35585,1,0,0:0:0:40:D#6s.wav
64,192,35838,1,0,0:0:0:40:G#6s.wav
320,192,35922,1,0,0:0:0:0:
448,192,35922,1,0,0:0:0:20:normal-hitnormal.wav
64,192,36090,1,0,0:0:0:40:D#7s.wav
192,192,36259,1,0,0:0:0:40:D#7s.wav
448,192,36259,1,0,0:0:0:20:normal-hitnormal.wav
320,192,36427,1,0,0:0:0:40:G#7s.wav
64,192,36596,1,0,0:0:0:40:D#6s.wav
192,192,36596,1,0,0:0:0:20:normal-hitnormal.wav
448,192,36849,1,0,0:0:0:20:G6s.wav
320,192,36933,1,0,0:0:0:0:
64,192,36933,1,0,0:0:0:20:normal-hitnormal.wav
192,192,37102,1,0,0:0:0:40:D#7s.wav
320,192,37270,1,0,0:0:0:40:D#7s.wav
448,192,37270,1,0,0:0:0:20:normal-hitnormal.wav
192,192,37439,1,0,0:0:0:20:G6s.wav
64,192,37607,1,0,0:0:0:20:normal-hitnormal.wav
192,192,37691,1,0,0:0:0:0:
320,192,37776,1,0,0:0:0:0:
64,192,37860,1,0,0:0:0:0:
448,192,37944,1,0,0:0:0:20:normal-hitnormal.wav
320,192,38029,1,0,0:0:0:0:
192,192,38113,1,0,0:0:0:0:
448,192,38197,1,0,0:0:0:0:
64,192,38281,1,0,0:0:0:20:normal-hitnormal.wav
192,192,38366,1,0,0:0:0:0:
320,192,38450,1,0,0:0:0:0:
448,192,38534,1,0,0:0:0:20:normal-hitnormal.wav
64,192,38618,1,0,0:0:0:20:normal-hitnormal.wav
192,192,38618,1,0,0:0:0:40:G#6s.wav
320,192,38786,1,0,0:0:0:0:
448,192,38955,1,0,0:0:0:0:
64,192,38955,1,0,0:0:0:20:normal-hitnormal.wav
448,192,39123,1,0,0:0:0:40:B5s.wav
320,192,39207,1,0,0:0:0:40:B5s.wav
192,192,39292,1,0,0:0:0:40:B5s.wav
64,192,39292,1,0,0:0:0:20:normal-hitnormal.wav
64,192,39460,1,0,0:0:0:20:normal-hitnormal.wav
192,192,39544,1,0,0:0:0:40:B5s.wav
320,192,39629,1,0,0:0:0:20:normal-hitnormal.wav
448,192,39629,1,0,0:0:0:0:
320,192,39797,1,0,0:0:0:40:B5s.wav
64,192,39797,1,0,0:0:0:20:normal-hitnormal.wav
64,192,39966,1,0,0:0:0:10:normal-hitnormal.wav
448,192,39966,1,0,0:0:0:40:B5s.wav
192,192,39966,1,0,0:0:0:10:normal-hitnormal.wav
320,192,40134,1,0,0:0:0:20:hithat.wav
448,192,40219,1,0,0:0:0:40:F#5s.wav
192,192,40303,1,0,0:0:0:0:
64,192,40303,1,0,0:0:0:20:normal-hitnormal.wav
320,192,40471,1,0,0:0:0:20:hithat.wav
448,192,40640,1,0,0:0:0:10:normal-hitnormal.wav
64,192,40640,1,0,0:0:0:40:C#6s.wav
320,192,40640,1,0,0:0:0:10:normal-hitnormal.wav
192,192,40809,1,0,0:0:0:20:hithat.wav
64,192,40893,1,0,0:0:0:40:F#5s.wav
320,192,40977,1,0,0:0:0:0:
448,192,40977,1,0,0:0:0:20:normal-hitnormal.wav
192,192,41146,1,0,0:0:0:20:hithat.wav
64,192,41314,1,0,0:0:0:10:normal-hitnormal.wav
448,192,41314,1,0,0:0:0:40:D#6s.wav
192,192,41314,1,0,0:0:0:10:normal-hitnormal.wav
320,192,41483,1,0,0:0:0:20:hithat.wav
64,192,41567,1,0,0:0:0:40:F#5s.wav
192,192,41651,1,0,0:0:0:0:
448,192,41651,1,0,0:0:0:20:normal-hitnormal.wav
64,192,41820,1,0,0:0:0:20:hithat.wav
320,192,41820,1,0,0:0:0:40:D#6s.wav
192,192,41904,1,0,0:0:0:0:
320,192,41988,1,0,0:0:0:20:normal-hitnormal.wav
448,192,41988,1,0,0:0:0:40:F#6s.wav
64,192,42157,1,0,0:0:0:20:hithat.wav
320,192,42241,1,0,0:0:0:0:
448,192,42241,1,0,0:0:0:40:F#6s.wav
64,192,42325,1,0,0:0:0:20:normal-hitnormal.wav
192,192,42325,1,0,0:0:0:0:
192,192,42494,1,0,0:0:0:20:hithat.wav
320,192,42494,1,0,0:0:0:40:F6s.wav
448,192,42662,1,0,0:0:0:40:D#6s.wav
64,192,42662,1,0,0:0:0:10:normal-hitnormal.wav
192,192,42662,1,0,0:0:0:10:normal-hitnormal.wav
320,192,42831,1,0,0:0:0:20:hithat.wav
448,192,42915,1,0,0:0:0:35:A#5s.wav
192,192,43000,1,0,0:0:0:0:
64,192,43000,1,0,0:0:0:20:normal-hitnormal.wav
320,192,43168,1,0,0:0:0:20:hithat.wav
448,192,43337,1,0,0:0:0:10:normal-hitnormal.wav
320,192,43337,1,0,0:0:0:10:normal-hitnormal.wav
64,192,43337,1,0,0:0:0:40:F6s.wav
192,192,43505,1,0,0:0:0:20:hithat.wav
64,192,43589,1,0,0:0:0:35:A#5s.wav
320,192,43674,1,0,0:0:0:0:
448,192,43674,1,0,0:0:0:20:normal-hitnormal.wav
192,192,43842,1,0,0:0:0:20:hithat.wav
64,192,44011,1,0,0:0:0:10:normal-hitnormal.wav
192,192,44011,1,0,0:0:0:10:normal-hitnormal.wav
448,192,44011,1,0,0:0:0:40:F#6s.wav
320,192,44179,1,0,0:0:0:20:hithat.wav
64,192,44264,1,0,0:0:0:35:A#5s.wav
192,192,44348,1,0,0:0:0:0:
448,192,44348,1,0,0:0:0:20:normal-hitnormal.wav
64,192,44516,1,0,0:0:0:20:hithat.wav
320,192,44516,1,0,0:0:0:40:D#6s.wav
192,192,44601,1,0,0:0:0:0:
448,192,44685,1,0,0:0:0:40:A#6s.wav
320,192,44685,1,0,0:0:0:20:normal-hitnormal.wav
192,192,44853,1,0,0:0:0:20:hithat.wav
320,192,44938,1,0,0:0:0:0:
448,192,44938,1,0,0:0:0:40:A#6s.wav
192,192,45022,1,0,0:0:0:0:
64,192,45022,1,0,0:0:0:20:normal-hitnormal.wav
320,192,45191,1,0,0:0:0:20:hithat.wav
64,192,45191,1,0,0:0:0:40:G#6s.wav
64,192,45359,1,0,0:0:0:10:normal-hitnormal.wav
448,192,45359,1,0,0:0:0:40:F#6s.wav
192,192,45359,1,0,0:0:0:10:normal-hitnormal.wav
192,192,45528,1,0,0:0:0:20:hithat.wav
320,192,45612,1,0,0:0:0:40:C#6s.wav
64,192,45696,1,0,0:0:0:20:normal-hitnormal.wav
448,192,45696,1,0,0:0:0:0:
192,192,45865,1,0,0:0:0:20:hithat.wav
320,192,46033,1,0,0:0:0:10:normal-hitnormal.wav
448,192,46033,1,0,0:0:0:10:normal-hitnormal.wav
64,192,46033,1,0,0:0:0:40:G#6s.wav
320,192,46202,1,0,0:0:0:20:hithat.wav
192,192,46286,1,0,0:0:0:40:C#6s.wav
448,192,46370,1,0,0:0:0:0:
64,192,46370,1,0,0:0:0:20:normal-hitnormal.wav
320,192,46539,1,0,0:0:0:20:hithat.wav
64,192,46539,1,0,0:0:0:40:G#6s.wav
448,192,46707,1,0,0:0:0:40:A#6s.wav
192,192,46707,1,0,0:0:0:20:normal-hitnormal.wav
320,192,46876,1,0,0:0:0:40:B6s.wav
448,192,47044,128,0,47382:0:0:0:40:C#7s.wav
192,192,47044,1,0,0:0:0:10:normal-hitnormal.wav
64,192,47044,1,0,0:0:0:10:normal-hitnormal.wav
320,192,47382,1,0,0:0:0:20:normal-hitnormal.wav
64,192,47382,1,0,0:0:0:40:B6s.wav
192,192,47550,1,0,0:0:0:40:A#6s.wav
448,192,47719,1,0,0:0:0:20:normal-hitnormal.wav
320,192,47719,1,0,0:0:0:40:G#6s.wav
192,192,47887,1,0,0:0:0:40:A#6s.wav
320,192,48056,128,0,48393:0:0:0:40:B6s.wav
64,192,48056,1,0,0:0:0:10:normal-hitnormal.wav
448,192,48056,1,0,0:0:0:10:normal-hitnormal.wav
448,192,48393,1,0,0:0:0:20:normal-hitnormal.wav
192,192,48393,1,0,0:0:0:40:A#6s.wav
320,192,48561,1,0,0:0:0:40:G#6s.wav
192,192,48730,1,0,0:0:0:40:F#6s.wav
64,192,48730,1,0,0:0:0:20:normal-hitnormal.wav
448,192,48898,1,0,0:0:0:40:G#6s.wav
192,192,49067,128,0,49404:0:0:0:40:A#6s.wav
64,192,49067,1,0,0:0:0:10:normal-hitnormal.wav
320,192,49067,1,0,0:0:0:10:normal-hitnormal.wav
448,192,49404,1,0,0:0:0:20:normal-hitnormal.wav
64,192,49404,1,0,0:0:0:40:G#6s.wav
192,192,49573,1,0,0:0:0:40:F#6s.wav
320,192,49741,1,0,0:0:0:40:F6s.wav
64,192,49741,1,0,0:0:0:20:normal-hitnormal.wav
192,192,49910,1,0,0:0:0:40:F#6s.wav
64,192,50078,128,0,50415:0:0:0:40:G#6s.wav
448,192,50078,1,0,0:0:0:10:normal-hitnormal.wav
320,192,50078,1,0,0:0:0:10:normal-hitnormal.wav
192,192,50415,1,0,0:0:0:20:normal-hitnormal.wav
448,192,50415,1,0,0:0:0:40:D#6s.wav
320,192,50584,1,0,0:0:0:40:F6s.wav
64,192,50752,1,0,0:0:0:40:normal-hitnormal.wav
192,192,50752,1,0,0:0:0:40:F#5s.wav
448,192,50920,1,0,0:0:0:20:hithat.wav
320,192,51004,1,0,0:0:0:20:hithat.wav
192,192,51089,1,0,0:0:0:40:F#5s.wav
64,192,51089,1,0,0:0:0:20:normal-hitnormal.wav
448,192,51257,1,0,0:0:0:20:hithat.wav
320,192,51341,1,0,0:0:0:20:hithat.wav
448,192,51426,1,0,0:0:0:40:G5s.wav
192,192,51426,1,0,0:0:0:20:normal-hitnormal.wav
64,192,51594,1,0,0:0:0:20:hithat.wav
192,192,51678,1,0,0:0:0:20:hithat.wav
320,192,51763,1,0,0:0:0:40:G#5s.wav
64,192,51763,1,0,0:0:0:20:normal-hitnormal.wav
448,192,51763,128,0,52774:0:0:0:0:
192,192,52100,1,0,0:0:0:0:
320,192,52437,1,0,0:0:0:0:
64,192,52774,128,0,53785:0:0:0:0:
192,192,52774,128,0,53111:0:0:0:0:
448,192,53111,128,0,53448:0:0:0:0:
320,192,53448,128,0,53785:0:0:0:0:
448,192,53785,128,0,54796:0:0:0:0:
192,192,53785,128,0,54122:0:0:0:0:
64,192,54122,128,0,54459:0:0:0:0:
320,192,54459,128,0,54796:0:0:0:0:
192,192,54796,128,0,55134:0:0:0:0:
64,192,54796,128,0,55134:0:0:0:0:
320,192,55134,128,0,55302:0:0:0:0:
192,192,55471,128,0,55639:0:0:0:0:
64,192,55808,128,0,56819:0:0:0:0:
320,192,56145,1,0,0:0:0:40:F#6s.wav
448,192,56145,1,0,0:0:0:20:normal-hitnormal.wav
192,192,56482,1,0,0:0:0:40:E6s.wav
448,192,56482,1,0,0:0:0:20:normal-hitnormal.wav
448,192,56819,128,0,57830:0:0:0:0:
192,192,56819,1,0,0:0:0:20:normal-hitnormal.wav
320,192,56819,1,0,0:0:0:40:D#6s.wav
64,192,57156,128,0,57493:0:0:0:0:
192,192,57493,128,0,57830:0:0:0:0:
64,192,57830,128,0,58841:0:0:0:0:
320,192,57830,128,0,58167:0:0:0:0:
192,192,58167,1,0,0:0:0:0:
448,192,58336,1,0,0:0:0:0:
192,192,58504,128,0,58841:0:0:0:0:
448,192,58841,128,0,59178:0:0:0:0:
320,192,58841,128,0,59178:0:0:0:0:
192,192,59178,1,0,0:0:0:40:F6s.wav
64,192,59178,1,0,0:0:0:20:normal-hitnormal.wav
192,192,59516,1,0,0:0:0:20:normal-hitnormal.wav
320,192,59516,1,0,0:0:0:40:E6s.wav
448,192,59853,1,0,0:0:0:40:D#6s.wav
320,192,59853,1,0,0:0:0:20:normal-hitnormal.wav
64,192,59853,1,0,0:0:0:0:
64,192,60105,1,0,0:0:0:0:
320,192,60358,1,0,0:0:0:0:
192,192,60442,1,0,0:0:0:0:
448,192,60527,1,0,0:0:0:0:
448,192,60779,1,0,0:0:0:0:
192,192,61032,1,0,0:0:0:0:
320,192,61117,1,0,0:0:0:0:
64,192,61201,1,0,0:0:0:0:
448,192,61454,1,0,0:0:0:0:
320,192,61706,1,0,0:0:0:0:
192,192,61791,1,0,0:0:0:0:
64,192,61875,128,0,62212:0:0:0:0:
448,192,62044,1,0,0:0:0:20:hithat.wav
192,192,62381,1,0,0:0:0:20:hithat.wav
320,192,62465,1,0,0:0:0:0:
448,192,62549,1,0,0:0:0:0:
192,192,62718,1,0,0:0:0:20:hithat.wav
448,192,62802,1,0,0:0:0:0:
448,192,63055,1,0,0:0:0:20:hithat.wav
64,192,63139,1,0,0:0:0:0:
448,192,63223,1,0,0:0:0:0:
192,192,63392,1,0,0:0:0:20:hithat.wav
448,192,63476,1,0,0:0:0:0:
448,192,63729,1,0,0:0:0:20:hithat.wav
64,192,63813,1,0,0:0:0:0:
320,192,63897,1,0,0:0:0:0:
448,192,64066,1,0,0:0:0:20:hithat.wav
192,192,64150,1,0,0:0:0:0:
64,192,64403,1,0,0:0:0:20:hithat.wav
192,192,64487,1,0,0:0:0:0:
448,192,64572,1,0,0:0:0:0:
64,192,64740,1,0,0:0:0:20:hithat.wav
320,192,64824,1,0,0:0:0:0:
192,192,65077,1,0,0:0:0:20:hithat.wav
320,192,65161,1,0,0:0:0:0:
64,192,65246,1,0,0:0:0:20:normal-hitnormal.wav
448,192,65246,1,0,0:0:0:0:
320,192,65414,1,0,0:0:0:20:hithat.wav
192,192,65499,1,0,0:0:0:0:
64,192,65583,1,0,0:0:0:20:normal-hitnormal.wav
320,192,65751,1,0,0:0:0:0:
448,192,65836,1,0,0:0:0:0:
192,192,65920,1,0,0:0:0:20:normal-hitnormal.wav
64,192,66032,1,0,0:0:0:0:
192,192,66145,1,0,0:0:0:0:
320,192,66257,1,0,0:0:0:20:normal-hitnormal.wav
448,192,66369,1,0,0:0:0:0:
192,192,66482,1,0,0:0:0:0:
320,192,66594,1,0,0:0:0:20:normal-hitnormal.wav
192,192,66706,1,0,0:0:0:0:
64,192,66819,1,0,0:0:0:0:
448,192,66931,1,0,0:0:0:20:normal-hitnormal.wav
320,192,67044,1,0,0:0:0:0:
192,192,67156,1,0,0:0:0:0:
64,192,67268,1,0,0:0:0:20:normal-hitnormal.wav
320,192,67381,1,0,0:0:0:0:
192,192,67493,1,0,0:0:0:0:
320,192,67605,1,0,0:0:0:20:normal-hitnormal.wav
448,192,67718,1,0,0:0:0:0:
64,192,67830,1,0,0:0:0:0:
192,192,67942,1,0,0:0:0:20:normal-hitnormal.wav
448,192,67942,128,0,68391:0:0:0:0:
64,192,68391,1,0,0:0:0:40:D4s.wav
192,192,68728,1,0,0:0:0:40:D#4s.wav
320,192,69008,1,0,0:0:0:40:A4s.wav
448,192,69232,1,0,0:0:0:40:A#4s.wav
64,192,69428,1,0,0:0:0:40:D5s.wav
320,192,69625,1,0,0:0:0:40:D#5s.wav
448,192,69793,1,0,0:0:0:40:A5s.wav
192,192,69962,1,0,0:0:0:40:A#5s.wav
320,192,70130,1,0,0:0:0:40:D6s.wav
448,192,70299,1,0,0:0:0:40:D#6s.wav
64,192,70467,1,0,0:0:0:40:A6s.wav
192,192,70636,1,0,0:0:0:40:A#6s.wav
320,192,70804,1,0,0:0:0:40:D7s.wav
448,192,70973,1,0,0:0:0:40:D#7s.wav
320,192,71141,1,0,0:0:0:40:D7s.wav
448,192,71310,1,0,0:0:0:40:D#7s.wav
320,192,71478,1,0,0:0:0:40:D7s.wav
448,192,71647,1,0,0:0:0:40:D#7s.wav
448,192,71872,1,0,0:0:0:40:D#7s.wav
192,192,71984,1,0,0:0:0:40:A#6s.wav
448,192,72099,1,0,0:0:0:40:D#7s.wav
64,192,72215,1,0,0:0:0:40:G6s.wav
448,192,72324,1,0,0:0:0:40:D#7s.wav
320,192,72410,1,0,0:0:0:40:D#6s.wav
448,192,72496,1,0,0:0:0:40:D#7s.wav
192,192,72583,1,0,0:0:0:40:C#6s.wav
64,192,72660,1,0,0:0:0:40:D#7s.wav
448,192,72720,1,0,0:0:0:40:A#5s.wav
192,192,72765,1,0,0:0:0:40:D#7s.wav
320,192,72841,1,0,0:0:0:40:G5s.wav
64,192,72882,1,0,0:0:0:40:D#7s.wav
448,192,72952,1,0,0:0:0:40:D#5s.wav
192,192,73002,1,0,0:0:0:40:D#7s.wav
320,192,73087,1,0,0:0:0:40:C#5s.wav
64,192,73175,1,0,0:0:0:40:D#7s.wav
448,192,73264,1,0,0:0:0:40:A#4s.wav
320,192,73335,1,0,0:0:0:40:D#7s.wav
192,192,73454,1,0,0:0:0:40:G4s.wav
448,192,73568,1,0,0:0:0:40:D#7s.wav
64,192,73682,1,0,0:0:0:40:D#4s.wav
448,192,73850,1,0,0:0:0:40:D#7s.wav
192,192,76369,1,0,0:0:0:0:
320,192,76425,1,0,0:0:0:0:
448,192,76481,1,0,0:0:0:0:
64,192,76537,1,0,0:0:0:20:normal-hitnormal.wav
192,192,76537,1,0,0:0:0:0:
448,192,77042,1,0,0:0:0:40:D#7s.wav
64,192,77126,1,0,0:0:0:40:D#7s.wav
448,192,77211,1,0,0:0:0:40:D#7s.wav
448,192,77463,1,0,0:0:0:40:D#7s.wav
320,192,77716,1,0,0:0:0:40:C#7s.wav
192,192,77885,1,0,0:0:0:40:B6s.wav
64,192,77885,1,0,0:0:0:20:normal-hitnormal.wav
192,192,78138,1,0,0:0:0:40:B6s.wav
64,192,78222,1,0,0:0:0:20:normal-hitnormal.wav
448,192,78222,1,0,0:0:0:0:
320,192,78390,1,0,0:0:0:40:A#6s.wav
448,192,78559,1,0,0:0:0:20:normal-hitnormal.wav
192,192,78559,1,0,0:0:0:40:G#6s.wav
64,192,78812,1,0,0:0:0:40:G6s.wav
192,192,78896,1,0,0:0:0:0:
320,192,78896,1,0,0:0:0:20:normal-hitnormal.wav
448,192,79065,1,0,0:0:0:40:G#6s.wav
320,192,79233,1,0,0:0:0:40:A#6s.wav
64,192,79233,1,0,0:0:0:20:normal-hitnormal.wav
192,192,79486,1,0,0:0:0:40:D#6s.wav
320,192,79570,1,0,0:0:0:0:
448,192,79570,1,0,0:0:0:20:normal-hitnormal.wav
64,192,79739,1,0,0:0:0:40:D#6s.wav
448,192,79907,1,0,0:0:0:20:normal-hitnormal.wav
192,192,79907,1,0,0:0:0:40:E6s.wav
320,192,80160,1,0,0:0:0:40:D#6s.wav
64,192,80244,1,0,0:0:0:0:
448,192,80244,1,0,0:0:0:20:normal-hitnormal.wav
192,192,80413,1,0,0:0:0:40:C#6s.wav
64,192,80581,1,0,0:0:0:20:normal-hitnormal.wav
320,192,80581,1,0,0:0:0:40:B5s.wav
64,192,80834,1,0,0:0:0:40:B5s.wav
320,192,80919,1,0,0:0:0:0:
448,192,80919,1,0,0:0:0:20:normal-hitnormal.wav
64,192,81087,1,0,0:0:0:40:A#5s.wav
192,192,81256,1,0,0:0:0:40:G#5s.wav
320,192,81256,1,0,0:0:0:20:normal-hitnormal.wav
448,192,81508,1,0,0:0:0:40:G5s.wav
64,192,81593,1,0,0:0:0:0:
192,192,81593,1,0,0:0:0:20:normal-hitnormal.wav
320,192,81761,1,0,0:0:0:40:G#5s.wav
192,192,81930,1,0,0:0:0:40:A#5s.wav
448,192,81930,1,0,0:0:0:20:normal-hitnormal.wav
64,192,82183,1,0,0:0:0:40:D#5s.wav
192,192,82267,1,0,0:0:0:0:
320,192,82267,1,0,0:0:0:20:normal-hitnormal.wav
448,192,82435,1,0,0:0:0:40:D#7s.wav
192,192,82520,1,0,0:0:0:40:D#7s.wav
448,192,82604,1,0,0:0:0:40:D#7s.wav
64,192,82604,1,0,0:0:0:20:normal-hitnormal.wav
448,192,82857,1,0,0:0:0:40:D#7s.wav
192,192,82941,1,0,0:0:0:0:
64,192,82941,1,0,0:0:0:20:normal-hitnormal.wav
320,192,83110,1,0,0:0:0:40:C#7s.wav
64,192,83278,1,0,0:0:0:20:normal-hitnormal.wav
448,192,83278,1,0,0:0:0:40:C7s.wav
64,192,83531,1,0,0:0:0:40:C7s.wav
320,192,83615,1,0,0:0:0:0:
448,192,83615,1,0,0:0:0:20:normal-hitnormal.wav
192,192,83784,1,0,0:0:0:40:A6s.wav
448,192,83952,1,0,0:0:0:20:normal-hitnormal.wav
64,192,83952,1,0,0:0:0:40:G#6s.wav
448,192,84205,1,0,0:0:0:40:G#6s.wav
192,192,84289,1,0,0:0:0:0:
64,192,84289,1,0,0:0:0:20:normal-hitnormal.wav
320,192,84458,1,0,0:0:0:40:F#6s.wav
192,192,84626,1,0,0:0:0:0:
448,192,84626,1,0,0:0:0:20:normal-hitnormal.wav
64,192,84711,1,0,0:0:0:0:
320,192,84795,1,0,0:0:0:0:
192,192,84879,1,0,0:0:0:0:
448,192,84963,1,0,0:0:0:20:normal-hitnormal.wav
64,192,85048,1,0,0:0:0:0:
320,192,85132,1,0,0:0:0:0:
192,192,85216,1,0,0:0:0:0:
448,192,85301,1,0,0:0:0:20:normal-hitnormal.wav
64,192,85385,1,0,0:0:0:0:
320,192,85469,1,0,0:0:0:0:
64,192,85553,1,0,0:0:0:0:
448,192,85638,1,0,0:0:0:20:normal-hitnormal.wav
192,192,85722,1,0,0:0:0:0:
320,192,85806,1,0,0:0:0:0:
448,192,85890,1,0,0:0:0:0:
192,192,85975,1,0,0:0:0:40:D#6s.wav
64,192,85975,1,0,0:0:0:20:normal-hitnormal.wav
320,192,86059,1,0,0:0:0:0:
192,192,86228,1,0,0:0:0:0:
64,192,86312,1,0,0:0:0:0:
448,192,86312,1,0,0:0:0:20:normal-hitnormal.wav
320,192,86480,1,0,0:0:0:20:hithat.wav
192,192,86649,1,0,0:0:0:40:D#6s.wav
64,192,86649,1,0,0:0:0:20:normal-hitnormal.wav
448,192,86733,1,0,0:0:0:0:
320,192,86817,1,0,0:0:0:20:hithat.wav
448,192,86986,1,0,0:0:0:20:normal-hitnormal.wav
64,192,86986,1,0,0:0:0:0:
64,192,87154,1,0,0:0:0:20:hithat.wav
192,192,87154,1,0,0:0:0:0:
448,192,87323,1,0,0:0:0:40:D#6s.wav
320,192,87323,1,0,0:0:0:20:normal-hitnormal.wav
192,192,87407,1,0,0:0:0:0:
320,192,87576,1,0,0:0:0:0:
64,192,87660,1,0,0:0:0:20:normal-hitnormal.wav
448,192,87660,1,0,0:0:0:0:
192,192,87829,1,0,0:0:0:20:hithat.wav
320,192,87997,1,0,0:0:0:40:D#6s.wav
64,192,87997,1,0,0:0:0:20:normal-hitnormal.wav
448,192,88081,1,0,0:0:0:0:
192,192,88166,1,0,0:0:0:20:hithat.wav
448,192,88334,1,0,0:0:0:0:
64,192,88334,1,0,0:0:0:20:normal-hitnormal.wav
192,192,88503,1,0,0:0:0:20:hithat.wav
320,192,88503,1,0,0:0:0:0:
320,192,88671,1,0,0:0:0:40:D#6s.wav
64,192,88671,1,0,0:0:0:20:normal-hitnormal.wav
448,192,88784,1,0,0:0:0:0:
64,192,88896,1,0,0:0:0:0:
192,192,89008,1,0,0:0:0:20:normal-hitnormal.wav
320,192,89121,1,0,0:0:0:0:
448,192,89233,1,0,0:0:0:0:
64,192,89345,1,0,0:0:0:20:normal-hitnormal.wav
192,192,89345,1,0,0:0:0:40:D#6s.wav
320,192,89458,1,0,0:0:0:0:
448,192,89570,1,0,0:0:0:0:
64,192,89683,1,0,0:0:0:20:normal-hitnormal.wav
192,192,89795,1,0,0:0:0:0:
320,192,89907,1,0,0:0:0:0:
448,192,90020,128,0,90709:0:0:0:40:D#4s.wav
64,192,90020,1,0,0:0:0:20:normal-hitnormal.wav
64,192,90709,1,0,0:0:0:20:normal-hitnormal.wav
192,192,90939,1,0,0:0:0:20:normal-hitnormal.wav
448,192,91170,1,0,0:0:0:20:normal-hitnormal.wav
320,192,91285,1,0,0:0:0:20:normal-hitnormal.wav
192,192,91399,1,0,0:0:0:40:G#5s.wav
64,192,91399,1,0,0:0:0:20:normal-hitnormal.wav
320,192,91860,1,0,0:0:0:40:B5s.wav
192,192,92091,1,0,0:0:0:40:A#5s.wav
320,192,92206,1,0,0:0:0:40:B5s.wav
448,192,92322,1,0,0:0:0:40:C#6s.wav
192,192,92552,1,0,0:0:0:40:B5s.wav
64,192,92668,1,0,0:0:0:40:A#5s.wav
192,192,92783,1,0,0:0:0:40:B5s.wav
448,192,92783,1,0,0:0:0:20:normal-hitnormal.wav
320,192,92899,1,0,0:0:0:40:C#6s.wav
448,192,93014,1,0,0:0:0:40:D#6s.wav
64,192,93245,1,0,0:0:0:40:C#6s.wav
192,192,93360,1,0,0:0:0:40:B5s.wav
320,192,93475,1,0,0:0:0:40:A#5s.wav
192,192,93591,1,0,0:0:0:40:B5s.wav
64,192,93706,1,0,0:0:0:40:C#6s.wav
448,192,93937,1,0,0:0:0:40:B5s.wav
192,192,94052,1,0,0:0:0:40:A#5s.wav
448,192,94168,1,0,0:0:0:40:B5s.wav
64,192,94168,1,0,0:0:0:20:normal-hitnormal.wav
192,192,94283,1,0,0:0:0:40:A#5s.wav
320,192,94399,1,0,0:0:0:40:G#5s.wav
64,192,94629,1,0,0:0:0:40:G#5s.wav
448,192,94860,1,0,0:0:0:40:A#5s.wav
320,192,94975,1,0,0:0:0:40:B5s.wav
192,192,95091,1,0,0:0:0:40:C#6s.wav
320,192,95322,1,0,0:0:0:40:B5s.wav
448,192,95437,1,0,0:0:0:40:A#5s.wav
320,192,95552,1,0,0:0:0:40:B5s.wav
64,192,95552,1,0,0:0:0:20:normal-hitnormal.wav
192,192,95668,1,0,0:0:0:40:C#6s.wav
64,192,95783,1,0,0:0:0:40:D#6s.wav
448,192,96014,1,0,0:0:0:40:C#6s.wav
320,192,96129,1,0,0:0:0:40:B5s.wav
192,192,96245,1,0,0:0:0:40:A#5s.wav
320,192,96360,1,0,0:0:0:40:B5s.wav
448,192,96475,1,0,0:0:0:40:C#6s.wav
64,192,96706,1,0,0:0:0:40:B5s.wav
320,192,96822,1,0,0:0:0:40:A#5s.wav
64,192,96937,1,0,0:0:0:40:B5s.wav
448,192,96937,1,0,0:0:0:20:normal-hitnormal.wav
320,192,97052,1,0,0:0:0:40:A#5s.wav
192,192,97168,1,0,0:0:0:40:G#5s.wav
320,192,97427,1,0,0:0:0:40:B5s.wav
448,192,97657,1,0,0:0:0:40:A#5s.wav
320,192,97773,1,0,0:0:0:40:B5s.wav
192,192,97888,1,0,0:0:0:40:C#6s.wav
64,192,98177,1,0,0:0:0:40:B5s.wav
320,192,98350,1,0,0:0:0:40:A#5s.wav
64,192,98465,1,0,0:0:0:40:B5s.wav
320,192,98580,1,0,0:0:0:40:A#5s.wav
448,192,98696,1,0,0:0:0:40:G#5s.wav
192,192,98910,1,0,0:0:0:10:normal-hitnormal.wav
64,192,98910,1,0,0:0:0:10:normal-hitnormal.wav
320,192,98910,1,0,0:0:0:40:G#5s.wav
448,192,99140,1,0,0:0:0:40:A#5s.wav
320,192,99256,1,0,0:0:0:40:B5s.wav
192,192,99371,1,0,0:0:0:40:C#6s.wav
64,192,99833,1,0,0:0:0:40:B5s.wav
320,192,100006,1,0,0:0:0:40:A#5s.wav
64,192,100179,1,0,0:0:0:40:B5s.wav
320,192,100294,1,0,0:0:0:40:A#5s.wav
448,192,100410,1,0,0:0:0:40:G#5s.wav
320,192,100629,1,0,0:0:0:10:normal-hitnormal.wav
192,192,100629,1,0,0:0:0:10:normal-hitnormal.wav
64,192,100629,1,0,0:0:0:40:G#5s.wav
448,192,100852,1,0,0:0:0:40:B5s.wav
320,192,100964,1,0,0:0:0:40:A#5s.wav
192,192,101076,1,0,0:0:0:40:G#5s.wav
64,192,101288,1,0,0:0:0:40:G#5s.wav
320,192,101288,1,0,0:0:0:10:normal-hitnormal.wav
448,192,101288,1,0,0:0:0:10:normal-hitnormal.wav
64,192,101507,1,0,0:0:0:40:B5s.wav
192,192,101617,1,0,0:0:0:40:A#5s.wav
320,192,101727,1,0,0:0:0:40:G#5s.wav
448,192,101943,1,0,0:0:0:40:B5s.wav
192,192,101943,1,0,0:0:0:10:normal-hitnormal.wav
64,192,101943,1,0,0:0:0:10:normal-hitnormal.wav
448,192,102161,1,0,0:0:0:40:B5s.wav
320,192,102270,1,0,0:0:0:40:A#5s.wav
192,192,102379,1,0,0:0:0:40:G#5s.wav
448,192,102590,1,0,0:0:0:20:normal-hitnormal.wav
320,192,102590,1,0,0:0:0:10:normal-hitnormal.wav
64,192,102590,1,0,0:0:0:40:G#5s.wav
448,192,103070,1,0,0:0:0:40:G#7s.wav
64,192,103070,1,0,0:0:0:40:G#5s.wav
448,192,103355,1,0,0:0:0:40:G#7s.wav
192,192,103355,1,0,0:0:0:40:D#6s.wav
320,192,103641,1,0,0:0:0:40:G#6s.wav
448,192,103641,1,0,0:0:0:40:G#7s.wav
448,192,103927,1,0,0:0:0:40:G#7s.wav
192,192,103927,1,0,0:0:0:40:D#6s.wav
448,192,104157,1,0,0:0:0:40:G#7s.wav
64,192,104157,1,0,0:0:0:40:G#5s.wav
448,192,104388,1,0,0:0:0:40:G#7s.wav
320,192,104388,1,0,0:0:0:20:normal-hitnormal.wav
64,192,104388,1,0,0:0:0:40:G#5s.wav
192,192,105093,1,0,0:0:0:40:B5s.wav
64,192,105093,1,0,0:0:0:40:G#5s.wav
448,192,105782,1,0,0:0:0:40:G#6s.wav
192,192,105782,1,0,0:0:0:40:B5s.wav
