osu file format v9

[General]
AudioFilename: cranky - EVERGREEN.mp3
AudioLeadIn: 1500
PreviewTime: 12630
Countdown: 0
SampleSet: Soft
StackLeniency: 0.7
Mode: 1
LetterboxInBreaks: 1

[Editor]
Bookmarks: 54009
DistanceSpacing: 1
BeatDivisor: 4
GridSize: 8

[Metadata]
Title:EVERGREEN
Artist:Cranky
Creator:Alace
Version:Taiko Oni
Source:
Tags:avira0922

[Difficulty]
HPDrainRate:8
CircleSize:7
OverallDifficulty:7
ApproachRate:7
SliderMultiplier:1.4
SliderTickRate:1

[Events]
//Background and Video events
0,0,"green-wallpaper.jpg"
//Break Periods
//Storyboard Layer 0 (Background)
//Storyboard Layer 1 (Fail)
//Storyboard Layer 2 (Pass)
//Storyboard Layer 3 (Foreground)
//Storyboard Sound Samples
//Background Colour Transformations
3,100,134,217,160

[TimingPoints]
1044,413.793103448276,4,2,1,100,1,0
67250,-100,4,2,1,100,0,1
80492,-100,4,2,1,100,0,0
141733,-100,4,2,1,100,0,1
154975,-100,4,2,1,100,0,0

[Colours]
Combo1 : 129,224,169
Combo2 : 230,249,238

[HitObjects]
176,72,1044,1,0
216,64,1664,1,0
248,64,2906,1,0
248,64,3526,1,0
248,64,3940,1,0
248,64,4354,1,0
248,64,4975,1,0
176,72,7664,5,0
216,64,8284,1,0
248,64,9526,1,0
248,64,10146,1,0
248,64,10560,1,0
248,64,10974,1,0
248,64,11595,1,0
264,136,12630,1,0
264,136,13044,1,0
264,136,13457,1,0
264,136,13871,1,0
248,72,14285,5,2
216,128,14699,1,0
216,128,14906,1,0
216,128,15112,1,2
216,128,15526,1,2
176,40,15940,1,6
176,40,16768,1,6
184,96,17181,1,6
264,72,17595,1,2
264,72,18009,1,0
264,72,18216,1,0
264,72,18423,1,2
264,72,18837,1,2
168,80,19250,1,6
168,80,20078,1,6
168,80,20492,1,6
208,128,20906,1,2
208,128,21319,1,0
208,128,21526,1,2
208,128,21733,1,2
208,128,22147,1,2
184,144,22561,1,6
184,144,22975,1,2
224,96,23181,1,2
184,144,23595,1,2
224,96,23802,1,2
272,152,24216,1,2
272,152,24423,1,2
272,152,24837,1,2
272,152,25044,1,2
272,152,25457,1,2
272,152,25664,1,2
232,96,25871,1,6
232,96,26285,1,6
232,96,26699,1,6
240,120,27112,1,6
168,120,27526,5,0
168,120,27733,1,2
168,120,27940,1,0
168,120,28147,1,2
168,120,28561,1,2
168,120,28768,1,0
168,120,28975,1,2
200,272,29181,1,0
168,160,29388,1,2
168,160,29492,1,0
192,112,29699,1,0
168,160,29802,1,2
168,160,30009,1,0
168,160,30216,1,2
168,160,30319,1,0
168,160,30423,1,0
168,160,30630,1,2
264,72,30837,1,0
192,112,31044,1,2
192,112,31147,1,2
192,112,31250,1,0
192,112,31457,1,2
192,112,31664,1,0
192,112,31871,1,2
192,112,32078,1,0
176,120,32181,1,2
192,112,32285,1,2
192,112,32388,1,0
176,128,32492,1,0
192,112,32699,1,2
192,112,32802,1,0
192,112,33009,1,0
192,112,33112,1,2
192,112,33319,1,0
192,112,33526,1,2
192,112,33630,1,0
192,112,33733,1,0
176,128,33940,1,2
304,144,34147,5,0
304,144,34354,1,2
432,272,34457,1,2
304,144,34561,1,0
304,144,34768,1,2
304,144,34975,1,0
304,144,35181,1,2
304,144,35285,1,0
304,144,35492,1,0
304,144,35595,1,2
304,144,35699,1,0
304,144,35802,1,0
288,160,36009,1,2
288,160,36216,1,0
232,112,36423,1,2
176,112,36630,1,0
176,112,36733,1,0
152,40,36837,1,2
176,112,37044,1,0
176,112,37250,1,2
192,16,37354,1,0
312,232,37457,1,0
312,296,37664,1,2
448,288,37871,1,0
288,104,38078,1,2
288,104,38285,1,0
288,104,38492,1,2
288,104,38595,1,2
288,104,38699,1,0
288,104,38906,1,2
288,104,39009,1,2
288,104,39112,1,0
288,104,39319,1,2
288,104,39423,1,2
288,104,39526,1,0
224,72,39733,1,0
152,56,39837,1,0
224,72,39940,1,0
288,40,40044,1,0
288,40,40147,1,2
272,128,40250,1,2
288,40,40354,1,2
288,40,40561,1,2
128,120,40768,5,2
128,120,40975,1,0
128,120,41078,1,2
128,120,41181,1,0
128,120,41388,1,2
128,120,41492,1,0
128,120,41699,1,0
128,120,41802,1,2
128,120,42009,1,0
200,24,42112,1,2
128,120,42216,1,0
128,120,42319,1,2
128,120,42526,1,0
128,120,42630,1,2
104,128,42837,1,0
104,128,43044,1,2
192,96,43250,1,0
104,128,43457,1,2
208,48,43561,1,0
208,48,43664,1,0
208,48,43871,1,2
128,120,44078,1,2
128,120,44285,1,0
128,120,44388,1,2
128,120,44491,1,0
128,120,44698,1,2
128,120,44802,1,0
128,120,45009,1,0
128,120,45112,1,2
128,120,45319,1,0
208,48,45423,1,2
128,120,45526,1,0
128,120,45630,1,2
184,0,45837,1,0
128,120,45940,1,2
104,128,46147,1,0
104,128,46354,1,2
192,96,46561,1,0
104,128,46768,1,2
208,48,46974,1,0
208,48,47181,1,2
128,120,47388,5,2
128,120,47595,1,0
128,120,47698,1,2
128,120,47802,1,0
128,120,48008,1,2
128,120,48112,1,0
128,120,48319,1,0
128,120,48423,1,2
128,120,48630,1,0
208,48,48733,1,2
128,120,48836,1,0
128,120,48939,1,2
128,120,49146,1,0
128,120,49250,1,2
104,128,49457,1,0
104,128,49664,1,2
192,96,49870,1,0
104,128,50077,1,2
208,48,50181,1,0
208,48,50284,1,0
208,48,50492,1,2
128,120,50699,1,2
128,120,50906,1,0
128,120,51009,1,2
128,120,51112,1,0
128,120,51319,1,2
128,120,51423,1,0
128,120,51630,1,0
128,120,51733,1,2
128,120,51940,1,0
128,120,52147,1,2
128,120,52250,1,0
128,120,52457,1,0
128,120,52561,1,2
128,64,52664,1,0
104,128,52768,1,2
104,128,52975,1,2
192,96,53181,1,0
128,64,53285,1,0
104,128,53388,1,2
208,48,53492,1,2
208,48,53595,1,0
152,32,53699,1,0
208,48,53802,1,0
152,80,54009,5,0
176,120,54112,1,2
192,72,54216,1,0
176,120,54319,1,2
232,160,54422,1,0
232,160,54630,1,2
176,120,54733,1,0
176,120,54940,1,0
176,120,55043,1,2
176,120,55250,1,0
176,120,55457,1,2
152,80,55664,1,0
176,120,55767,1,2
168,0,55871,1,2
200,48,56078,1,0
232,160,56284,1,2
176,120,56388,1,0
176,120,56595,1,0
176,120,56698,1,2
176,120,56905,1,0
176,120,57112,1,2
152,80,57319,1,0
176,120,57422,1,2
192,72,57526,1,0
176,120,57629,1,2
232,160,57732,1,0
232,160,57939,1,2
176,120,58043,1,0
176,120,58250,1,0
176,120,58353,1,2
176,120,58560,1,2
176,120,58767,1,0
152,80,58975,1,2
176,120,59078,1,0
192,72,59181,1,2
232,160,59388,1,0
232,160,59595,1,2
176,120,59699,1,0
176,120,59906,1,0
176,120,60009,1,2
176,120,60216,1,0
176,120,60423,1,2
152,80,60630,5,0
176,120,60733,1,2
168,0,60837,1,0
176,120,60940,1,2
232,160,61043,1,0
232,160,61250,1,2
176,120,61354,1,0
176,120,61561,1,0
176,120,61664,1,2
184,24,61871,1,0
184,24,62078,1,2
152,80,62285,1,0
176,120,62388,1,2
168,0,62492,1,2
200,48,62699,1,0
232,160,62906,1,2
176,120,63009,1,0
176,120,63216,1,0
176,120,63319,1,2
176,120,63526,1,0
176,120,63733,1,2
152,80,63940,1,0
176,120,64043,1,2
192,72,64147,1,0
176,120,64250,1,2
232,160,64353,1,0
232,160,64560,1,2
176,120,64664,1,0
176,120,64871,1,0
176,120,64974,1,2
176,120,65181,1,0
176,120,65388,1,2
152,80,65595,1,2
168,0,65802,1,0
184,32,65871,1,0
184,32,65940,1,0
200,48,66009,1,0
232,160,66215,1,0
176,120,66423,1,2
176,120,66526,1,2
176,120,66629,1,2
256,56,66733,1,2
176,120,66836,1,0
256,56,66940,1,0
176,120,67043,1,0
256,56,67147,1,0
112,48,67250,5,0
136,64,67457,1,2
136,64,67664,1,0
136,64,67871,1,2
152,88,67975,1,0
152,88,68181,1,0
152,88,68285,1,2
152,88,68492,1,0
152,88,68595,1,0
152,88,68699,1,2
136,64,68906,1,0
136,176,69112,1,2
136,176,69216,1,2
136,176,69319,1,0
136,176,69526,1,2
136,176,69630,1,2
136,176,69733,1,0
136,176,69940,1,2
136,176,70044,1,2
136,176,70147,1,0
136,176,70354,1,2
128,88,70457,1,2
128,88,70561,1,0
128,88,70768,1,2
176,96,70975,1,0
176,96,71181,1,2
176,96,71388,1,0
176,96,71595,1,2
176,96,71699,1,2
176,96,71802,1,0
176,96,72009,1,2
176,96,72112,1,2
176,96,72216,1,0
192,128,72423,1,0
192,128,72630,1,2
192,128,72837,1,2
192,128,73044,1,0
192,128,73147,1,0
192,128,73250,1,2
192,128,73354,1,2
192,128,73457,1,0
192,128,73561,1,0
192,128,73664,1,2
192,128,73768,1,2
232,88,73871,1,0
232,88,74078,1,2
232,88,74285,1,0
232,88,74492,1,2
232,88,74595,1,0
232,88,74802,1,0
232,88,74906,1,2
232,88,75112,1,0
232,88,75319,1,2
232,88,75423,1,0
232,88,75630,1,0
232,88,75733,1,2
232,88,75837,1,2
232,88,75940,1,0
232,88,76147,1,2
232,88,76250,1,2
224,64,76354,1,0
232,88,76457,1,2
224,64,76561,1,2
224,64,76664,1,0
224,64,76768,1,2
232,88,76871,1,2
232,88,76975,1,0
232,88,77078,1,2
232,88,77181,1,2
232,88,77388,1,0
232,88,77595,1,2
232,88,77802,1,0
232,88,78009,1,2
232,88,78423,1,2
232,88,78837,1,2
232,88,79044,1,0
232,88,79147,1,0
232,88,79250,1,2
232,88,79457,1,2
232,88,79561,1,2
232,88,79664,1,2
232,88,79768,1,2
232,88,79871,1,0
232,88,79975,1,2
232,88,80078,1,0
232,88,80181,1,2
232,88,80285,1,0
232,88,80388,1,2
232,88,80492,5,0
216,104,80906,1,2
216,104,81319,1,0
216,104,81526,1,0
216,104,81733,1,2
216,104,81940,1,0
216,104,82147,1,0
144,104,82354,1,0
144,104,82457,1,0
216,104,82561,1,2
216,104,82768,1,0
144,104,82975,1,0
144,104,83181,1,0
144,104,83388,1,2
144,104,83595,1,0
144,104,83802,1,0
160,120,84216,1,2
144,104,84630,1,0
144,104,84837,1,0
144,104,85044,1,2
144,104,85250,1,0
192,96,85457,1,0
192,96,85664,1,0
192,96,85768,1,0
192,96,85871,1,2
192,96,86078,1,0
192,96,86285,1,0
192,96,86492,1,0
192,96,86595,1,2
192,96,86699,1,2
192,96,86906,1,2
192,96,87009,1,2
192,96,87112,1,0
192,56,87526,1,2
192,56,87940,1,0
192,56,88147,1,0
192,56,88354,1,2
192,56,88561,1,0
192,56,88768,1,0
192,56,88975,1,0
192,56,89078,1,0
192,80,89181,1,2
192,80,89388,1,0
192,80,89595,1,0
192,80,89802,1,0
192,80,90009,1,2
192,80,90216,1,0
192,80,90423,1,2
192,80,90526,1,2
192,80,90733,1,2
192,80,90837,1,2
184,16,91044,1,2
184,16,91147,1,2
184,16,91250,1,0
184,16,91354,1,0
184,16,91561,1,0
168,32,91664,1,0
168,32,91871,1,0
168,32,91975,1,0
168,32,92078,1,2
168,56,92492,1,2
168,56,92906,1,2
168,56,93319,1,2
168,56,93526,1,0
240,88,93733,5,6
224,104,94147,1,2
224,104,94560,1,0
224,104,94767,1,0
224,104,94974,1,2
224,104,95181,1,0
224,104,95388,1,0
152,104,95595,1,0
152,104,95698,1,0
224,104,95802,1,2
224,104,96009,1,0
152,104,96216,1,0
152,104,96422,1,0
152,104,96629,1,2
152,104,96836,1,0
152,104,97043,1,0
168,120,97457,1,2
152,104,97871,1,0
152,104,98078,1,0
152,104,98285,1,2
152,104,98491,1,0
200,96,98698,1,0
200,96,98905,1,0
200,96,99009,1,0
200,96,99112,1,2
200,96,99319,1,0
200,96,99526,1,0
200,96,99733,1,0
200,96,99836,1,0
200,96,99940,1,2
200,96,100147,1,0
200,96,100250,1,0
200,96,100353,1,0
200,56,100767,1,2
200,56,101181,1,0
200,56,101388,1,0
200,56,101595,1,2
200,56,101802,1,0
200,56,102216,1,0
200,80,102422,1,2
200,80,102836,1,0
200,80,103043,1,0
200,80,103250,1,2
200,80,103457,1,0
200,80,103664,1,0
200,80,104078,1,2
240,160,104285,1,0
240,160,104388,1,0
240,160,104492,1,0
200,80,104699,1,0
200,80,104906,1,2
200,80,105112,1,0
200,80,105216,1,2
200,80,105319,1,2
184,96,105526,1,0
184,96,105630,1,2
176,56,105733,1,2
184,96,105940,1,0
184,96,106044,1,2
176,56,106147,1,2
184,96,106354,1,2
184,96,106457,1,2
176,56,106560,1,2
184,96,106664,1,2
176,56,106768,1,2
184,96,106975,5,0
176,24,107078,1,0
176,24,107181,1,0
176,24,107285,1,0
176,24,107388,1,0
176,24,107595,1,0
176,24,107699,1,0
176,24,107802,1,0
176,24,107906,1,0
176,24,108009,1,0
256,24,109871,1,0
256,24,110285,1,0
200,56,110388,1,0
200,56,110492,1,0
200,56,110595,1,0
160,48,110699,1,0
200,56,110906,1,0
200,56,111009,1,0
200,56,111112,1,0
200,56,111216,1,0
160,48,111319,1,0
160,136,113181,1,0
176,160,113595,1,0
176,184,113906,1,0
184,208,114216,1,0
184,208,114526,1,0
184,208,114837,1,0
184,208,115044,1,0
176,160,115250,1,0
176,184,115561,1,0
184,208,115871,1,0
184,208,116181,1,0
184,208,116492,1,0
184,208,116699,1,0
176,184,116906,1,0
184,208,117216,1,0
184,208,117526,1,0
184,208,117837,1,0
184,208,118147,1,0
168,32,118354,1,0
168,32,118561,1,0
168,32,118871,1,0
168,32,119181,1,0
168,32,119492,1,0
168,32,119802,1,0
168,32,120009,1,0
176,88,120216,1,4
200,80,121044,1,4
200,80,121871,1,4
240,72,122285,1,4
240,72,122699,1,4
240,72,123112,1,4
240,72,123526,1,4
240,72,123733,1,4
240,72,123940,1,4
240,72,124147,1,4
240,72,124354,1,4
240,72,124561,1,4
240,72,124768,1,4
240,72,124975,1,4
240,72,125181,1,0
240,72,125285,1,0
240,72,125388,1,0
240,72,125492,1,0
240,72,125595,1,0
240,72,125699,1,0
240,72,125802,1,0
240,72,125906,1,0
240,72,126009,1,0
240,72,126112,1,0
240,72,126216,1,0
240,72,126319,1,0
240,72,126423,1,0
240,72,126526,1,0
240,72,126630,1,0
240,72,126733,1,0
144,144,128492,5,4
168,112,129112,1,4
168,112,129733,1,4
168,112,130354,1,4
168,112,130975,1,4
504,376,131181,1,0
384,264,131285,1,0
176,136,131388,1,0
176,136,131595,1,0
176,136,131802,1,2
184,32,131906,1,2
272,120,132112,1,2
272,120,132216,1,2
184,32,132423,1,2
272,120,132526,1,2
112,64,132733,1,2
112,64,132837,1,2
104,144,133044,1,0
104,144,133250,1,0
192,104,133457,1,2
192,104,133561,1,0
192,104,133768,1,0
192,104,133871,1,2
192,104,134078,1,2
192,104,134181,1,0
192,104,134285,1,0
192,104,134492,1,2
192,104,134699,1,2
192,104,134906,1,2
272,88,135112,1,4
272,88,135733,1,4
272,88,136354,1,4
256,104,136975,1,4
256,104,137595,1,4
256,104,137802,1,0
256,128,137906,1,0
256,104,138009,1,0
256,104,138216,1,0
256,128,138423,1,2
256,128,138526,1,2
256,128,138733,1,2
256,128,138837,1,2
256,128,139044,1,2
256,128,139147,1,2
256,128,139354,1,2
256,128,139457,1,2
256,128,139664,1,0
256,128,139871,1,0
256,128,140078,1,2
256,128,140181,1,0
256,128,140388,1,0
208,64,140492,1,2
208,64,140699,1,2
208,64,140802,1,0
208,144,140906,1,0
208,144,141112,1,2
208,144,141319,1,2
208,144,141526,1,0
112,48,141733,5,0
136,64,141940,1,2
136,64,142147,1,0
136,64,142354,1,2
152,88,142458,1,0
152,88,142664,1,0
152,88,142768,1,2
152,88,142975,1,0
152,88,143078,1,2
152,88,143182,1,2
136,64,143389,1,0
136,176,143595,1,2
136,176,143699,1,2
136,176,143802,1,0
136,176,144009,1,2
136,176,144113,1,2
136,176,144216,1,0
136,176,144423,1,2
136,176,144527,1,2
136,176,144630,1,0
136,176,144837,1,2
128,88,144940,1,2
128,88,145044,1,0
128,88,145250,1,2
176,96,145458,1,0
176,96,145664,1,2
176,96,145871,1,0
176,96,146078,1,2
176,96,146182,1,2
176,96,146285,1,0
176,96,146492,1,2
176,96,146595,1,2
176,96,146699,1,0
192,128,146906,1,0
192,128,147113,1,2
192,128,147320,1,2
192,128,147527,1,0
192,128,147630,1,0
192,128,147733,1,0
192,128,147837,1,0
192,128,147940,1,2
192,128,148044,1,2
192,128,148147,1,2
192,128,148251,1,2
232,88,148354,1,0
232,88,148561,1,2
232,88,148768,1,0
232,88,148975,1,2
232,88,149078,1,0
232,88,149285,1,0
232,88,149389,1,2
232,88,149595,1,0
232,88,149802,1,2
232,88,149906,1,0
232,88,150113,1,0
232,88,150216,1,2
232,88,150320,1,2
232,88,150423,1,0
232,88,150630,1,2
232,88,150733,1,2
224,64,150837,1,2
232,88,150940,1,2
224,64,151044,1,0
224,64,151147,1,0
224,64,151251,1,0
232,88,151354,1,0
232,88,151458,1,2
232,88,151561,1,2
232,88,151664,1,2
232,88,151871,1,0
232,88,152078,1,2
232,88,152285,1,0
232,88,152492,1,2
232,88,152906,1,2
232,88,153319,1,2
232,88,153526,1,2
240,176,153630,1,0
232,88,153733,1,2
256,192,153940,12,0,154975
