osu file format v9

[General]
AudioFilename: cranky - EVERGREEN.mp3
AudioLeadIn: 1489
PreviewTime: 12630
Countdown: 0
SampleSet: Soft
StackLeniency: 0.7
Mode: 0
LetterboxInBreaks: 1

[Editor]
DistanceSpacing: 1
BeatDivisor: 4
GridSize: 8

[Metadata]
Title:EVERGREEN
Artist:Cranky
Creator:Alace
Version:Normal
Source:
Tags:avira0922

[Difficulty]
HPDrainRate:4
CircleSize:3
OverallDifficulty:3
ApproachRate:4
SliderMultiplier:1.2
SliderTickRate:1

[Events]
//Background and Video events
0,0,"green-wallpaper.jpg"
//Break Periods
2,107174,112275
//Storyboard Layer 0 (Background)
//Storyboard Layer 1 (Fail)
//Storyboard Layer 2 (Pass)
//Storyboard Layer 3 (Foreground)
//Storyboard Sound Samples
//Background Colour Transformations
3,100,134,217,160

[TimingPoints]
1044,413.793103448276,4,2,1,69,1,0
12216,-100,4,2,1,40,0,0
12837,-100,4,2,1,50,0,0
13250,-100,4,2,1,59,0,0
13664,-100,4,2,1,71,0,0
14078,-100,4,2,1,55,0,0
24216,-100,4,2,1,55,0,0
25044,-100,4,2,1,40,0,0
25871,-100,4,2,1,60,0,0
27319,-100,4,2,1,70,0,0
39216,-100,4,2,1,41,0,0
39940,-100,4,2,1,55,0,0
40664,-100,4,2,1,80,0,0
65699,-100,4,2,1,60,0,0
67250,-100,4,2,1,91,0,0
80492,-100,4,2,1,76,0,0
113181,-100,4,2,1,60,0,0
122492,-100,4,2,1,70,0,0
123423,-100,4,2,1,80,0,0
124250,-100,4,2,1,91,0,0
125078,-100,4,2,1,100,0,0
128078,-100,4,2,1,70,0,0
131802,-100,4,2,1,80,0,0
141733,-100,4,2,1,90,0,0
153319,-100,4,2,1,70,0,0

[Colours]
Combo1 : 129,224,169
Combo2 : 230,249,238

[HitObjects]
176,64,1044,1,0
336,64,1664,1,0
80,200,2906,5,0
176,304,3526,1,0
256,248,3940,5,0
336,304,4354,5,0
432,200,4974,1,0
336,320,7664,5,0
176,320,8284,1,0
432,184,9526,5,0
336,80,10146,1,0
256,136,10560,5,0
176,80,10974,5,0
80,184,11594,1,0
416,272,12630,6,0,B|256:424|96:272,1,360
80,152,14285,6,0,B|128:96,6,60
256,104,17595,6,0,B|256:168,6,60
432,152,20906,6,0,B|384:96,6,60
48,112,25871,5,0
152,168,26285,1,0
56,240,26699,1,0
160,296,27112,1,0
256,72,27940,5,8
464,192,28768,1,8
256,312,29595,1,8
48,192,30423,1,8
168,192,30837,6,0,B|240:192,6,60,0|0|8|0|0|0|8
136,80,32492,5,0
248,128,32906,1,8
248,256,33319,1,0
136,304,33733,1,8
344,192,34561,5,8
256,24,35388,1,8
168,192,36216,1,8
256,360,37043,1,8
256,240,37457,6,0,B|136:312,1,120,0|8
256,240,38285,2,0,B|376:312,1,120,0|8
256,192,39112,12,2,40768
16,72,41388,5,2
184,144,42009,1,2
16,208,42630,1,2
184,280,43251,1,2
288,216,43664,1,2
288,336,44078,5,2
400,192,44699,1,2
256,80,45319,1,2
112,192,45940,1,2
224,336,46561,1,2
344,312,46975,1,2
448,248,47388,5,2
392,80,48009,1,2
280,224,48630,1,2
224,56,49250,1,2
112,192,49871,1,2
32,280,50285,1,2
112,192,50699,5,2
224,328,51320,1,2
280,160,51940,1,2
392,304,52561,1,2
448,136,53182,1,2
360,56,53596,1,2
240,56,54009,5,2
120,56,54423,1,8
88,104,54630,1,2
120,152,54837,1,2
240,152,55250,1,10
360,152,55664,1,0
400,200,55871,1,2
360,248,56078,1,10
240,248,56492,1,2
120,248,56906,1,10
184,352,57319,5,2
288,288,57733,1,8
344,256,57940,1,2
400,224,58147,1,2
304,152,58561,1,10
200,88,58975,1,0
144,56,59182,1,2
88,24,59389,1,10
16,120,59802,1,2
56,232,60216,1,10
128,328,60630,5,2
168,216,61044,1,8
192,160,61251,1,2
232,120,61458,1,2
296,224,61871,1,10
392,296,62285,1,0
352,344,62492,1,2
296,360,62699,1,10
192,296,63113,1,2
88,232,63527,1,10
32,128,63940,5,2
208,88,64561,1,2
72,208,65181,1,2
248,168,65802,1,2
200,344,66423,1,2
168,224,66837,1,2
280,264,67250,6,0,B|400:200,2,120,4|8|0
248,216,68285,2,0,B|272:152,2,60,0|8|0
192,208,68906,5,0
152,320,69319,1,8
96,208,69733,1,0
144,96,70147,1,8
248,152,70561,6,0,B|305:28,2,120,0|8|0
297,181,71596,2,0,B|360:154,2,60,0|8|0
308,236,72217,5,0
422,279,72629,1,8
313,332,73044,1,0
198,282,73457,1,8
216,160,73871,6,0,B|285:43,2,120,0|8|0
163,135,74906,2,0,B|151:68,2,60,0|8|0
111,157,75527,5,0
12,86,75940,1,8
29,206,76354,1,0
135,273,76768,1,8
248,312,77181,6,0,B|320:312|360:248,1,120,4|8
464,208,78009,2,0,B|400:192|392:104,1,120,4|8
320,24,78837,5,4
216,88,79250,1,4
128,168,79664,1,4
48,256,80078,1,4
120,352,80492,6,0,B|176:320,6,60,4|0|8|0|0|0|8
96,232,82147,2,0,B|216:176,1,120,0|8
112,112,82975,2,0,B|232:56,1,120,0|8
336,40,83802,6,0,B|392:72,6,60,0|0|8|0|0|0|8
312,160,85457,2,0,B|432:216,1,120,0|8
328,280,86285,2,0,B|448:336,1,120,0|8
328,280,87112,5,0
208,304,87526,1,8
152,288,87733,1,0
56,216,88147,1,0
72,160,88354,1,8
112,48,88768,1,0
224,88,89181,1,8
280,104,89388,1,0
360,192,89802,1,0
352,248,90009,1,8
240,208,90423,6,0,B|144:296,3,120,0|8|0|8
256,344,92078,5,4
360,288,92492,1,4
456,208,92906,1,4
472,88,93319,1,4
352,64,93733,6,0,B|296:96,6,60,4|0|8|0|0|0|8
376,184,95388,2,0,B|256:240,1,120,0|8
360,304,96216,2,0,B|240:360,1,120,0|8
136,336,97044,6,0,B|80:304,6,60,0|0|8|0|0|0|8
160,216,98699,2,0,B|40:160,1,120,0|8
144,96,99527,2,0,B|24:40,1,120,0|8
144,96,100354,6,0,B|120:160,6,60,0|0|8|0|0|0|8
256,128,102009,2,0,B|210:252,1,120,0|8
336,264,102837,2,0,B|381:139,1,120,0|8
440,48,103664,5,0
320,72,104078,1,8
216,128,104492,1,0
144,224,104906,1,8
128,344,105319,1,0
184,328,105526,6,2,B|240:344,2,30
216,272,105940,2,2,B|256:272,2,30
224,216,106354,2,2,B|272:200,2,30
208,160,106768,2,2,B|248:128,2,30
120,224,113595,6,0,B|136:280|192:304,4,90
256,192,115250,2,0,B|256:88,4,90
392,224,116906,2,0,B|376:280|320:304,4,90
256,192,118561,2,0,B|256:296,4,90
256,72,120216,5,4
128,336,121871,5,0
384,336,122699,1,0
256,136,123526,5,0
152,192,123940,1,0
256,248,124354,1,0
360,192,124768,1,0
360,192,124975,1,0
256,192,125181,12,0,126733
432,80,128492,5,0
256,120,129112,1,0
80,168,129733,1,0
208,296,130354,1,0
376,240,130975,1,0
320,344,131388,1,0
280,232,131802,6,0,B|248:176|280:104,1,120,4|8
176,48,132630,2,0,B|128:96|56:80,1,120,0|8
136,176,133457,2,0,B|64:224|72:288,1,120,0|8
152,360,134285,2,0,B|208:320|272:336,1,120,0|8
376,296,135112,5,4
200,256,135732,1,4
24,208,136353,1,4
152,80,136974,1,4
320,136,137595,1,4
264,32,138008,1,4
224,144,138423,6,0,B|184:208|112:192,1,120,4|8
32,272,139250,2,0,B|104:272|136:344,1,120,0|8
240,368,140078,2,0,B|280:312|248:240,1,120,0|8
376,272,140906,2,0,B|344:216|376:152,1,120,0|8
264,208,141733,6,0,B|187:319,2,120,4|8|0
218,170,142768,2,0,B|153:187,2,60,0|8|0
216,114,143389,5,0
110,54,143802,1,8
226,19,144216,1,0
332,86,144630,1,8
248,176,145044,6,0,B|130:244,2,120,0|8|0
282,223,146079,2,0,B|260:287,2,60,0|8|0
338,229,146700,5,0
373,116,147113,1,8
433,226,147527,1,0
390,339,147940,1,8
296,264,148354,6,0,B|188:346,2,120,0|8|0
264,214,149389,2,0,B|196:210,2,60,0|8|0
280,160,150010,5,0
197,70,150423,1,8
318,72,150837,1,0
398,169,151251,1,8
408,288,151664,6,0,B|352:248|288:288,1,120,0|8
184,320,152492,2,0,B|127:355|71:315,1,120,0|8
256,192,153319,12,2,154975
