osu file format v9

[General]
AudioFilename: cranky - EVERGREEN.mp3
AudioLeadIn: 1489
PreviewTime: 12630
Countdown: 0
SampleSet: Soft
StackLeniency: 0.7
Mode: 0
LetterboxInBreaks: 1

[Editor]
Bookmarks: 124768
DistanceSpacing: 1.2
BeatDivisor: 4
GridSize: 4

[Metadata]
Title:EVERGREEN
Artist:Cranky
Creator:Alace
Version:Hyper
Source:
Tags:avira0922

[Difficulty]
HPDrainRate:5
CircleSize:4
OverallDifficulty:6
ApproachRate:7
SliderMultiplier:1.6
SliderTickRate:0.5

[Events]
//Background and Video events
0,0,"green-wallpaper.jpg"
//Break Periods
2,107174,112695
//Storyboard Layer 0 (Background)
//Storyboard Layer 1 (Fail)
//Storyboard Layer 2 (Pass)
//Storyboard Layer 3 (Foreground)
//Storyboard Sound Samples
//Background Colour Transformations
3,100,134,217,160

[TimingPoints]
1044,413.793103448276,4,2,1,70,1,0
12216,-100,4,2,1,40,0,0
12837,-100,4,2,1,50,0,0
13250,-100,4,2,1,59,0,0
13664,-100,4,2,1,71,0,0
14078,-100,4,2,1,55,0,0
24216,-100,4,2,1,55,0,0
25044,-100,4,2,1,40,0,0
25871,-100,4,2,1,60,0,0
27319,-100,4,2,1,70,0,0
38388,-100,4,2,1,61,0,0
38802,-100,4,2,1,50,0,0
39216,-100,4,2,1,41,0,0
39940,-100,4,2,1,55,0,0
40664,-100,4,2,1,80,0,0
65699,-100,4,2,1,60,0,0
67250,-100,4,2,1,91,0,0
80492,-100,4,2,1,76,0,0
113181,-100,4,2,1,60,0,0
122492,-100,4,2,1,70,0,0
123423,-100,4,2,1,80,0,0
124250,-100,4,2,1,91,0,0
125078,-100,4,2,1,100,0,0
128078,-100,4,2,1,70,0,0
131802,-100,4,2,1,80,0,0
141733,-100,4,2,1,90,0,0
153319,-100,4,2,1,70,0,0

[Colours]
Combo1 : 129,224,169
Combo2 : 230,249,238

[HitObjects]
56,272,1044,1,0
144,192,1664,1,0
144,192,2906,5,0
232,272,3526,1,0
256,192,3940,5,0
280,112,4354,5,0
368,192,4974,1,0
456,112,7664,5,0
368,192,8284,1,0
368,192,9526,5,0
280,112,10146,1,0
256,192,10560,5,0
232,272,10974,5,0
144,192,11594,1,0
144,192,12630,5,0
232,160,13044,1,0
320,192,13457,1,0
408,160,13871,1,0
328,328,14285,6,0,B|256:264|176:304,1,160
112,320,14906,1,0
128,248,15112,2,0,B|200:184|280:224,1,160
275,221,15940,5,0
376,168,16354,1,0
320,72,16768,1,0
219,125,17182,1,0
184,328,17595,6,0,B|256:264|336:304,1,160
400,320,18216,1,0
384,248,18422,2,0,B|312:184|232:224,1,160
236,221,19250,5,0
136,168,19664,1,0
192,72,20078,1,0
293,125,20492,1,0
293,125,20906,6,0,B|384:112|416:24,1,160
464,104,21526,2,0,B|408:176,1,80
440,256,21940,2,0,B|496:184,1,80
489,192,22561,5,0
22,192,23388,1,0
432,304,24216,5,0
432,304,24423,1,0
312,232,24837,1,0
176,192,25250,1,0
32,192,25664,1,0
32,192,25871,5,0
256,56,26285,1,0
480,192,26699,1,0
256,328,27113,1,0
312,120,27526,6,0,B|400:120,1,80,0|2
352,192,27940,2,0,B|272:192,1,80,8|2
136,104,28561,1,2
208,144,28768,1,8
136,184,28975,1,2
216,320,29388,1,2
136,304,29595,1,8
192,248,29802,1,2
56,328,30216,1,2
136,304,30423,1,8
80,248,30630,1,2
28,168,30837,5,0
208,100,31250,1,8
280,280,31664,1,0
460,212,32077,1,8
460,212,32285,1,0
404,156,32492,2,0,B|320:116|320:28,2,160,0|8|0
460,216,33526,1,0
404,156,33733,1,8
460,216,33940,1,0
380,232,34147,6,0,B|400:312,1,80
308,280,34561,2,0,B|288:200,1,80,8|0
212,244,34975,2,0,B|232:324,1,80
140,292,35389,2,0,B|120:212,1,80,8|0
120,214,35699,1,0
120,214,35802,5,0
256,76,36216,1,8
391,214,36630,1,0
256,76,37044,1,8
256,336,37457,6,0,B|176:336,1,80
256,256,37871,2,0,B|340:256,1,80,8|0
176,232,38285,1,2
104,196,38492,1,2
120,160,38595,1,2
152,136,38699,1,2
96,80,38906,1,2
60,96,39009,1,2
20,100,39112,1,2
256,192,39319,12,0,40561
88,300,40768,6,0,B|128:220|216:204,1,160,2|8
252,272,41388,2,0,B|364:364|468:252,2,240,2|10|2
280,196,42837,1,10
252,120,43044,1,0
280,44,43250,2,0,B|200:12|120:60,1,160,2|10
52,88,43871,1,0
152,172,44078,6,0,B|128:240|32:292,1,160,2|8
104,348,44699,2,0,B|164:272|236:244|316:276,2,240,2|10|2
24,352,46147,1,10
56,280,46354,1,0
88,208,46561,1,2
424,208,46975,1,10
72,56,47388,6,0,B|184:56|208:156,1,160,2|8
256,192,48009,1,2
311,251,48216,2,0,B|328:328|440:328,2,160,2|10|0
256,192,49250,1,2
200,132,49457,2,0,B|184:56|72:56,2,160,10|2|10
72,328,50699,6,0,B|184:328|208:228,1,160,2|8
256,192,51320,1,2
311,132,51527,2,0,B|328:56|440:56,2,160,2|8|0
256,192,52561,1,2
200,251,52768,2,0,B|184:328|72:328,2,160,10|2|10
256,192,53802,1,2
260,112,54009,6,0,B|96:52,1,160,2|8
112,136,54630,2,0,B|192:164,2,80,2|2|0
112,216,55250,2,0,B|32:188,1,80,10|2
116,328,55871,2,0,B|196:356,1,80,2|2
404,352,56492,1,2
191,354,56906,1,10
384,156,57319,6,0,B|296:180|264:268,1,160,2|8
268,257,57940,2,0,B|196:224,1,80,2|2
92,176,58354,1,0
195,223,58561,1,8
372,44,58975,2,0,B|460:44,1,80,0|2
384,120,59388,2,0,B|300:120,1,80,10|0
200,120,59802,1,2
256,320,60216,1,10
200,120,60630,6,0,B|264:173,1,80,2|2
261,171,61044,1,8
395,210,61250,2,0,B|330:156,1,80,2|2
334,159,61664,1,0
271,34,61871,2,0,B|335:87,1,80,10|2
241,350,62492,2,0,B|176:296,1,80,2|2
272,32,63112,1,2
241,350,63526,1,10
24,148,63940,6,0,B|88:94,1,80,2|2
85,97,64354,1,8
219,58,64560,2,0,B|154:111,1,80,2|2
158,109,64974,1,0
95,234,65181,2,0,B|159:180,1,80,10|2
156,182,65595,1,0
236,196,65802,5,2
236,196,65906,1,2
236,196,66009,1,2
316,196,66216,2,2,B|360:196,6,40
236,196,67044,1,2
164,112,67250,6,0,B|120:196|24:172,2,160,4|8|0
232,56,68285,1,0
304,108,68492,1,8
376,56,68699,1,0
448,108,68906,1,0
344,288,69319,1,8
448,108,69733,1,0
344,288,70147,1,8
344,288,70354,1,0
240,268,70561,6,0,B|192:332,1,80,0|2
80,216,70975,2,0,B|128:280,1,80,8|2
232,148,71388,2,0,B|184:212,1,80,0|2
72,96,71802,2,0,B|120:160,1,80,8|2
136,32,72216,5,2
216,40,72423,1,2
296,28,72630,1,10
376,40,72837,1,2
456,32,73044,2,0,B|476:68,7,40,2|0|0|0|8|0|0|0
476,112,73871,6,0,B|434:183|331:170,2,160,0|8|0
388,101,74906,1,0
301,86,75112,1,8
214,75,75319,1,0
127,65,75526,1,0
56,328,75940,1,8
316,368,76354,1,0
387,105,76768,1,8
220,280,77181,6,0,B|268:344,1,80,4|0
380,228,77595,2,0,B|332:292,1,80,8|0
228,160,78008,2,0,B|276:224,1,80,4|0
388,108,78422,2,0,B|340:172,1,80,8|0
256,68,78837,5,4
44,192,79250,1,4
256,316,79664,1,4
468,192,80077,1,4
44,192,80492,5,4
116,176,80699,1,0
188,168,80906,1,8
256,192,81112,1,0
324,216,81319,1,0
396,208,81526,1,0
468,192,81733,1,8
256,56,82147,2,0,B|96:56,1,160,0|8
256,328,82975,2,0,B|416:328,1,160,0|8
468,192,83802,5,0
396,208,84009,1,0
324,216,84216,1,8
256,192,84422,1,0
188,168,84629,1,0
116,176,84836,1,0
44,192,85043,1,8
256,328,85457,2,0,B|416:328,1,160,0|8
256,56,86285,2,0,B|96:56,1,160,0|8
32,176,87112,6,0,B|128:200|152:280,1,160,0|8
149,273,87733,2,0,B|224:240,1,80
316,196,88147,1,0
222,240,88354,1,8
256,36,88768,1,0
40,192,89181,1,8
256,348,89595,1,0
472,192,90008,1,8
256,244,90423,5,0
184,192,90630,2,0,B|144:192,2,40,0|2|8
256,140,91044,2,0,B|256:100,2,40,0|2|0
328,192,91457,2,0,B|368:192,2,40,0|0|8
456,48,92078,5,4
275,45,92492,1,4
120,136,92906,1,4
29,291,93319,1,4
29,291,93526,1,4
112,272,93733,5,4
132,194,93940,1,0
189,251,94147,1,8
168,328,94354,1,0
91,349,94561,1,0
34,292,94768,1,0
55,215,94975,1,8
326,304,95388,2,0,B|168:328,1,160,0|8
296,232,96216,2,0,B|454:208,1,160,0|8
252,96,97044,5,0
330,75,97251,1,0
309,153,97458,1,8
232,173,97665,1,0
174,117,97872,1,0
195,39,98079,1,0
273,19,98286,1,8
331,297,98699,2,0,B|231:171,1,160,0|8
378,236,99527,2,0,B|477:361,1,160,0|8
400,112,100354,5,0
380,190,100561,1,0
323,133,100768,1,8
344,56,100975,1,0
421,35,101182,1,0
478,92,101389,1,0
457,169,101595,2,0,B|440:332,1,160,8|0
336,312,102216,1,0
440,328,102423,1,8
71,328,102837,1,0
440,328,103250,1,8
136,256,103664,6,0,B|224:236,1,80
372,200,104078,2,0,B|284:180,1,80,8|0
136,144,104492,2,0,B|224:124,1,80
372,88,104906,2,0,B|284:68,1,80,8|0
180,40,105319,5,0
100,56,105526,1,2
100,56,105630,1,2
100,56,105733,1,2
40,112,105940,1,2
40,112,106044,1,2
40,112,106147,1,2
12,188,106354,2,2,B|44:232,6,40
152,272,113595,6,0,B|128:336|64:344,2,120
152,272,114526,2,0,B|276:244,1,120
269,245,115044,1,0
336,200,115250,2,0,B|360:264|424:272,2,120
336,200,116181,2,0,B|212:172,1,120
218,173,116699,1,0
152,128,116906,2,0,B|128:192|64:200,2,120
152,128,117837,2,0,B|276:100,1,120
269,101,118355,1,0
336,56,118561,2,0,B|360:120|424:128,2,120
336,56,119492,2,0,B|212:28,1,120
218,29,120009,1,0
256,120,120216,5,8
256,264,121871,5,0
256,120,122699,1,0
256,264,123526,5,0
256,120,123940,1,0
256,264,124354,5,0
184,192,124561,1,0
256,120,124768,1,0
328,192,124975,1,0
256,264,125181,2,0,B|256:320,15,40
416,112,128492,5,0
450,268,129112,1,0
311,348,129733,1,0
192,241,130354,1,0
257,95,130975,1,0
257,95,131388,1,0
216,336,131802,6,0,B|284:332|324:272,1,120,2|2
317,280,132216,2,0,B|391:311,2,80,8|2|0
252,252,132837,1,2
188,220,133044,1,10
124,188,133250,1,2
216,148,133457,6,0,B|150:127|126:59,1,120,2|2
131,69,133871,2,0,B|51:81,2,80,8|2|0
201,57,134492,1,2
271,42,134699,1,10
341,26,134905,1,2
280,120,135112,5,4
345,266,135733,1,4
226,373,136354,1,4
87,293,136975,1,4
121,137,137595,1,4
121,137,138009,1,4
321,361,138422,6,0,B|253:357|213:297,1,120,2|2
220,305,138836,2,0,B|145:336,2,80,8|2|0
285,277,139457,1,2
349,245,139664,1,10
413,213,139870,1,2
321,173,140077,6,0,B|386:152|410:84,1,120,2|2
406,94,140491,2,0,B|485:106,2,80,8|2|0
336,82,141112,5,2
266,67,141319,1,2
196,51,141525,1,2
116,112,141733,5,4
56,176,141940,1,2
56,176,142044,1,0
56,176,142147,1,8
140,200,142354,2,0,B|240:208|268:288,1,160,2|2
266,282,142975,2,0,B|344:240,1,80,8|2
412,196,143388,1,0
276,20,143802,1,8
76,120,144216,1,0
212,296,144630,1,8
412,192,145044,6,0,B|364:128,1,80,0|2
276,20,145457,2,0,B|200:56,1,80,8|2
76,120,145871,2,0,B|132:184,1,80,0|2
212,296,146285,2,0,B|284:260,1,80,8|2
360,208,146699,5,2
271,174,146906,1,2
180,191,147112,1,10
109,251,147319,1,2
78,338,147526,2,0,B|35:335,7,40,2|0|0|0|8|0|0|0
0,332,148354,5,0
16,236,148561,1,2
16,236,148664,1,0
16,236,148768,1,8
40,144,148975,2,0,B|60:48|160:32,1,160,2|2
143,35,149595,2,0,B|204:92,1,80,8|2
296,116,150009,1,0
476,188,150423,1,8
296,116,150837,1,0
476,188,151251,1,8
476,188,151457,1,0
376,192,151664,5,0
256,320,152078,1,8
136,192,152492,1,0
256,64,152906,1,8
256,192,153319,12,2,154975
