osu file format v9

[General]
AudioFilename: cranky - EVERGREEN.mp3
AudioLeadIn: 1489
PreviewTime: 12630
Countdown: 0
SampleSet: Soft
StackLeniency: 0.7
Mode: 0
LetterboxInBreaks: 1

[Editor]
DistanceSpacing: 0.5
BeatDivisor: 4
GridSize: 4

[Metadata]
Title:EVERGREEN
Artist:Cranky
Creator:Alace
Version:Another
Source:
Tags:avira0922

[Difficulty]
HPDrainRate:7
CircleSize:5
OverallDifficulty:7
ApproachRate:7
SliderMultiplier:1.8
SliderTickRate:0.5

[Events]
//Background and Video events
0,0,"green-wallpaper.jpg"
//Break Periods
2,107175,112695
//Storyboard Layer 0 (Background)
//Storyboard Layer 1 (Fail)
//Storyboard Layer 2 (Pass)
//Storyboard Layer 3 (Foreground)
//Storyboard Sound Samples
//Background Colour Transformations
3,100,134,217,160

[TimingPoints]
1044,413.793103448276,4,2,1,70,1,0
12216,-100,4,2,1,40,0,0
12837,-100,4,2,1,50,0,0
13250,-100,4,2,1,59,0,0
13664,-100,4,2,1,71,0,0
14078,-100,4,2,1,55,0,0
24216,-200,4,2,1,55,0,0
25044,-200,4,2,1,40,0,0
25871,-100,4,2,1,60,0,0
27319,-100,4,2,1,70,0,0
38388,-100,4,2,1,61,0,0
38802,-100,4,2,1,50,0,0
39216,-100,4,2,1,41,0,0
39940,-100,4,2,1,55,0,0
40664,-100,4,2,1,80,0,0
65699,-100,4,2,1,60,0,0
67250,-83.3333333333333,4,2,1,91,0,0
80492,-100,4,2,1,76,0,0
113181,-100,4,2,1,60,0,0
122492,-100,4,2,1,70,0,0
123423,-100,4,2,1,80,0,0
124250,-100,4,2,1,91,0,0
125078,-100,4,2,1,100,0,0
128078,-100,4,2,1,70,0,0
131802,-100,4,2,1,80,0,0
141733,-83.3333333333333,4,2,1,90,0,0
153319,-83.3333333333333,4,2,1,70,0,0

[Colours]
Combo1 : 129,224,169
Combo2 : 230,249,238

[HitObjects]
72,56,1043,1,0
440,56,1664,1,0
440,56,2906,5,0
304,136,3526,1,0
256,192,3940,5,0
208,248,4354,5,0
72,328,4975,1,0
440,328,7664,5,0
72,328,8285,1,0
72,328,9526,5,0
208,248,10147,1,0
256,192,10561,5,0
304,136,10975,5,0
440,56,11595,1,0
48,192,12630,5,0
256,352,13043,1,0
464,192,13457,1,0
256,32,13871,1,0
48,192,14285,5,0
76,263,14492,1,0
134,316,14699,1,0
208,339,14906,1,0
286,329,15112,1,0
351,287,15319,1,0
393,221,15526,1,0
393,221,15940,5,0
286,329,16354,1,0
134,316,16768,1,0
48,192,17181,1,0
464,192,17595,5,0
436,121,17802,1,0
378,68,18009,1,0
304,45,18216,1,0
226,55,18423,1,0
161,97,18630,1,0
119,163,18837,1,0
119,163,19250,5,0
226,55,19664,1,0
378,68,20078,1,0
464,192,20492,1,0
16,104,20906,5,0
75,56,21112,1,0
152,39,21319,1,0
228,56,21526,1,0
290,104,21733,1,0
325,173,21940,1,0
329,251,22147,1,0
329,251,22561,6,0,B|216:392|120:160|0:300,1,360
12,204,23595,1,0
12,204,23699,1,0
12,204,23802,1,0
32,116,24009,1,0
32,116,24112,1,0
32,116,24216,2,0,B|56:108|56:108|80:116|80:116|100:108|100:108|120:116|120:116|140:108|140:108|160:116|160:116|180:108|180:108|200:116|200:116,2,180
32,116,26285,5,0
256,272,26699,1,0
480,116,27112,1,0
324,204,27526,6,0,B|324:248|324:248|360:280,1,90,0|2
288,344,27940,2,0,B|288:300|288:300|252:268,1,90,8|2
39,281,28561,1,2
122,291,28768,1,8
200,324,28975,1,2
94,122,29388,1,2
160,172,29595,1,8
212,240,29802,1,2
212,10,30216,1,2
244,87,30423,1,8
256,172,30630,1,2
400,220,30837,6,0,B|308:220,1,90,0|2
356,288,31250,2,0,B|448:288,1,90,8|2
204,348,31871,1,2
232,280,32078,1,8
256,212,32285,1,2
124,32,32699,1,2
152,100,32906,1,8
176,168,33112,1,2
228,116,33319,5,0
321,84,33526,1,2
419,105,33733,1,8
493,171,33940,1,2
472,240,34147,5,0
408,276,34354,1,2
408,276,34457,1,0
408,276,34561,1,8
344,312,34768,1,2
272,316,34975,1,0
256,312,35078,1,0
240,316,35181,1,2
224,312,35285,1,0
208,316,35388,1,8
136,316,35595,1,2
81,234,35802,6,0,B|256:192,1,180,0|8
259,12,36630,2,0,B|256:192,1,180,0|8
430,234,37457,2,0,B|256:192,1,180,0|8
256,192,38285,5,2
172,288,38492,1,2
180,252,38595,1,2
188,216,38699,1,2
88,312,38906,1,2
96,288,39009,1,2
104,264,39112,1,2
4,328,39319,1,2
12,312,39423,1,2
20,296,39526,1,2
32,216,39733,5,2
48,196,39837,1,2
68,181,39940,1,2
90,168,40044,1,2
114,157,40147,1,2
139,149,40250,1,2
165,145,40354,1,2
236,144,40561,1,2
296,192,40768,6,2,B|265:285,1,90,2|2
267,277,41181,1,8
354,225,41388,2,2,B|384:131,1,90,2|2
382,139,41802,1,0
413,260,42009,2,2,B|382:353,1,90,10|2
115,88,42630,2,2,B|145:-5,1,90,2|10
413,260,43250,1,2
115,88,43664,1,10
187,115,43871,5,0
181,125,43975,1,0
176,136,44078,2,2,B|130:215,1,90,2|2
130,213,44492,1,8
102,366,44699,2,2,B|148:286,1,90,2|2
147,288,45112,1,0
262,185,45319,2,2,B|216:264,1,90,10|2
421,171,45940,2,2,B|467:91,1,90,2|10
217,263,46561,1,2
466,94,46975,1,10
404,132,47181,5,0
404,132,47285,1,0
404,132,47388,2,2,B|390:74|338:81,1,90,2|2
341,81,47802,1,8
357,181,48009,2,2,B|314:221|345:262,1,90,2|2
344,261,48423,1,0
422,203,48630,2,2,B|478:219|498:171,1,90,10|2
90,181,49250,1,2
16,184,49457,1,8
496,184,49871,1,2
16,184,50285,1,10
80,224,50492,5,0
80,224,50595,1,0
80,224,50699,2,2,B|37:264|68:305,1,90,2|2
66,304,51112,1,8
145,240,51319,2,2,B|201:256|221:208,1,90,2|2
220,211,51733,1,0
130,171,51940,2,2,B|116:113|64:120,1,90,10|2
382,213,52561,2,2,B|396:271|448:264,1,90,2|10
130,171,53181,1,2
220,164,53388,1,0
292,220,53595,1,10
382,213,53802,1,2
448,300,54009,6,2,B|480:268,1,45,2|0
476,232,54216,2,2,B|444:148,1,90,2|8
380,16,54630,2,2,B|348:48,1,45,2|0
352,84,54837,2,2,B|384:168,1,90,2|0
312,304,55250,2,2,B|344:272,1,45,10|0
340,236,55457,2,2,B|308:152,1,90,2|0
244,20,55871,2,2,B|212:52,1,45,2|0
216,88,56078,2,2,B|248:172,1,90,10|0
312,304,56492,1,2
312,304,56906,1,10
48,312,57319,5,2
48,312,57423,1,0
48,312,57526,2,2,B|144:312,1,90,2|8
80,244,57940,1,2
80,244,58044,1,0
80,244,58147,2,2,B|176:244,1,90,2|0
112,176,58561,1,10
112,176,58664,1,0
112,176,58768,2,2,B|208:176,1,90,2|0
256,104,59181,1,2
300,184,59388,1,10
344,260,59595,1,0
384,340,59802,1,2
256,104,60216,1,10
96,316,60630,6,2,B|89:360,1,45,2|0
96,316,60837,2,2,B|166:263,1,90,2|8
228,146,61250,2,2,B|272:152,1,45,2|0
228,146,61457,2,2,B|157:198,1,90,2|0
31,224,61871,2,2,B|24:268,1,45,10|0
31,224,62078,2,2,B|101:171,1,90,2|0
164,54,62492,2,2,B|208:60,1,45,2|0
164,54,62699,2,2,B|93:106,1,90,10|0
32,24,63112,1,2
256,196,63526,1,10
480,360,63940,5,2
480,360,64044,1,0
480,360,64147,2,2,B|392:360,1,90,2|8
264,304,64561,1,2
264,304,64664,1,0
264,304,64768,2,2,B|352:304,1,90,2|0
480,248,65181,1,10
480,248,65285,1,0
480,248,65388,2,2,B|392:248,1,90,2|0
408,168,65802,5,2
380,140,65906,1,2
344,124,66009,1,2
292,184,66216,1,2
272,220,66319,1,2
240,244,66423,1,2
204,260,66526,1,2
164,268,66630,1,2
124,264,66733,1,2
88,244,66837,2,0,B|32:228|32:176,1,90,2|2
152,164,67250,6,0,B|132:116|132:116|76:100,1,108.000002574921,4|2
176,56,67664,2,0,B|196:104|196:104|252:120,1,108.000002574921,8|2
249,119,68285,1,2
348,120,68492,1,8
444,124,68699,1,2
400,232,68906,5,2
316,252,69112,1,2
308,296,69216,1,2
300,340,69319,1,8
232,288,69526,1,2
240,244,69630,1,2
248,200,69733,1,2
168,236,69940,1,2
160,280,70044,1,2
152,324,70147,1,8
68,336,70354,1,2
16,212,70561,6,2,B|120:168,1,108.000002574921,0|2
256,76,70975,2,2,B|152:120,1,108.000002574921,8|2
252,236,71388,2,2,B|356:192,1,108.000002574921,0|2
492,100,71802,2,2,B|388:144,1,108.000002574921,8|2
252,236,72216,5,2
256,76,72423,1,2
252,236,72630,1,10
256,76,72837,1,2
252,236,73044,1,2
236,236,73147,1,0
220,236,73250,1,0
204,236,73354,1,0
188,236,73457,1,8
172,236,73561,1,0
156,236,73664,1,0
140,236,73768,1,0
124,236,73871,6,0,B|16:236,1,108.000002574921,0|2
96,304,74285,2,0,B|208:304,1,108.000002574921,8|2
204,304,74906,1,2
276,368,75112,1,8
204,304,75319,1,2
276,368,75526,2,0,B|340:264|472:316,1,216.000005149841,0|8
480,240,76147,1,0
488,164,76354,1,0
488,164,76457,1,0
488,164,76561,1,0
496,88,76768,1,8
496,88,76871,1,0
496,88,76975,1,0
416,160,77181,5,4
336,192,77388,1,0
416,160,77595,1,8
336,192,77802,1,0
284,124,78009,1,4
240,120,78112,1,0
204,160,78216,1,0
244,236,78423,1,8
200,244,78526,1,0
156,220,78630,1,0
72,192,78837,5,4
256,336,79250,1,4
440,192,79664,1,4
256,48,80078,1,4
256,48,80285,1,4
256,48,80492,5,4
336,44,80699,1,0
396,99,80906,1,8
399,179,81112,1,0
345,239,81319,1,0
264,242,81526,1,0
204,188,81733,1,8
201,107,82147,6,0,B|36:182,3,180,0|8|0|8
184,44,83802,5,0
104,40,84009,1,0
44,95,84216,1,8
41,175,84423,1,0
95,235,84630,1,0
176,238,84837,1,0
236,184,85044,1,8
239,103,85457,6,0,B|403:178,3,180,0|8|0|8
200,176,87112,5,0
157,243,87319,1,0
175,322,87526,1,8
242,365,87733,1,0
321,348,87940,1,0
365,279,88147,1,0
348,200,88354,1,8
279,157,88768,6,0,B|426:51,3,180,0|8|0|8
488,20,90216,1,0
484,92,90423,5,2
444,128,90630,2,0,B|408:96,2,45,0|2|8
460,180,91044,2,0,B|496:212,2,45,2|0|0
428,224,91457,2,0,B|392:192,2,45,2|0|8
444,276,91871,1,0
392,332,92078,5,4
212,320,92492,1,4
52,236,92906,1,4
0,64,93319,1,4
0,64,93526,1,4
0,64,93733,5,4
109,15,93940,1,0
220,19,94147,1,8
315,60,94354,1,0
379,124,94561,1,0
419,196,94768,1,0
436,267,94975,1,8
436,267,95388,6,0,B|264:324,1,180,0|8
232,260,96009,1,0
208,192,96216,2,0,B|36:249,1,180,0|8
512,64,97044,5,0
403,15,97250,1,0
292,19,97457,1,8
197,60,97664,1,0
133,124,97871,1,0
93,196,98078,1,0
76,267,98285,1,8
76,267,98699,6,0,B|248:324,1,180,0|8
280,260,99319,1,0
304,192,99526,2,0,B|476:249,1,180,0|8
200,120,100354,5,0
120,116,100561,1,0
60,171,100768,1,8
57,251,100975,1,0
111,311,101181,1,0
192,314,101388,1,0
252,260,101595,2,0,B|440:256,1,180,8|0
360,148,102216,1,0
431,256,102423,1,8
152,236,102837,1,0
80,127,103044,1,0
80,127,103250,2,0,B|176:128,1,90,8|0
170,127,103664,2,0,B|232:48|328:60,3,180,0|8|0|8
340,132,105112,5,0
368,152,105216,1,0
396,172,105319,1,2
308,192,105526,1,2
328,224,105630,1,2
344,256,105733,1,2
252,228,105940,1,2
252,264,106044,1,2
252,300,106147,1,2
180,296,106354,1,2
172,260,106457,1,2
168,224,106561,1,2
164,188,106664,1,2
156,152,106768,1,2
152,116,106871,1,2
144,80,106975,1,2
88,252,113595,5,0
152,232,113906,1,0
216,216,114216,1,0
280,196,114526,1,0
344,176,114837,1,0
344,176,115044,1,0
328,240,115250,5,0
250,215,115561,1,0
173,196,115871,1,0
96,172,116181,1,0
19,148,116492,1,0
19,148,116699,1,0
48,224,116906,5,0
140,194,117216,1,0
232,171,117526,1,0
323,143,117837,1,0
415,114,118147,1,0
415,114,118354,1,0
488,200,118561,5,0
375,162,118871,1,0
264,135,119181,1,0
154,101,119492,1,0
43,66,119802,1,0
43,66,120009,1,0
72,192,120216,5,4
256,336,121044,1,0
72,192,121457,5,0
256,336,121871,1,0
72,192,122285,1,0
256,336,122699,1,0
328,336,122906,1,0
400,336,123112,1,0
472,336,123319,1,0
440,272,123526,6,0,B|440:176|444:176,1,90
384,56,123940,2,0,B|384:152|388:152,1,90
328,272,124354,2,0,B|328:176|332:176,1,90
272,56,124768,2,0,B|272:152|276:152,1,90
216,180,125181,5,0
208,180,125285,1,0
200,180,125388,1,0
192,180,125492,1,0
184,180,125595,1,0
176,180,125699,1,0
168,180,125802,1,0
160,180,125906,1,0
152,180,126009,1,0
144,180,126112,1,0
136,180,126216,1,0
128,180,126319,1,0
120,180,126423,1,0
112,180,126526,1,0
104,180,126630,1,0
96,180,126733,1,0
464,48,128492,5,0
388,364,129112,1,0
308,48,129733,1,0
228,364,130354,1,0
148,48,130975,1,0
148,48,131388,1,0
196,112,131595,5,0
196,112,131699,1,0
196,112,131802,2,0,B|296:112,1,90,2|0
286,112,132112,1,2
286,112,132216,2,0,B|328:64|368:68,2,90,8|2|0
316,208,132837,1,2
286,112,133044,1,10
316,204,133250,1,2
352,296,133457,2,0,B|252:296,1,90,2|0
262,296,133768,1,2
262,296,133871,2,0,B|220:248|180:252,2,90,8|2|0
280,284,134388,1,0
300,272,134492,1,0
321,260,134595,1,0
342,248,134699,1,8
363,236,134802,1,0
383,224,134906,1,0
464,336,135112,5,4
388,20,135733,1,4
308,336,136354,1,4
228,20,136975,1,4
148,336,137595,1,4
148,336,138009,1,4
196,272,138216,5,0
196,272,138319,1,0
196,272,138423,2,0,B|296:272,1,90,2|0
286,272,138733,1,2
286,272,138837,2,0,B|328:320|368:316,2,90,8|2|0
316,176,139457,1,2
286,272,139664,1,10
316,180,139871,1,2
352,88,140078,2,0,B|252:88,1,90,2|0
262,88,140388,1,2
262,88,140492,2,0,B|220:136|180:132,2,90,8|2|0
280,100,141009,1,0
300,112,141112,1,0
321,124,141216,1,0
342,136,141319,1,0
363,148,141423,1,0
383,160,141526,1,0
352,264,141733,6,0,B|248:296,1,108.000002574921,4|2
100,272,142147,2,0,B|204:240,1,108.000002574921,8|2
203,240,142768,1,2
160,140,142975,1,8
64,92,143181,1,2
160,40,143388,5,2
244,52,143595,1,2
284,64,143699,1,2
324,76,143802,1,8
420,120,144009,1,2
380,132,144112,1,2
340,144,144216,1,2
232,184,144423,1,2
272,196,144526,1,2
312,208,144630,1,8
408,252,144837,1,2
368,264,144940,1,0
328,276,145044,6,2,B|224:320,1,108.000002574921,0|2
372,192,145457,2,2,B|476:236,1,108.000002574921,8|2
328,108,145871,2,2,B|224:152,1,108.000002574921,0|2
372,24,146285,2,2,B|476:68,1,108.000002574921,8|2
296,28,146699,5,2
200,76,146906,1,2
296,28,147112,1,10
200,76,147319,1,2
96,100,147526,1,2
112,140,147630,1,0
128,176,147733,1,0
168,160,147837,1,0
184,200,147940,1,8
200,236,148044,1,0
240,216,148147,1,0
256,256,148250,1,0
272,292,148354,6,0,B|384:292,1,108.000002574921,0|2
440,228,148768,2,0,B|328:228,1,108.000002574921,8|2
332,228,149388,1,2
372,128,149595,1,8
464,72,149802,1,2
364,32,150009,5,0
148,352,150423,1,8
300,344,150837,1,0
300,344,150940,1,0
300,344,151044,1,0
256,284,151250,1,8
256,284,151354,1,0
256,284,151457,1,0
168,256,151664,5,0
196,196,151871,1,0
220,136,152078,1,8
248,76,152285,1,0
292,144,152492,5,0
316,192,152699,1,0
340,240,152906,1,8
360,288,153112,1,0
256,192,153319,12,2,154975
