osu file format v14

[General]
AudioFilename: danger_and_danger.mp3
AudioLeadIn: 0
PreviewTime: 21542
Countdown: 0
SampleSet: Soft
StackLeniency: 0.7
Mode: 3
LetterboxInBreaks: 0
SpecialStyle: 0
WidescreenStoryboard: 0

[Editor]
DistanceSpacing: 0.9
BeatDivisor: 16
GridSize: 8
TimelineZoom: 2.999999

[Metadata]
Title:Danger & Danger
TitleUnicode:Danger & Danger
Artist:Cranky
ArtistUnicode:Cranky
Creator:MEGAtive
Version:HD
Source:
Tags:S2TB Recording J-RAVE Nation Compilation Album Track 9
BeatmapID:721245
BeatmapSetID:279063

[Difficulty]
HPDrainRate:7.5
CircleSize:4
OverallDifficulty:7.5
ApproachRate:5
SliderMultiplier:1.4
SliderTickRate:1

[Events]
//Background and Video events
0,0,"BG.png",0,0
//Break Periods
//Storyboard Layer 0 (Background)
//Storyboard Layer 1 (Fail)
//Storyboard Layer 2 (Pass)
//Storyboard Layer 3 (Foreground)
//Storyboard Sound Samples

[TimingPoints]
4142,400,4,2,1,45,1,0
23342,-100,4,2,1,45,0,1
48942,-133.333333333333,4,2,1,30,0,0
53742,-100,4,2,1,30,0,0
119342,-100,4,2,1,45,0,1
132142,-133.333333333333,4,2,1,30,0,0

[HitObjects]
448,192,4142,128,0,4542:0:0:0:0:
192,192,4542,1,0,0:0:0:0:
320,192,4742,1,0,0:0:0:0:
192,192,4842,1,0,0:0:0:0:
64,192,4942,1,0,0:0:0:0:
448,192,5142,1,0,0:0:0:0:
320,192,5342,1,0,0:0:0:0:
192,192,5542,128,0,5942:0:0:0:0:
64,192,5942,1,0,0:0:0:0:
320,192,6142,1,0,0:0:0:0:
64,192,6342,1,0,0:0:0:0:
192,192,6542,1,0,0:0:0:0:
64,192,6742,1,0,0:0:0:0:
448,192,6942,1,0,0:0:0:0:
64,192,7142,1,0,0:0:0:0:
192,192,7242,1,0,0:0:0:0:
320,192,7342,128,0,7742:0:0:0:0:
448,192,7742,1,0,0:0:0:0:
320,192,7942,1,0,0:0:0:0:
192,192,8042,1,0,0:0:0:0:
64,192,8142,1,0,0:0:0:0:
448,192,8342,1,0,0:0:0:0:
192,192,8542,1,0,0:0:0:0:
320,192,8742,128,0,9142:0:0:0:0:
64,192,9142,1,0,0:0:0:0:
192,192,9342,1,0,0:0:0:0:
448,192,9542,1,0,0:0:0:0:
320,192,9542,1,0,0:0:0:0:
64,192,9742,1,0,0:0:0:0:
320,192,9942,128,0,10142:0:0:0:0:
192,192,10142,128,0,10342:0:0:0:0:
448,192,10342,1,8,0:0:0:0:
320,192,10408,1,8,0:0:0:0:
192,192,10475,1,8,0:0:0:0:
448,192,10542,128,8,12142:0:0:0:0:
64,192,10542,1,4,0:0:0:0:
320,192,10942,1,8,0:0:0:0:
64,192,10942,1,0,0:0:0:0:
192,192,11342,1,0,0:0:0:0:
64,192,11342,1,8,0:0:0:0:
192,192,11742,1,8,0:0:0:0:
320,192,11742,1,0,0:0:0:0:
192,192,12142,1,8,0:0:0:0:
64,192,12142,1,0,0:0:0:0:
64,192,12542,1,0,0:0:0:0:
320,192,12542,1,8,0:0:0:0:
320,192,12942,1,0,0:0:0:0:
192,192,12942,1,8,0:0:0:0:
448,192,13342,1,8,0:0:0:0:
192,192,13342,1,0,0:0:0:0:
448,192,13742,1,0,0:0:0:0:
320,192,13742,1,8,0:0:0:0:
192,192,14142,1,8,0:0:0:0:
64,192,14142,1,0,0:0:0:0:
320,192,14542,1,0,0:0:0:0:
448,192,14542,1,8,0:0:0:0:
448,192,14942,1,0,0:0:0:0:
64,192,14942,1,8,0:0:0:0:
192,192,15342,1,0,0:0:0:0:
448,192,15342,1,8,0:0:0:0:
320,192,15742,1,8,0:0:0:0:
192,192,15742,1,0,0:0:0:0:
320,192,16142,1,0,0:0:0:0:
64,192,16142,1,8,0:0:0:0:
64,192,16542,1,0,0:0:0:0:
192,192,16542,1,8,0:0:0:0:
64,192,16942,1,0,0:0:0:0:
448,192,16942,1,8,0:0:0:0:
192,192,17342,1,8,0:0:0:0:
448,192,17342,1,0,0:0:0:0:
320,192,17742,1,8,0:0:0:0:
448,192,17742,1,0,0:0:0:0:
320,192,18142,1,0,0:0:0:0:
64,192,18142,1,8,0:0:0:0:
64,192,18542,1,0,0:0:0:0:
192,192,18542,1,8,0:0:0:0:
192,192,18942,1,0,0:0:0:0:
448,192,18942,1,8,0:0:0:0:
320,192,19342,1,8,0:0:0:0:
192,192,19342,1,0,0:0:0:0:
64,192,19742,1,8,0:0:0:0:
320,192,19742,1,0,0:0:0:0:
64,192,20142,1,0,0:0:0:0:
448,192,20142,1,8,0:0:0:0:
320,192,20542,1,8,0:0:0:0:
192,192,20542,1,0,0:0:0:0:
192,192,20942,1,8,0:0:0:0:
448,192,20942,1,0,0:0:0:0:
64,192,21342,5,8,0:0:0:0:
448,192,21342,1,0,0:0:0:0:
320,192,21542,1,4,0:0:0:0:
192,192,21542,1,8,0:0:0:0:
320,192,21942,1,0,0:0:0:0:
64,192,22142,1,0,0:0:0:0:
448,192,22342,1,0,0:0:0:0:
192,192,22542,1,0,0:0:0:0:
448,192,22742,1,0,0:0:0:0:
320,192,22842,1,0,0:0:0:0:
448,192,23042,1,0,0:0:0:0:
192,192,23142,1,0,0:0:0:0:
64,192,23342,1,4,0:0:0:0:
448,192,23342,1,8,0:0:0:0:
320,192,23542,1,2,0:0:0:0:
64,192,23742,1,8,0:0:0:0:
192,192,23742,1,0,0:0:0:0:
320,192,23942,1,2,0:0:0:0:
192,192,24142,1,0,0:0:0:0:
448,192,24142,1,8,0:0:0:0:
64,192,24342,1,2,0:0:0:0:
192,192,24542,1,8,0:0:0:0:
448,192,24542,1,0,0:0:0:0:
320,192,24742,1,2,0:0:0:0:
64,192,24942,1,8,0:0:0:0:
448,192,24942,1,0,0:0:0:0:
192,192,25142,1,2,0:0:0:0:
448,192,25342,1,8,0:0:0:0:
64,192,25342,1,0,0:0:0:0:
320,192,25542,1,2,0:0:0:0:
448,192,25742,1,0,0:0:0:0:
192,192,25742,1,8,0:0:0:0:
64,192,25942,1,2,0:0:0:0:
192,192,26142,1,8,0:0:0:0:
448,192,26142,1,0,0:0:0:0:
320,192,26342,1,2,0:0:0:0:
64,192,26542,1,0,0:0:0:0:
448,192,26542,1,8,0:0:0:0:
192,192,26742,1,2,0:0:0:0:
64,192,26942,1,8,0:0:0:0:
448,192,26942,1,0,0:0:0:0:
320,192,27142,1,2,0:0:0:0:
448,192,27342,1,0,0:0:0:0:
192,192,27342,1,8,0:0:0:0:
64,192,27542,1,0,0:0:0:0:
320,192,27742,1,0,0:0:0:0:
192,192,27742,1,8,0:0:0:0:
448,192,27942,1,2,0:0:0:0:
64,192,28142,1,0,0:0:0:0:
320,192,28142,1,8,0:0:0:0:
192,192,28342,1,2,0:0:0:0:
320,192,28542,1,8,0:0:0:0:
448,192,28542,1,0,0:0:0:0:
192,192,28742,1,2,0:0:0:0:
64,192,28942,1,0,0:0:0:0:
448,192,28942,1,8,0:0:0:0:
320,192,29142,1,2,0:0:0:0:
64,192,29342,1,4,0:0:0:0:
192,192,29342,1,8,0:0:0:0:
320,192,29542,1,2,0:0:0:0:
192,192,29742,1,8,0:0:0:0:
448,192,29742,1,4,0:0:0:0:
64,192,29942,1,2,0:0:0:0:
320,192,30142,1,0,0:0:0:0:
448,192,30142,1,8,0:0:0:0:
64,192,30342,1,2,0:0:0:0:
192,192,30542,1,8,0:0:0:0:
320,192,30542,1,0,0:0:0:0:
448,192,30742,1,2,0:0:0:0:
320,192,30942,1,0,0:0:0:0:
64,192,30942,1,8,0:0:0:0:
192,192,31142,1,2,0:0:0:0:
64,192,31342,1,0,0:0:0:0:
448,192,31342,1,8,0:0:0:0:
320,192,31542,1,2,0:0:0:0:
192,192,31742,1,8,0:0:0:0:
448,192,31742,1,0,0:0:0:0:
64,192,31942,1,2,0:0:0:0:
192,192,32142,1,8,0:0:0:0:
320,192,32142,1,0,0:0:0:0:
448,192,32342,1,2,0:0:0:0:
192,192,32542,1,0,0:0:0:0:
64,192,32542,1,8,0:0:0:0:
320,192,32742,1,2,0:0:0:0:
64,192,32942,1,8,0:0:0:0:
448,192,32942,1,0,0:0:0:0:
192,192,33142,1,2,0:0:0:0:
320,192,33342,1,8,0:0:0:0:
64,192,33342,1,0,0:0:0:0:
448,192,33542,1,2,0:0:0:0:
192,192,33742,1,8,0:0:0:0:
320,192,33742,1,0,0:0:0:0:
64,192,33942,1,2,0:0:0:0:
192,192,34142,1,0,0:0:0:0:
448,192,34142,1,8,0:0:0:0:
320,192,34342,1,2,0:0:0:0:
64,192,34542,1,4,0:0:0:0:
448,192,34542,1,8,0:0:0:0:
192,192,34742,1,2,0:0:0:0:
320,192,34942,1,0,0:0:0:0:
448,192,34942,1,8,0:0:0:0:
192,192,35142,1,2,0:0:0:0:
64,192,35342,1,4,0:0:0:0:
448,192,35342,1,8,0:0:0:0:
320,192,35542,1,2,0:0:0:0:
448,192,35742,1,4,0:0:0:0:
64,192,35742,1,8,0:0:0:0:
192,192,35942,1,2,0:0:0:0:
64,192,36142,1,8,0:0:0:0:
448,192,36142,1,4,0:0:0:0:
320,192,36342,1,2,0:0:0:0:
192,192,36542,1,0,0:0:0:0:
448,192,36542,1,8,0:0:0:0:
64,192,36742,1,2,0:0:0:0:
192,192,36942,1,0,0:0:0:0:
320,192,36942,1,8,0:0:0:0:
448,192,37142,1,2,0:0:0:0:
64,192,37342,1,8,0:0:0:0:
320,192,37342,1,0,0:0:0:0:
192,192,37542,1,2,0:0:0:0:
64,192,37742,1,0,0:0:0:0:
448,192,37742,1,8,0:0:0:0:
320,192,37942,1,2,0:0:0:0:
192,192,38142,1,8,0:0:0:0:
64,192,38142,1,0,0:0:0:0:
320,192,38342,1,2,0:0:0:0:
192,192,38542,1,8,0:0:0:0:
448,192,38542,1,0,0:0:0:0:
320,192,38742,1,2,0:0:0:0:
448,192,38942,1,8,0:0:0:0:
64,192,38942,1,0,0:0:0:0:
192,192,39142,1,2,0:0:0:0:
64,192,39342,1,0,0:0:0:0:
320,192,39342,1,8,0:0:0:0:
448,192,39542,1,2,0:0:0:0:
192,192,39742,1,8,0:0:0:0:
320,192,39742,1,0,0:0:0:0:
64,192,39942,1,2,0:0:0:0:
448,192,40142,1,8,0:0:0:0:
192,192,40142,1,0,0:0:0:0:
320,192,40342,1,2,0:0:0:0:
448,192,40542,1,8,0:0:0:0:
64,192,40542,1,0,0:0:0:0:
192,192,40742,1,2,0:0:0:0:
320,192,40942,1,4,0:0:0:0:
448,192,40942,1,8,0:0:0:0:
192,192,41142,1,2,0:0:0:0:
64,192,41342,1,8,0:0:0:0:
320,192,41342,1,0,0:0:0:0:
448,192,41542,1,2,0:0:0:0:
320,192,41742,1,8,0:0:0:0:
192,192,41742,1,4,0:0:0:0:
64,192,41942,1,2,0:0:0:0:
192,192,42142,1,8,0:0:0:0:
320,192,42142,1,0,0:0:0:0:
448,192,42342,1,2,0:0:0:0:
320,192,42542,1,8,0:0:0:0:
64,192,42542,1,4,0:0:0:0:
448,192,42742,1,2,0:0:0:0:
320,192,42942,1,0,0:0:0:0:
192,192,42942,1,8,0:0:0:0:
64,192,43142,1,2,0:0:0:0:
192,192,43342,1,8,0:0:0:0:
448,192,43342,1,0,0:0:0:0:
64,192,43542,1,2,0:0:0:0:
448,192,43742,1,0,0:0:0:0:
320,192,43742,1,8,0:0:0:0:
192,192,43942,1,2,0:0:0:0:
64,192,44142,1,8,0:0:0:0:
448,192,44142,1,0,0:0:0:0:
320,192,44342,1,2,0:0:0:0:
448,192,44542,1,0,0:0:0:0:
192,192,44542,1,8,0:0:0:0:
320,192,44742,1,2,0:0:0:0:
192,192,44942,1,8,0:0:0:0:
64,192,44942,1,0,0:0:0:0:
448,192,45142,1,2,0:0:0:0:
192,192,45342,1,8,0:0:0:0:
320,192,45342,1,0,0:0:0:0:
64,192,45542,1,2,0:0:0:0:
448,192,45742,1,0,0:0:0:0:
320,192,45742,1,8,0:0:0:0:
192,192,45942,1,2,0:0:0:0:
64,192,46142,1,8,0:0:0:0:
448,192,46142,1,0,0:0:0:0:
192,192,46342,1,2,0:0:0:0:
64,192,46542,1,8,0:0:0:0:
320,192,46542,1,0,0:0:0:0:
448,192,46742,1,2,0:0:0:0:
320,192,46942,1,8,0:0:0:0:
192,192,46942,1,0,0:0:0:0:
64,192,47142,1,2,0:0:0:0:
320,192,47342,1,8,0:0:0:0:
448,192,47342,1,4,0:0:0:0:
192,192,47342,128,0,48942:0:0:0:0:
64,192,47542,1,2,0:0:0:0:
320,192,47942,1,2,0:0:0:0:
448,192,48142,1,4,0:0:0:0:
320,192,48542,1,4,0:0:0:0:
64,192,48942,128,8,50542:0:0:0:0:
448,192,48942,1,4,0:0:0:0:
192,192,49742,128,0,50542:0:0:0:0:
320,192,50542,128,4,52142:0:0:0:0:
448,192,50542,1,8,0:0:0:0:
448,192,51342,128,0,52142:0:0:0:0:
192,192,52142,128,4,53542:0:0:0:0:
64,192,52142,1,8,0:0:0:0:
64,192,53742,1,8,0:0:0:0:
320,192,53742,1,4,0:0:0:0:
320,192,54042,1,4,0:0:0:0:
192,192,54042,1,8,0:0:0:0:
192,192,54342,1,8,0:0:0:0:
448,192,54342,1,4,0:0:0:0:
320,192,54742,128,0,54942:0:0:0:0:
192,192,54942,128,0,55142:0:0:0:0:
64,192,55142,128,0,55342:0:0:0:0:
320,192,55342,1,8,0:0:0:0:
448,192,55342,1,4,0:0:0:0:
192,192,55542,1,2,0:0:0:0:
64,192,55742,1,0,0:0:0:0:
448,192,55742,1,8,0:0:0:0:
192,192,55942,1,2,0:0:0:0:
320,192,56142,1,0,0:0:0:0:
448,192,56142,1,8,0:0:0:0:
64,192,56342,1,2,0:0:0:0:
192,192,56542,1,8,0:0:0:0:
448,192,56542,1,0,0:0:0:0:
320,192,56742,1,2,0:0:0:0:
192,192,56942,1,8,0:0:0:0:
64,192,56942,1,0,0:0:0:0:
320,192,57142,1,2,0:0:0:0:
192,192,57342,1,0,0:0:0:0:
448,192,57342,1,8,0:0:0:0:
64,192,57542,1,2,0:0:0:0:
192,192,57742,1,0,0:0:0:0:
320,192,57742,1,8,0:0:0:0:
448,192,57942,1,2,0:0:0:0:
64,192,58142,1,8,0:0:0:0:
320,192,58142,1,0,0:0:0:0:
192,192,58342,1,2,0:0:0:0:
320,192,58542,1,8,0:0:0:0:
448,192,58542,1,0,0:0:0:0:
64,192,58742,1,2,0:0:0:0:
192,192,58942,1,8,0:0:0:0:
448,192,58942,1,0,0:0:0:0:
320,192,59142,1,2,0:0:0:0:
192,192,59342,1,0,0:0:0:0:
64,192,59342,1,8,0:0:0:0:
448,192,59542,1,2,0:0:0:0:
320,192,59742,1,8,0:0:0:0:
64,192,59742,1,0,0:0:0:0:
192,192,59942,1,2,0:0:0:0:
320,192,60142,1,0,0:0:0:0:
448,192,60142,1,8,0:0:0:0:
64,192,60342,1,2,0:0:0:0:
192,192,60542,1,8,0:0:0:0:
448,192,60542,1,0,0:0:0:0:
320,192,60742,1,2,0:0:0:0:
192,192,60942,1,0,0:0:0:0:
64,192,60942,1,8,0:0:0:0:
448,192,61142,128,2,61342:0:0:0:0:
320,192,61342,128,8,61542:0:0:0:0:
192,192,61542,128,2,61742:0:0:0:0:
64,192,61742,1,4,0:0:0:0:
320,192,61742,1,8,0:0:0:0:
448,192,61942,1,2,0:0:0:0:
320,192,62142,1,0,0:0:0:0:
64,192,62142,1,8,0:0:0:0:
192,192,62342,1,2,0:0:0:0:
64,192,62542,128,0,62742:0:0:0:0:
448,192,62542,1,8,0:0:0:0:
192,192,62742,128,2,62942:0:0:0:0:
320,192,62942,128,8,63142:0:0:0:0:
448,192,63142,128,2,63342:0:0:0:0:
64,192,63342,1,8,0:0:0:0:
192,192,63342,1,0,0:0:0:0:
320,192,63542,1,2,0:0:0:0:
192,192,63742,1,0,0:0:0:0:
448,192,63742,1,8,0:0:0:0:
64,192,63942,1,2,0:0:0:0:
448,192,64142,128,8,64342:0:0:0:0:
192,192,64142,1,0,0:0:0:0:
320,192,64342,128,2,64542:0:0:0:0:
192,192,64542,128,8,64742:0:0:0:0:
64,192,64742,128,2,64942:0:0:0:0:
320,192,64942,1,8,0:0:0:0:
448,192,64942,1,0,0:0:0:0:
192,192,65142,1,2,0:0:0:0:
64,192,65342,1,8,0:0:0:0:
320,192,65342,1,0,0:0:0:0:
448,192,65542,1,2,0:0:0:0:
64,192,65742,128,8,65942:0:0:0:0:
320,192,65742,1,0,0:0:0:0:
192,192,65942,128,2,66142:0:0:0:0:
320,192,66142,128,8,66342:0:0:0:0:
448,192,66342,128,2,66542:0:0:0:0:
64,192,66542,1,0,0:0:0:0:
320,192,66542,1,8,0:0:0:0:
192,192,66742,1,2,0:0:0:0:
320,192,66942,1,0,0:0:0:0:
448,192,66942,1,8,0:0:0:0:
192,192,67142,1,2,0:0:0:0:
448,192,67342,128,8,67542:0:0:0:0:
64,192,67342,1,0,0:0:0:0:
320,192,67542,128,2,67742:0:0:0:0:
192,192,67742,128,8,67942:0:0:0:0:
64,192,67942,128,2,68142:0:0:0:0:
192,192,68142,1,4,0:0:0:0:
448,192,68142,1,8,0:0:0:0:
320,192,68342,1,2,0:0:0:0:
192,192,68542,1,8,0:0:0:0:
64,192,68542,1,0,0:0:0:0:
320,192,68742,1,2,0:0:0:0:
448,192,68942,1,8,0:0:0:0:
64,192,68942,1,0,0:0:0:0:
192,192,69142,1,2,0:0:0:0:
320,192,69342,1,8,0:0:0:0:
448,192,69342,1,0,0:0:0:0:
192,192,69542,1,2,0:0:0:0:
64,192,69742,1,8,0:0:0:0:
448,192,69742,1,0,0:0:0:0:
320,192,69942,1,2,0:0:0:0:
64,192,70142,1,0,0:0:0:0:
192,192,70142,1,8,0:0:0:0:
448,192,70342,1,2,0:0:0:0:
64,192,70542,1,0,0:0:0:0:
320,192,70542,1,8,0:0:0:0:
192,192,70742,1,2,0:0:0:0:
320,192,70942,1,0,0:0:0:0:
64,192,70942,1,8,0:0:0:0:
448,192,71142,1,2,0:0:0:0:
320,192,71342,1,8,0:0:0:0:
192,192,71342,1,0,0:0:0:0:
64,192,71542,1,2,0:0:0:0:
192,192,71742,1,8,0:0:0:0:
448,192,71742,1,0,0:0:0:0:
320,192,71942,1,2,0:0:0:0:
448,192,72142,1,8,0:0:0:0:
192,192,72142,1,0,0:0:0:0:
64,192,72342,1,2,0:0:0:0:
320,192,72542,1,8,0:0:0:0:
192,192,72542,1,0,0:0:0:0:
448,192,72742,1,2,0:0:0:0:
320,192,72942,1,0,0:0:0:0:
64,192,72942,1,8,0:0:0:0:
192,192,73142,1,2,0:0:0:0:
448,192,73342,1,8,0:0:0:0:
64,192,73342,1,0,0:0:0:0:
320,192,73542,1,2,0:0:0:0:
192,192,73742,1,8,0:0:0:0:
448,192,73742,1,0,0:0:0:0:
320,192,73942,128,2,74142:0:0:0:0:
192,192,74142,128,8,74342:0:0:0:0:
64,192,74342,128,2,74542:0:0:0:0:
448,192,74542,1,8,0:0:0:0:
192,192,74542,1,4,0:0:0:0:
320,192,74742,1,2,0:0:0:0:
64,192,74942,1,0,0:0:0:0:
448,192,74942,1,8,0:0:0:0:
192,192,75142,1,2,0:0:0:0:
64,192,75342,128,8,75542:0:0:0:0:
320,192,75342,1,0,0:0:0:0:
192,192,75542,128,2,75742:0:0:0:0:
320,192,75742,128,8,75942:0:0:0:0:
448,192,75942,128,2,76142:0:0:0:0:
192,192,76142,1,8,0:0:0:0:
320,192,76142,1,0,0:0:0:0:
448,192,76342,1,2,0:0:0:0:
64,192,76542,1,0,0:0:0:0:
320,192,76542,1,8,0:0:0:0:
192,192,76742,1,2,0:0:0:0:
448,192,76942,128,8,77142:0:0:0:0:
64,192,76942,1,0,0:0:0:0:
320,192,77142,128,2,77342:0:0:0:0:
192,192,77342,128,8,77542:0:0:0:0:
64,192,77542,128,2,77742:0:0:0:0:
448,192,77742,1,0,0:0:0:0:
192,192,77742,1,8,0:0:0:0:
320,192,77942,1,2,0:0:0:0:
448,192,78142,1,0,0:0:0:0:
64,192,78142,1,8,0:0:0:0:
192,192,78342,1,2,0:0:0:0:
64,192,78542,128,8,78742:0:0:0:0:
320,192,78542,1,0,0:0:0:0:
192,192,78742,128,2,78942:0:0:0:0:
320,192,78942,128,8,79142:0:0:0:0:
448,192,79142,128,2,79342:0:0:0:0:
320,192,79342,1,0,0:0:0:0:
64,192,79342,1,8,0:0:0:0:
192,192,79542,1,2,0:0:0:0:
448,192,79742,1,0,0:0:0:0:
320,192,79742,1,8,0:0:0:0:
64,192,79942,1,2,0:0:0:0:
448,192,80142,128,8,80342:0:0:0:0:
192,192,80142,1,0,0:0:0:0:
320,192,80342,128,2,80542:0:0:0:0:
192,192,80542,128,8,80742:0:0:0:0:
64,192,80742,128,2,80942:0:0:0:0:
448,192,80942,1,8,0:0:0:0:
320,192,80942,128,4,81742:0:0:0:0:
64,192,81142,1,2,0:0:0:0:
448,192,81342,1,8,0:0:0:0:
192,192,81342,1,0,0:0:0:0:
64,192,81542,1,2,0:0:0:0:
448,192,81742,1,8,0:0:0:0:
192,192,81742,128,0,82542:0:0:0:0:
64,192,81942,1,2,0:0:0:0:
448,192,82142,1,8,0:0:0:0:
320,192,82142,1,0,0:0:0:0:
64,192,82342,1,2,0:0:0:0:
448,192,82542,1,8,0:0:0:0:
320,192,82542,128,0,83742:0:0:0:0:
64,192,82742,1,2,0:0:0:0:
192,192,82942,1,8,0:0:0:0:
448,192,82942,1,0,0:0:0:0:
64,192,83142,1,2,0:0:0:0:
192,192,83342,1,8,0:0:0:0:
448,192,83342,1,0,0:0:0:0:
64,192,83542,1,2,0:0:0:0:
448,192,83742,128,0,84142:0:0:0:0:
192,192,83742,1,8,0:0:0:0:
320,192,83942,1,2,0:0:0:0:
192,192,84142,1,8,0:0:0:0:
64,192,84142,128,0,85342:0:0:0:0:
320,192,84342,5,2,0:0:0:0:
448,192,84542,1,8,0:0:0:0:
192,192,84542,1,0,0:0:0:0:
320,192,84742,1,2,0:0:0:0:
192,192,84942,1,8,0:0:0:0:
448,192,84942,1,0,0:0:0:0:
320,192,85142,1,2,0:0:0:0:
448,192,85342,1,8,0:0:0:0:
192,192,85342,128,0,85742:0:0:0:0:
64,192,85542,1,2,0:0:0:0:
448,192,85742,1,8,0:0:0:0:
320,192,85742,128,0,86942:0:0:0:0:
192,192,85942,1,2,0:0:0:0:
64,192,86142,1,8,0:0:0:0:
448,192,86142,1,0,0:0:0:0:
192,192,86342,1,2,0:0:0:0:
64,192,86542,1,8,0:0:0:0:
448,192,86542,1,0,0:0:0:0:
192,192,86742,1,2,0:0:0:0:
64,192,86942,1,8,0:0:0:0:
448,192,86942,128,0,87142:0:0:0:0:
192,192,87142,128,2,87342:0:0:0:0:
64,192,87342,1,8,0:0:0:0:
320,192,87342,128,4,88142:0:0:0:0:
192,192,87542,1,2,0:0:0:0:
64,192,87742,1,8,0:0:0:0:
448,192,87742,1,0,0:0:0:0:
192,192,87942,1,2,0:0:0:0:
64,192,88142,1,8,0:0:0:0:
448,192,88142,128,0,88942:0:0:0:0:
320,192,88342,1,2,0:0:0:0:
64,192,88542,1,8,0:0:0:0:
192,192,88542,1,0,0:0:0:0:
320,192,88742,1,2,0:0:0:0:
192,192,88942,1,8,0:0:0:0:
64,192,88942,128,0,90142:0:0:0:0:
320,192,89142,1,2,0:0:0:0:
448,192,89342,1,8,0:0:0:0:
192,192,89342,1,0,0:0:0:0:
320,192,89542,1,2,0:0:0:0:
192,192,89742,1,8,0:0:0:0:
448,192,89742,1,0,0:0:0:0:
320,192,89942,1,2,0:0:0:0:
448,192,90142,1,8,0:0:0:0:
192,192,90142,128,0,90542:0:0:0:0:
320,192,90342,1,2,0:0:0:0:
448,192,90542,1,8,0:0:0:0:
64,192,90542,128,0,91742:0:0:0:0:
192,192,90742,1,2,0:0:0:0:
448,192,90942,1,8,0:0:0:0:
320,192,90942,1,0,0:0:0:0:
192,192,91142,1,2,0:0:0:0:
448,192,91342,1,8,0:0:0:0:
320,192,91342,1,0,0:0:0:0:
192,192,91542,1,2,0:0:0:0:
320,192,91742,1,8,0:0:0:0:
448,192,91742,128,0,92142:0:0:0:0:
192,192,91942,1,2,0:0:0:0:
320,192,92142,1,8,0:0:0:0:
64,192,92142,128,0,93342:0:0:0:0:
448,192,92342,1,2,0:0:0:0:
320,192,92542,1,8,0:0:0:0:
192,192,92542,1,0,0:0:0:0:
448,192,92742,1,2,0:0:0:0:
320,192,92942,1,8,0:0:0:0:
192,192,92942,1,0,0:0:0:0:
448,192,93142,1,2,0:0:0:0:
192,192,93342,1,8,0:0:0:0:
320,192,93342,1,0,0:0:0:0:
448,192,93542,128,2,93742:0:0:0:0:
64,192,93742,1,8,0:0:0:0:
192,192,93742,128,4,94542:0:0:0:0:
320,192,93942,1,2,0:0:0:0:
448,192,94142,1,8,0:0:0:0:
64,192,94142,1,0,0:0:0:0:
320,192,94342,1,2,0:0:0:0:
64,192,94542,1,8,0:0:0:0:
448,192,94542,128,0,95342:0:0:0:0:
320,192,94742,1,2,0:0:0:0:
192,192,94942,1,8,0:0:0:0:
64,192,94942,1,0,0:0:0:0:
320,192,95142,1,2,0:0:0:0:
64,192,95342,1,8,0:0:0:0:
192,192,95342,128,0,96542:0:0:0:0:
448,192,95542,1,2,0:0:0:0:
320,192,95742,1,8,0:0:0:0:
64,192,95742,1,0,0:0:0:0:
448,192,95942,1,2,0:0:0:0:
320,192,96142,1,8,0:0:0:0:
64,192,96142,1,0,0:0:0:0:
448,192,96342,1,2,0:0:0:0:
64,192,96542,1,0,0:0:0:0:
448,192,96542,1,8,0:0:0:0:
320,192,96642,1,0,0:0:0:0:
192,192,96742,1,2,0:0:0:0:
320,192,96842,1,0,0:0:0:0:
64,192,96942,1,8,0:0:0:0:
448,192,96942,1,0,0:0:0:0:
192,192,97042,1,0,0:0:0:0:
320,192,97142,1,2,0:0:0:0:
448,192,97242,1,0,0:0:0:0:
320,192,97342,1,0,0:0:0:0:
192,192,97342,1,8,0:0:0:0:
64,192,97542,1,2,0:0:0:0:
192,192,97642,1,0,0:0:0:0:
320,192,97742,1,8,0:0:0:0:
192,192,97842,1,0,0:0:0:0:
64,192,97942,1,2,0:0:0:0:
448,192,98142,1,0,0:0:0:0:
320,192,98142,1,8,0:0:0:0:
192,192,98242,1,0,0:0:0:0:
64,192,98342,1,2,0:0:0:0:
192,192,98442,1,0,0:0:0:0:
320,192,98542,1,0,0:0:0:0:
448,192,98542,1,8,0:0:0:0:
64,192,98642,1,0,0:0:0:0:
192,192,98742,1,2,0:0:0:0:
320,192,98842,1,0,0:0:0:0:
448,192,98942,1,8,0:0:0:0:
64,192,98942,1,0,0:0:0:0:
192,192,99142,1,2,0:0:0:0:
320,192,99242,1,0,0:0:0:0:
448,192,99342,1,8,0:0:0:0:
320,192,99442,1,0,0:0:0:0:
192,192,99542,1,2,0:0:0:0:
448,192,99742,1,0,0:0:0:0:
64,192,99742,1,8,0:0:0:0:
320,192,99942,1,2,0:0:0:0:
64,192,100142,1,8,0:0:0:0:
192,192,100142,128,0,100942:0:0:0:0:
448,192,100142,1,4,0:0:0:0:
320,192,100342,1,2,0:0:0:0:
448,192,100542,1,8,0:0:0:0:
64,192,100542,1,0,0:0:0:0:
320,192,100742,1,2,0:0:0:0:
64,192,100942,1,8,0:0:0:0:
448,192,100942,128,0,101742:0:0:0:0:
320,192,101142,1,2,0:0:0:0:
64,192,101342,1,8,0:0:0:0:
192,192,101342,1,0,0:0:0:0:
320,192,101542,1,2,0:0:0:0:
64,192,101742,1,8,0:0:0:0:
192,192,101742,128,0,102942:0:0:0:0:
448,192,101942,1,2,0:0:0:0:
320,192,102142,1,8,0:0:0:0:
64,192,102142,1,0,0:0:0:0:
448,192,102342,1,2,0:0:0:0:
64,192,102542,1,8,0:0:0:0:
320,192,102542,1,0,0:0:0:0:
448,192,102742,1,2,0:0:0:0:
64,192,102942,1,8,0:0:0:0:
320,192,102942,1,0,0:0:0:0:
192,192,103042,1,0,0:0:0:0:
320,192,103142,1,2,0:0:0:0:
192,192,103242,1,0,0:0:0:0:
64,192,103342,1,0,0:0:0:0:
448,192,103342,1,8,0:0:0:0:
192,192,103442,1,0,0:0:0:0:
320,192,103542,1,2,0:0:0:0:
448,192,103642,1,0,0:0:0:0:
320,192,103742,1,0,0:0:0:0:
64,192,103742,1,8,0:0:0:0:
192,192,103942,1,2,0:0:0:0:
320,192,104042,1,0,0:0:0:0:
448,192,104142,1,8,0:0:0:0:
64,192,104242,1,0,0:0:0:0:
192,192,104342,1,2,0:0:0:0:
448,192,104542,1,0,0:0:0:0:
320,192,104542,1,8,0:0:0:0:
192,192,104642,1,0,0:0:0:0:
320,192,104742,1,2,0:0:0:0:
448,192,104842,1,0,0:0:0:0:
64,192,104942,1,8,0:0:0:0:
64,192,105042,1,8,0:0:0:0:
320,192,105242,1,8,0:0:0:0:
320,192,105342,1,8,0:0:0:0:
448,192,105542,1,8,0:0:0:0:
448,192,105642,1,8,0:0:0:0:
192,192,106542,1,4,0:0:0:0:
448,192,106542,1,8,0:0:0:0:
64,192,106742,1,0,0:0:0:0:
320,192,106942,1,0,0:0:0:0:
192,192,107042,1,0,0:0:0:0:
448,192,107242,1,0,0:0:0:0:
320,192,107342,1,0,0:0:0:0:
192,192,107542,1,0,0:0:0:0:
320,192,107742,1,0,0:0:0:0:
448,192,107942,1,0,0:0:0:0:
192,192,108142,1,0,0:0:0:0:
192,192,108442,1,0,0:0:0:0:
320,192,108742,1,0,0:0:0:0:
448,192,109042,1,0,0:0:0:0:
64,192,109342,1,0,0:0:0:0:
320,192,109542,1,0,0:0:0:0:
64,192,109742,1,0,0:0:0:0:
64,192,110042,1,0,0:0:0:0:
192,192,110342,1,0,0:0:0:0:
320,192,110642,1,0,0:0:0:0:
64,192,110942,1,0,0:0:0:0:
320,192,111142,1,0,0:0:0:0:
192,192,111342,1,0,0:0:0:0:
192,192,111642,1,0,0:0:0:0:
448,192,111942,1,0,0:0:0:0:
320,192,112242,1,0,0:0:0:0:
64,192,112542,1,0,0:0:0:0:
448,192,112742,1,0,0:0:0:0:
192,192,112942,1,4,0:0:0:0:
320,192,112942,1,8,0:0:0:0:
448,192,113142,1,2,0:0:0:0:
192,192,113342,1,2,0:0:0:0:
64,192,113442,1,2,0:0:0:0:
192,192,113542,1,2,0:0:0:0:
320,192,113642,1,2,0:0:0:0:
192,192,113742,1,2,0:0:0:0:
64,192,113842,1,2,0:0:0:0:
192,192,113942,1,2,0:0:0:0:
448,192,114042,1,2,0:0:0:0:
64,192,114142,1,10,0:0:0:0:
320,192,114342,1,2,0:0:0:0:
192,192,114542,1,0,0:0:0:0:
448,192,114542,1,8,0:0:0:0:
320,192,114742,1,2,0:0:0:0:
192,192,114942,1,2,0:0:0:0:
320,192,115042,1,2,0:0:0:0:
64,192,115142,1,2,0:0:0:0:
320,192,115242,1,2,0:0:0:0:
192,192,115342,1,2,0:0:0:0:
448,192,115442,1,2,0:0:0:0:
320,192,115542,1,2,0:0:0:0:
192,192,115642,1,2,0:0:0:0:
64,192,115742,1,10,0:0:0:0:
320,192,115942,1,2,0:0:0:0:
192,192,116142,1,0,0:0:0:0:
448,192,116142,1,8,0:0:0:0:
64,192,116342,1,2,0:0:0:0:
192,192,116542,1,2,0:0:0:0:
448,192,116642,1,2,0:0:0:0:
320,192,116742,1,2,0:0:0:0:
448,192,116842,1,2,0:0:0:0:
192,192,116942,1,2,0:0:0:0:
320,192,117042,1,2,0:0:0:0:
64,192,117142,1,2,0:0:0:0:
192,192,117242,1,2,0:0:0:0:
448,192,117342,1,10,0:0:0:0:
64,192,117542,1,2,0:0:0:0:
192,192,117742,1,4,0:0:0:0:
320,192,117742,1,8,0:0:0:0:
64,192,117942,1,2,0:0:0:0:
320,192,118142,1,8,0:0:0:0:
192,192,118142,128,2,118442:0:0:0:0:
64,192,118442,1,8,0:0:0:0:
448,192,118442,1,4,0:0:0:0:
64,192,118642,1,4,0:0:0:0:
448,192,118642,1,8,0:0:0:0:
192,192,118842,1,12,0:0:0:0:
320,192,118942,1,12,0:0:0:0:
192,192,119142,1,8,0:0:0:0:
448,192,119142,1,4,0:0:0:0:
320,192,119342,1,0,0:0:0:0:
64,192,119342,1,8,0:0:0:0:
448,192,119342,1,4,0:0:0:0:
192,192,119542,1,2,0:0:0:0:
320,192,119742,1,0,0:0:0:0:
448,192,119742,1,8,0:0:0:0:
64,192,119942,1,2,0:0:0:0:
448,192,120142,1,0,0:0:0:0:
320,192,120142,1,8,0:0:0:0:
64,192,120342,1,2,0:0:0:0:
448,192,120542,1,0,0:0:0:0:
192,192,120542,1,8,0:0:0:0:
320,192,120742,1,2,0:0:0:0:
64,192,120942,1,0,0:0:0:0:
192,192,120942,1,8,0:0:0:0:
448,192,121142,1,2,0:0:0:0:
320,192,121342,1,8,0:0:0:0:
192,192,121342,1,0,0:0:0:0:
64,192,121542,1,2,0:0:0:0:
448,192,121742,1,8,0:0:0:0:
320,192,121742,1,0,0:0:0:0:
192,192,121942,1,2,0:0:0:0:
448,192,122142,1,8,0:0:0:0:
64,192,122142,1,0,0:0:0:0:
320,192,122342,1,2,0:0:0:0:
192,192,122542,1,0,0:0:0:0:
64,192,122542,1,8,0:0:0:0:
320,192,122742,1,2,0:0:0:0:
448,192,122942,1,8,0:0:0:0:
192,192,122942,1,0,0:0:0:0:
320,192,123142,1,2,0:0:0:0:
448,192,123342,1,8,0:0:0:0:
64,192,123342,1,0,0:0:0:0:
192,192,123542,1,2,0:0:0:0:
320,192,123742,1,8,0:0:0:0:
64,192,123742,1,0,0:0:0:0:
448,192,123942,1,2,0:0:0:0:
320,192,124142,1,8,0:0:0:0:
192,192,124142,1,4,0:0:0:0:
64,192,124342,1,2,0:0:0:0:
192,192,124542,1,0,0:0:0:0:
448,192,124542,1,8,0:0:0:0:
320,192,124742,1,2,0:0:0:0:
64,192,124942,1,8,0:0:0:0:
448,192,124942,1,4,0:0:0:0:
320,192,125142,1,2,0:0:0:0:
192,192,125342,1,8,0:0:0:0:
64,192,125342,1,0,0:0:0:0:
320,192,125542,1,2,0:0:0:0:
64,192,125742,1,4,0:0:0:0:
448,192,125742,1,8,0:0:0:0:
320,192,125942,1,2,0:0:0:0:
448,192,126142,1,0,0:0:0:0:
192,192,126142,1,8,0:0:0:0:
320,192,126342,1,2,0:0:0:0:
192,192,126542,1,8,0:0:0:0:
64,192,126542,1,0,0:0:0:0:
448,192,126742,1,2,0:0:0:0:
320,192,126942,1,8,0:0:0:0:
64,192,126942,1,0,0:0:0:0:
192,192,127142,1,2,0:0:0:0:
448,192,127342,1,0,0:0:0:0:
64,192,127342,1,8,0:0:0:0:
320,192,127542,1,2,0:0:0:0:
64,192,127742,1,0,0:0:0:0:
192,192,127742,1,8,0:0:0:0:
320,192,127942,1,2,0:0:0:0:
448,192,128142,1,8,0:0:0:0:
192,192,128142,1,0,0:0:0:0:
320,192,128342,1,2,0:0:0:0:
64,192,128542,1,8,0:0:0:0:
448,192,128542,1,0,0:0:0:0:
192,192,128742,1,2,0:0:0:0:
64,192,128942,1,0,0:0:0:0:
320,192,128942,1,8,0:0:0:0:
448,192,129142,1,2,0:0:0:0:
192,192,129342,1,8,0:0:0:0:
320,192,129342,1,0,0:0:0:0:
64,192,129542,1,2,0:0:0:0:
448,192,129742,1,8,0:0:0:0:
192,192,129742,1,0,0:0:0:0:
320,192,129942,1,2,0:0:0:0:
448,192,130142,1,8,0:0:0:0:
64,192,130142,1,0,0:0:0:0:
192,192,130342,1,2,0:0:0:0:
320,192,130542,1,4,0:0:0:0:
448,192,130542,1,8,0:0:0:0:
64,192,130542,128,0,132142:0:0:0:0:
192,192,130742,1,2,0:0:0:0:
320,192,130942,1,8,0:0:0:0:
448,192,130942,1,0,0:0:0:0:
192,192,131142,1,2,0:0:0:0:
320,192,131342,1,0,0:0:0:0:
448,192,131342,1,8,0:0:0:0:
192,192,131542,1,2,0:0:0:0:
320,192,131742,1,0,0:0:0:0:
448,192,131742,1,8,0:0:0:0:
192,192,131942,1,2,0:0:0:0:
320,192,132142,128,4,133742:0:0:0:0:
448,192,132142,1,8,0:0:0:0:
192,192,132942,128,0,133742:0:0:0:0:
64,192,133742,128,4,135342:0:0:0:0:
448,192,133742,1,8,0:0:0:0:
320,192,134542,128,0,135342:0:0:0:0:
448,192,135342,1,8,0:0:0:0:
192,192,135342,128,4,140142:0:0:0:0:
