osu file format v14

[General]
AudioFilename: Revive.mp3
AudioLeadIn: 0
PreviewTime: 22576
Countdown: 0
SampleSet: Soft
StackLeniency: 0.7
Mode: 0
LetterboxInBreaks: 0
WidescreenStoryboard: 0

[Editor]
Bookmarks: 56458
DistanceSpacing: 2
BeatDivisor: 4
GridSize: 4
TimelineZoom: 1.82

[Metadata]
Title:Revive
TitleUnicode:Revive
Artist:Coyote Kisses
ArtistUnicode:Coyote Kisses
Creator:loopuleasa
Version:Acid Trip
Source:
Tags:future bass
BeatmapID:613585
BeatmapSetID:269601

[Difficulty]
HPDrainRate:6
CircleSize:4
OverallDifficulty:8
ApproachRate:9
SliderMultiplier:2.39999990463257
SliderTickRate:1

[Events]
//Background and Video events
0,0,"01.jpg",0,0
//Break Periods
2,67952,75623
//Storyboard Layer 0 (Background)
//Storyboard Layer 1 (Fail)
//Storyboard Layer 2 (Pass)
//Storyboard Layer 3 (Foreground)
//Storyboard Sound Samples

[TimingPoints]
-12,705.882352941176,4,2,0,30,1,0
11282,-83.3333333333333,4,2,0,20,0,0
11987,-100,4,2,0,5,0,0
13207,-100,4,2,0,22,0,0
14806,-142.857142857143,4,2,0,16,0,0
16223,-83.3333333333333,4,2,0,12,0,0
16576,-58.8235294117647,4,2,0,8,0,0
16929,-142.857142857143,4,2,0,25,0,0
17811,-142.857142857143,4,2,0,20,0,0
19046,-50,4,2,0,5,0,0
19752,-50,4,3,0,30,0,0
20635,-50,4,3,0,40,0,0
22576,-83.3333333333333,4,1,0,40,0,0
23282,-50,4,1,0,5,0,0
23987,-50,4,1,0,10,0,0
24340,-83.3333333333333,4,1,0,40,0,0
27517,-83.3333333333333,4,1,0,5,0,0
28576,-83.3333333333333,4,1,0,30,0,0
29635,-50,4,1,0,5,0,0
30340,-83.3333333333333,4,1,0,5,0,0
30385,-83.3333333333333,4,1,0,30,0,0
30605,-83.3333333333333,4,1,0,5,0,0
30693,-83.3333333333333,4,1,0,30,0,0
30782,-83.3333333333333,4,1,0,5,0,0
31046,-83.3333333333333,4,1,0,30,0,0
32105,-50,4,1,0,5,0,0
32458,-83.3333333333333,4,1,0,30,0,0
32811,-50,4,1,0,5,0,0
33870,-83.3333333333333,4,3,0,40,0,0
34223,-83.3333333333333,4,1,0,40,0,0
35987,-83.3333333333333,4,1,0,40,0,0
36032,-83.3333333333333,4,1,0,5,0,0
36164,-83.3333333333333,4,1,0,40,0,0
36208,-83.3333333333333,4,1,0,5,0,0
36340,-83.3333333333333,4,1,0,40,0,0
36385,-83.3333333333333,4,1,0,5,0,0
36693,-83.3333333333333,4,1,0,40,0,0
38458,-83.3333333333333,4,1,0,30,0,0
38458,-83.3333333333333,4,2,0,30,0,0
38811,-50,4,2,0,5,0,0
39517,-83.3333333333333,4,3,0,50,0,0
40929,-83.3333333333333,4,3,0,60,0,0
42340,-50,4,3,0,80,0,0
44458,-50,4,3,0,71,0,0
44723,-50,4,1,0,5,0,0
44811,-50,4,3,0,71,0,0
45076,-50,4,1,0,5,0,0
45164,-50,4,3,0,71,0,1
45340,-83.3333333333333,4,1,0,35,0,1
47282,-50,4,1,0,35,0,1
47458,-50,4,1,0,5,0,1
47635,-50,4,3,0,51,0,1
48076,-50,4,1,0,5,0,1
48517,-50,4,1,0,35,0,1
51164,-50,4,1,0,35,0,1
53193,-50,4,1,0,5,0,1
54340,-50,4,1,0,35,0,1
55046,-83.3333333333333,4,2,0,35,0,1
55399,-83.3333333333333,4,3,0,60,0,1
56987,-50,4,1,0,35,0,0
59458,-50,4,1,0,5,0,0
59635,-50,4,1,0,35,0,0
60340,-50,4,1,0,35,0,0
60517,-50,4,1,0,5,0,0
60693,-50,4,1,0,35,0,0
64576,-50,4,3,0,35,0,0
79046,-83.3333333333333,4,2,0,25,0,0
81164,-50,4,2,0,5,0,0
81208,-50,4,2,0,30,0,0
81340,-50,4,2,0,5,0,0
81385,-50,4,2,0,30,0,0
81517,-50,4,2,0,5,0,0
81561,-50,4,2,0,30,0,0
81693,-83.3333333333333,4,2,0,25,0,0
86811,-50,4,2,0,30,0,0
86855,-50,4,2,0,5,0,0
86987,-50,4,2,0,30,0,0
87032,-50,4,2,0,5,0,0
87164,-50,4,2,0,30,0,0
87208,-50,4,2,0,5,0,0
87517,-83.3333333333333,4,3,0,35,0,0
90340,-200,4,3,0,65,0,1
94919,-50,4,3,0,65,0,1
95017,-50,4,3,0,5,0,1
95282,-50,4,3,0,65,0,1
95370,-50,4,3,0,5,0,1
95635,-50,4,3,0,65,0,1
95723,-50,4,3,0,5,0,1
95987,-200,4,3,0,65,0,1
100576,-50,4,3,0,65,0,0
100664,-50,4,3,0,5,0,0
100929,-50,4,3,0,65,0,0
101017,-50,4,3,0,5,0,0
101282,-50,4,3,0,65,0,0
101370,-50,4,3,0,5,0,0
101635,-50,4,3,0,65,0,0
102340,-50,4,3,0,65,0,0
102870,-200,4,3,0,65,0,0
104458,-200,4,3,0,65,0,0
105164,-83.3333333333333,4,3,0,65,0,0
105605,-50,4,3,0,65,0,0
106223,-50,4,3,0,65,0,0
106311,-50,4,3,0,5,0,0
106576,-50,4,3,0,65,0,0
106664,-50,4,3,0,5,0,0
106929,-50,4,3,0,65,0,0
107017,-50,4,3,0,5,0,0
107282,-83.3333333333333,4,3,0,65,0,0
107987,-200,4,3,0,65,0,0
108693,-83.3333333333333,4,3,0,65,0,0
109223,-83.3333333333333,4,3,0,5,0,0
109399,-83.3333333333333,4,3,0,65,0,0
110105,-50,4,3,0,65,0,0
110193,-50,4,3,0,5,0,0
110458,-50,4,3,0,65,0,0
110502,-50,4,3,0,5,0,0
110635,-50,4,3,0,65,0,0
110679,-50,4,3,0,5,0,0
110987,-50,4,3,0,65,0,0
111032,-50,4,3,0,5,0,0
111164,-50,4,3,0,65,0,0
111208,-50,4,3,0,5,0,0

[HitObjects]
352,216,11282,6,0,P|413:246|436:264,2,71.9999949417116
268,200,11811,1,0,0:0:0:0:
180,188,11987,2,0,P|136:172|112:148,1,59.9999976158143,0|0,0:0|2:0,0:0:0:0:
355,147,12340,6,0,L|418:140,2,59.9999976158143,0|0|0,0:0|0:0|0:0,0:0:0:0:
196,136,12869,1,0,0:0:0:0:
256,268,13045,1,0,0:0:0:0:
364,140,13399,5,0,0:0:0:0:
364,148,13576,1,2,0:0:0:0:
364,156,13752,2,0,P|312:152|308:140,1,59.9999976158143,0|0,0:0|0:0,0:0:0:0:
244,44,14105,5,0,0:0:0:0:
148,72,14282,1,0,0:0:0:0:
224,132,14458,1,0,0:0:0:0:
244,44,14635,1,0,0:0:0:0:
144,56,14811,2,0,P|144:96|160:148,1,83.9999940986636
176,192,15340,2,0,P|230:250|240:256,1,83.9999940986636
260,44,15870,6,0,P|299:56|320:85,1,62.9999955739977
312,116,16223,2,0,P|360:156|392:228,1,107.999992412567
332,212,16576,2,0,P|386:311|369:383,1,152.99999683857
336,324,16929,6,0,P|315:343|288:350,2,41.9999970493318,0|0|0,0:0|0:0|0:0,0:0:0:0:
328,288,17458,1,0,0:0:0:0:
296,260,17635,1,0,0:0:0:0:
156,140,17987,5,0,0:0:0:0:
232,268,18164,1,0,0:0:0:0:
80,240,18340,2,0,P|40:264|20:288,2,41.9999970493318,0|0|0,0:0|0:0|0:0,0:0:0:0:
368,52,19046,2,0,B|439:91|439:91|448:156,1,119.999995231629,0|0,0:0|0:0,0:0:0:0:
360,216,19399,2,0,B|289:177|289:177|280:112,1,119.999995231629,0|0,0:0|0:0,0:0:0:0:
364,140,19752,5,0,0:0:0:0:
156,140,20105,1,0,0:0:0:0:
140,164,20282,1,0,0:0:0:0:
364,140,20635,5,0,0:0:0:0:
384,184,20812,1,0,0:0:0:0:
256,192,21164,12,0,22576,0:0:0:0:
364,140,22929,5,0,0:0:0:0:
272,244,23105,1,0,0:0:0:0:
424,284,23282,2,0,P|440:320|396:296,2,119.999995231629,0|0|0,0:0|0:0|0:0,0:0:0:0:
164,236,23987,2,0,P|124:236|160:200,2,119.999995231629,0|0|0,0:0|0:0|0:0,0:0:0:0:
292,84,24693,5,0,0:0:0:0:
216,184,24870,1,0,0:0:0:0:
156,76,25046,1,0,0:0:0:0:
156,76,25399,6,0,P|228:104|236:112,1,71.9999949417116
304,160,25752,1,0,0:0:0:0:
332,256,25929,1,0,0:0:0:0:
320,360,26105,1,0,0:0:0:0:
192,184,26458,6,0,L|124:148,2,71.9999949417116,0|0|0,0:0|0:0|0:0,0:0:0:0:
280,232,26987,1,0,0:0:0:0:
384,288,27164,1,0,0:0:0:0:
457,86,27517,6,0,P|395:114|351:104,1,107.999992412567
336,176,27870,2,0,P|294:191|252:245,1,107.999992412567,0|0,0:0|0:0,1:0:0:0:
196,200,28223,2,0,P|138:209|93:235,1,107.999992412567,0|0,0:0|0:0,1:0:0:0:
68,260,28576,5,0,0:0:0:0:
48,296,28752,1,0,0:0:0:0:
40,336,28929,1,0,0:0:0:0:
256,132,29282,1,0,0:0:0:0:
116,188,29635,2,0,B|104:192|104:192|92:180|92:180|100:204|100:204|87:191|87:191|90:198|90:198|79:194|79:194|82:202|82:202|46:217,2,119.999995231629,0|0|0,0:0|0:0|1:0,1:0:0:0:
320,120,30340,6,0,L|280:156,1,35.9999974708558
320,120,30517,2,0,L|319:66,1,35.9999974708558
319,120,30693,2,0,L|358:158,1,35.9999974708558
152,140,31046,6,0,P|120:157|101:187,1,71.9999949417116
128,268,31399,1,0,0:0:0:0:
248,340,31576,1,0,0:0:0:0:
400,320,31752,1,0,0:0:0:0:
360,136,32105,6,0,P|264:92|184:88,1,179.999992847443
60,136,32458,1,0,0:0:0:0:
120,288,32811,6,0,P|205:226|283:207,1,179.999992847443
416,220,33164,6,0,P|330:158|252:139,1,179.999992847443
136,144,33517,6,0,P|221:82|299:63,1,179.999992847443
416,68,33870,1,4,0:0:0:0:
200,260,34223,5,0,0:0:0:0:
408,232,34399,1,0,0:0:0:0:
228,168,34576,1,0,0:0:0:0:
368,140,34929,1,0,0:0:0:0:
356,140,35282,1,0,0:0:0:0:
340,140,35635,1,0,0:0:0:0:
153,105,35987,6,0,P|148:144|157:162,1,35.9999974708558
161,217,36164,2,0,P|180:251|199:259,1,35.9999974708558
253,301,36340,2,0,P|290:313|309:308,1,35.9999974708558
460,280,36693,1,0,0:0:0:0:
460,280,36870,1,0,0:0:0:0:
460,280,37046,5,0,0:0:0:0:
380,144,37223,1,0,0:0:0:0:
276,260,37399,1,0,0:0:0:0:
256,96,37752,5,0,0:0:0:0:
160,248,37929,1,0,0:0:0:0:
340,124,38105,1,0,0:0:0:0:
132,216,38282,1,0,0:0:0:0:
384,240,38458,1,0,0:0:0:0:
158,141,38811,6,0,P|152:208|280:252,1,119.999995231629
308,331,39164,1,0,0:0:0:0:
152,84,39517,5,0,0:0:0:0:
344,192,39870,1,0,0:0:0:0:
132,212,40223,1,0,0:0:0:0:
432,84,40576,1,4,0:0:0:0:
360,320,40929,5,0,0:0:0:0:
112,56,41282,1,0,0:0:0:0:
52,284,41635,1,0,0:0:0:0:
420,288,41987,1,4,0:0:0:0:
403,135,42340,5,0,0:0:0:0:
142,291,42517,1,0,0:0:0:0:
257,53,42693,1,0,0:0:0:0:
365,292,42870,1,0,0:0:0:0:
139,124,43046,1,0,0:0:0:0:
402,135,43223,1,0,0:0:0:0:
142,291,43399,1,0,0:0:0:0:
257,53,43576,1,0,0:0:0:0:
96,153,43752,5,0,0:0:0:0:
107,187,43840,1,0,0:0:0:0:
123,218,43928,1,0,0:0:0:0:
148,245,44016,1,0,0:0:0:0:
176,268,44104,1,0,0:0:0:0:
209,285,44193,1,0,0:0:0:0:
242,294,44281,1,0,0:0:0:0:
279,296,44370,1,4,0:0:0:0:
317,289,44458,1,8,0:0:0:0:
335,73,44811,6,4,P|251:106|183:183,1,179.999987354279
104,306,45164,1,4,0:0:0:0:
104,306,45517,5,0,0:0:0:0:
264,192,45693,1,0,0:0:0:0:
336,72,45870,2,0,B|324:156|256:156|260:216,1,143.999989883423
404,140,46576,5,0,0:0:0:0:
156,72,46752,1,0,0:0:0:0:
328,248,46929,1,0,0:0:0:0:
160,192,47105,1,0,0:0:0:0:
296,68,47282,2,0,B|296:144|296:144|240:200|240:200|240:296,1,239.999990463257
436,180,47987,6,0,P|476:180|436:212,2,119.999995231629
165,226,48693,1,0,0:0:0:0:
165,226,48870,1,0,0:0:0:0:
72,176,49046,2,0,P|191:127|270:191,1,239.999990463257
344,304,49752,5,0,0:0:0:0:
448,284,49929,1,0,0:0:0:0:
368,212,50105,1,0,0:0:0:0:
276,168,50282,1,0,0:0:0:0:
436,96,50459,1,0,0:0:0:0:
292,20,50635,1,0,0:0:0:0:
116,152,50811,5,0,0:0:0:0:
116,152,51164,1,0,0:0:0:0:
276,44,51340,1,0,0:0:0:0:
220,208,51517,1,0,0:0:0:0:
448,132,51870,1,0,0:0:0:0:
416,284,52223,6,0,B|449:277|449:277|458:246|458:246|498:248|498:248|510:222,2,119.999995231629
268,276,52752,1,0,0:0:0:0:
164,200,52929,2,0,P|150:92|252:80,1,179.999992847443
364,60,53282,6,0,P|279:122|201:141,1,179.999992847443
68,128,53635,6,0,P|154:190|232:209,1,179.999992847443
348,204,53988,6,0,P|263:266|185:285,1,179.999992847443
60,280,54340,2,0,P|32:224|40:204,2,59.9999976158143
320,332,54693,1,0,0:0:0:0:
252,76,55046,6,0,L|248:36,2,35.9999974708558
152,192,55399,1,0,0:0:0:0:
232,248,55576,1,0,0:0:0:0:
328,232,55752,1,0,0:0:0:0:
328,232,55929,1,0,0:0:0:0:
280,108,56105,1,0,0:0:0:0:
244,112,56193,1,0,0:0:0:0:
209,121,56281,1,0,0:0:0:0:
176,135,56369,1,0,0:0:0:0:
145,153,56457,1,4,0:0:0:0:
145,153,56811,1,0,0:0:0:0:
200,264,56987,5,0,0:0:0:0:
336,336,57164,1,0,0:0:0:0:
424,100,57517,1,0,0:0:0:0:
320,108,57870,5,0,0:0:0:0:
204,280,58046,1,0,0:0:0:0:
339,127,58223,1,0,0:0:0:0:
104,256,58399,1,0,0:0:0:0:
356,152,58576,2,0,P|384:220|296:204,2,119.999995231629
64,212,59282,6,0,P|150:274|228:293,1,179.999992847443
388,304,59635,1,0,0:0:0:0:
496,108,59987,5,0,0:0:0:0:
496,108,60164,1,0,0:0:0:0:
424,284,60340,2,0,P|319:276|255:209,1,179.999992847443
152,80,60693,1,0,0:0:0:0:
328,76,61046,5,0,0:0:0:0:
184,144,61223,1,0,0:0:0:0:
368,192,61399,1,0,0:0:0:0:
56,192,61752,2,0,B|90:214|90:214|68:234|68:234|149:216|149:216|239:269,1,239.999990463257
488,304,62458,5,0,0:0:0:0:
184,320,62635,1,0,0:0:0:0:
324,128,62811,1,0,0:0:0:0:
324,128,63164,1,0,0:0:0:0:
424,272,63517,6,0,B|388:260|388:260|376:268|376:268|368:264|368:264|372:252|372:252|368:236|368:236|360:252|360:252|360:268|360:268|352:280|352:280|352:292|352:292|340:284|340:284|328:284|328:284|312:272|312:272|296:280|296:280|280:272|280:272|236:272,1,239.999990463257
196,244,64046,1,0,0:0:0:0:
108,192,64223,1,0,0:0:0:0:
456,52,64576,6,0,P|365:106|286:118,1,179.999992847443
224,92,64929,6,0,P|119:102|48:140,1,179.999992847443
0,192,65282,6,0,P|85:254|163:273,1,179.999992847443
236,272,65635,6,0,P|339:288|408:329,1,179.999992847443
484,348,65987,6,0,P|438:253|378:199,1,179.999992847443
308,164,66340,5,0,0:0:0:0:
200,192,66517,1,0,0:0:0:0:
68,316,66693,1,0,0:0:0:0:
256,192,67046,12,0,67752,0:0:0:0:
256,192,76223,12,0,79046,0:0:0:0:
140,172,79399,5,0,0:0:0:0:
224,252,79576,1,0,0:0:0:0:
344,260,79752,1,8,0:0:0:0:
140,172,80105,5,0,0:0:0:0:
224,252,80282,1,0,0:0:0:0:
344,260,80458,6,0,P|392:264|428:308,2,71.9999949417116
224,252,80987,1,0,0:0:0:0:
172,184,81164,6,0,P|214:123|228:124,1,59.9999976158143
300,124,81340,2,0,P|332:190|316:208,1,59.9999976158143
272,280,81517,1,0,0:0:0:0:
256,192,81870,1,0,0:0:0:0:
352,284,82223,5,0,0:0:0:0:
372,200,82399,1,0,0:0:0:0:
276,224,82576,1,0,0:0:0:0:
320,64,82929,5,0,0:0:0:0:
320,64,83105,1,0,0:0:0:0:
320,64,83282,1,0,0:0:0:0:
408,176,83458,1,0,0:0:0:0:
376,316,83635,1,0,0:0:0:0:
232,312,83811,1,0,0:0:0:0:
128,212,83987,1,0,0:0:0:0:
128,212,84164,1,0,0:0:0:0:
184,80,84340,1,0,0:0:0:0:
184,80,84517,1,0,0:0:0:0:
320,64,84693,6,8,P|392:80|400:88,1,71.9999949417116
408,220,85046,1,0,0:0:0:0:
296,312,85223,1,0,0:0:0:0:
256,312,85399,1,0,0:0:0:0:
376,76,85752,5,0,0:0:0:0:
404,216,85929,1,0,0:0:0:0:
294,313,86105,1,0,0:0:0:0:
258,309,86193,1,0,0:0:0:0:
224,300,86282,2,0,P|185:280|168:216,1,71.9999949417116
172,152,86811,6,0,P|227:102|248:104,1,59.9999976158143
320,112,86987,2,0,P|337:184|324:208,1,59.9999976158143
280,252,87164,2,0,P|207:242|192:224,1,59.9999976158143
352,92,87517,6,8,L|384:60,2,35.9999974708558
256,200,87870,1,0,0:0:0:0:
148,292,88046,1,0,0:0:0:0:
288,324,88223,1,0,0:0:0:0:
452,40,88576,5,0,0:0:0:0:
420,180,88752,2,0,L|428:212,4,17.9999987354279
284,56,89105,1,0,0:0:0:0:
284,56,89193,1,0,0:0:0:0:
284,56,89282,1,0,0:0:0:0:
256,196,89458,1,0,0:0:0:0:
152,296,89635,2,4,B|96:236|144:228|32:252|96:328,1,143.999989883423
420,188,90340,6,8,P|420:224|408:216,1,59.9999976158143
156,192,90870,1,0,0:0:0:0:
368,220,91046,1,0,0:0:0:0:
64,80,91399,5,0,0:0:0:0:
320,52,91576,1,0,0:0:0:0:
192,248,91752,1,0,0:0:0:0:
64,80,91929,1,0,0:0:0:0:
320,52,92105,1,0,0:0:0:0:
408,328,92458,5,0,0:0:0:0:
292,48,92635,1,0,0:0:0:0:
236,336,92811,1,0,0:0:0:0:
176,52,92987,1,0,0:0:0:0:
84,320,93164,2,0,P|72:336|68:352,2,29.9999988079071
368,140,93693,1,0,0:0:0:0:
156,140,93870,1,0,0:0:0:0:
156,140,94223,5,0,0:0:0:0:
264,40,94399,1,0,0:0:0:0:
420,196,94576,1,0,0:0:0:0:
228,332,94752,1,0,0:0:0:0:
60,288,94929,6,0,P|141:222|219:200,1,179.999992847443
323,208,95282,6,0,P|253:128|181:92,1,179.999992847443
67,71,95635,6,0,P|163:29|244:28,1,179.999992847443
440,72,95987,6,0,P|448:92|428:100,1,29.9999988079071
344,256,96340,1,0,0:0:0:0:
208,96,96516,1,0,0:0:0:0:
208,96,96693,1,0,0:0:0:0:
72,192,97046,5,0,0:0:0:0:
232,28,97223,1,0,0:0:0:0:
456,192,97399,1,0,0:0:0:0:
288,332,97576,1,0,0:0:0:0:
288,332,97752,1,0,0:0:0:0:
408,56,98105,5,0,0:0:0:0:
292,336,98282,1,0,0:0:0:0:
236,48,98458,1,0,0:0:0:0:
176,332,98634,1,0,0:0:0:0:
80,52,98811,1,4,0:0:0:0:
368,140,99164,5,0,0:0:0:0:
96,224,99340,1,0,0:0:0:0:
96,224,99517,1,0,0:0:0:0:
264,40,99693,1,0,0:0:0:0:
256,256,99870,1,0,0:0:0:0:
456,116,100223,1,4,0:0:0:0:
120,288,100576,6,0,P|205:226|283:207,1,179.999992847443
416,220,100929,6,0,P|330:158|252:139,1,179.999992847443
136,144,101282,6,0,P|221:82|299:63,1,179.999992847443
412,64,101634,1,4,0:0:0:0:
256,212,101987,5,0,0:0:0:0:
232,192,102076,1,0,0:0:0:0:
248,168,102164,1,0,0:0:0:0:
272,176,102252,1,0,0:0:0:0:
276,204,102340,6,0,P|240:240|256:152,1,239.999990463257
412,156,102870,1,0,0:0:0:0:
412,156,103046,5,0,0:0:0:0:
180,84,103223,1,0,0:0:0:0:
404,48,103399,2,0,L|440:32,1,29.9999988079071
288,116,103752,5,0,0:0:0:0:
76,208,103929,1,0,0:0:0:0:
376,220,104105,1,0,0:0:0:0:
140,328,104282,1,0,0:0:0:0:
432,336,104458,6,0,L|468:320,1,29.9999988079071
464,192,104811,1,0,0:0:0:0:
356,76,104987,1,0,0:0:0:0:
228,168,105164,2,0,P|224:244|268:300,1,143.999989883423
432,336,105693,5,0,0:0:0:0:
408,144,105870,1,0,0:0:0:0:
244,32,106046,1,0,0:0:0:0:
116,52,106223,6,0,P|201:114|279:133,1,179.999992847443
412,120,106576,6,0,P|326:182|248:201,1,179.999992847443
132,196,106929,6,0,P|217:258|295:277,1,179.999992847443
416,312,107282,6,0,B|463:324|463:324|440:266|477:242|476:208,1,143.999989883423
456,56,107811,1,0,0:0:0:0:
220,315,107987,2,0,P|193:327|159:318,1,59.9999976158143
48,248,108517,5,0,0:0:0:0:
104,44,108693,1,0,0:0:0:0:
420,40,108870,1,0,0:0:0:0:
476,244,109046,2,0,B|468:260|468:260|468:296|436:316|392:320,1,107.999992412567
260,312,109399,1,0,0:0:0:0:
68,168,109576,1,0,0:0:0:0:
304,52,109752,1,0,0:0:0:0:
304,52,109929,1,0,0:0:0:0:
416,220,110105,6,0,P|292:268|280:244,1,179.999992847443
212,176,110458,6,0,P|264:136|308:132,1,89.9999964237214
348,140,110635,2,0,P|336:160|212:212,1,149.999994039536
144,196,110987,6,0,P|196:156|240:152,1,89.9999964237214
280,160,111164,2,0,B|268:180|153:229|156:364,1,239.999990463257
256,192,111870,12,0,112929,0:0:0:0:
