osu file format v9

[General]
AudioFilename: Cover Drive - Twilight.mp3
AudioLeadIn: 0
PreviewTime: 53890
Countdown: 0
SampleSet: Normal
StackLeniency: 0.7
Mode: 0
LetterboxInBreaks: 1

[Editor]
Bookmarks: 191223
DistanceSpacing: 0.8
BeatDivisor: 4
GridSize: 8

[Metadata]
Title:Twilight
Artist:Cover Drive
Creator:Neptunus
Version:Normal
Source:
Tags:

[Difficulty]
HPDrainRate:3
CircleSize:3
OverallDifficulty:4
ApproachRate:5
SliderMultiplier:1.2
SliderTickRate:1

[Events]
//Background and Video events
0,0,"BG.jpg"
//Break Periods
2,43423,52690
2,86090,95357
2,139423,148690
2,160756,167357
//Storyboard Layer 0 (Background)
//Storyboard Layer 1 (Fail)
//Storyboard Layer 2 (Pass)
//Storyboard Layer 3 (Foreground)
//Storyboard Sound Samples
//Background Colour Transformations
3,100,163,162,255

[TimingPoints]
11224,333.333333333333,4,1,1,60,1,0
53890,-100,4,1,1,60,0,1
85890,-100,4,1,1,60,0,0
96557,-100,4,2,1,60,0,0
107223,-100,4,1,1,60,0,1
139223,-100,4,1,1,60,0,0
171223,-100,4,1,1,60,0,1
203223,-100,4,2,1,5,0,0

[Colours]
Combo1 : 255,255,128
Combo2 : 6,131,255
Combo3 : 255,0,128

[HitObjects]
72,72,11224,6,0,B|120:88|152:48|192:72,1,120,6|0
232,88,11724,1,0
332,204,12224,1,8
248,248,12557,2,0,B|200:288|128:216|72:272,1,180,2|0
256,348,13557,1,10
352,332,13890,6,0,B|456:288|464:200,1,180
336,100,14890,1,8
244,76,15224,2,2,B|144:60|80:136,2,180
248,172,16557,1,0
256,316,17057,1,0
120,256,17557,1,8
48,192,17890,6,2,B|32:128|64:72,1,120
112,88,18390,2,2,B|208:112|288:64,1,180,2|10
376,104,19224,1,0
248,176,19723,1,0
152,280,20223,1,8
240,312,20557,5,2
320,264,20890,1,0
400,216,21223,2,0,B|464:184,2,60,0|0|8
368,128,21890,6,2,B|256:48|144:128,1,240
192,208,22890,1,8
256,272,23223,2,2,B|352:360,2,120
168,304,24223,1,8
72,296,24557,2,2,B|24:176|72:56,2,240
168,304,26223,1,0
192,208,26557,1,2
200,112,26890,1,8
272,48,27223,6,2,B|400:96|416:232,1,240
376,312,28223,1,8
280,328,28557,2,2,B|152:280|136:144,1,240
192,72,29557,1,8
288,48,29890,6,2,B|408:112|376:256,1,240
280,232,30890,1,8
272,328,31223,2,2,B|208:344|160:304,1,120
112,216,31890,2,0,B|88:160,2,60,0|0|8
208,192,32557,6,2,B|288:136|360:240|440:192,1,240
392,112,33557,1,8
328,40,33890,2,0,B|408:16|456:56,2,120
256,104,34890,1,10
176,48,35223,2,2,B|80:120|64:256,2,240
256,104,36890,1,0
256,200,37223,1,0
256,296,37557,1,8
160,304,37890,6,2,B|56:248|184:160|104:88,1,240
200,56,38890,1,8
296,64,39223,2,2,B|400:120|272:208|352:280,1,240
424,216,40223,1,8
424,312,40557,5,0
336,360,40890,1,8
240,352,41223,1,0
160,296,41557,1,8
96,224,41890,2,2,B|128:104|256:56,1,240
344,88,42890,1,0
400,168,43223,1,4
256,88,53890,5,2
160,112,54223,2,0,B|88:128|88:200,1,120
184,208,54890,1,8
272,176,55223,2,2,B|304:240|264:304|184:328|128:296,1,240,2|0
72,224,56223,1,8
88,128,56557,5,0
160,64,56890,1,8
256,48,57223,1,0
352,64,57557,1,8
424,128,57890,1,0
256,192,58557,1,0
72,256,59223,6,0,B|88:320|160:336,1,120,2|0
216,264,59890,2,0,B|282:278|298:342,1,120,2|0
392,336,60557,2,2,B|376:208|240:168,1,240
144,168,61557,1,8
256,192,61890,12,0,63890
392,200,64557,5,0
312,144,64890,2,2,B|248:120|192:168,1,120
184,256,65557,1,8
88,280,65890,2,2,B|56:144|168:72,1,240
256,120,66890,1,8
344,80,67223,5,0
432,112,67557,1,8
480,192,67890,1,0
432,272,68223,1,8
344,304,68557,1,0
192,192,69223,1,0
376,128,69890,6,0,B|336:80|264:80,1,120,2|0
176,104,70557,2,0,B|112:128|104:200,1,120,2|0
160,272,71223,2,2,B|288:336|376:224,1,240
296,168,72223,1,8
256,192,72557,12,0,74557
256,56,75223,6,2,B|96:64|32:192|96:336|256:344,1,480
368,192,77223,1,8
192,136,77890,6,2,B|312:24|512:192|304:368|184:256,1,480
72,104,79890,1,8
256,48,80557,6,2,B|320:40|376:72,1,120
408,104,81057,2,2,B|448:160|448:224,1,120
432,312,81723,1,2
384,328,81890,6,2,B|328:344|264:336,1,120
216,328,82390,2,2,B|144:312|128:248,1,120
208,192,83057,1,2
176,152,83223,6,2,B|288:88|416:144,2,240
216,240,84890,1,0
120,240,85223,1,0
88,152,85557,1,0
88,64,85890,1,4
256,64,96557,5,2
336,120,96890,2,0,B|392:160,2,60,0|0|2
256,168,97557,1,0
176,120,97890,2,0,B|72:216|160:336,1,240
256,320,98890,1,2
353,333,99223,2,0,B|440:216|336:120,1,240
256,72,100223,1,2
256,168,100557,5,0
200,248,100890,1,0
112,288,101223,1,0
64,200,101557,1,2
48,104,101890,2,0,B|136:16|216:48|256:112,1,240,2|0
256,200,102890,1,2
256,296,103223,2,0,B|292:354|372:386|460:298,1,240,2|0
392,232,104223,1,2
344,152,104557,6,0,B|312:88|376:48,2,120
256,192,105557,1,2
168,152,105890,2,2,B|200:88|136:48,2,120
80,192,106890,1,10
80,192,107223,6,2,B|136:304|288:272,1,240,6|2
328,184,108223,1,8
328,184,108557,2,2,B|178:215|122:103,1,240
208,64,109557,1,8
304,48,109890,2,0,B|448:24|520:192|448:360|304:336,1,480,2|2
184,192,111890,1,8
336,72,112557,5,0
240,72,112890,1,8
152,112,113223,1,0
96,192,113557,1,8
152,272,113890,1,0
240,312,114223,2,0,B|304:312,2,60,8|0|0
256,216,114890,1,8
256,192,115223,12,0,117223
184,88,117890,6,2,B|304:72|304:72|288:144|368:152,1,240,6|2
320,232,118890,1,8
320,232,119223,2,2,B|200:216|200:216|216:288|136:296,1,240
112,200,120223,1,8
112,200,120557,2,0,B|88:59|256:-12|424:59|400:203,1,480,2|2
256,328,122557,1,8
72,264,123223,5,0
160,224,123557,1,8
256,200,123890,1,0
352,224,124223,1,8
440,264,124557,1,0
440,360,124890,2,0,B|512:360,2,60,8|0|0
344,336,125557,1,8
256,192,125890,12,0,127890
256,328,128557,6,2,B|416:320|480:192|416:48|256:40,1,480
144,192,130557,1,8
320,248,131224,6,2,B|200:360|0:192|208:16|328:128,1,480
440,280,133223,1,8
256,336,133891,6,2,B|192:344|136:312,1,120
104,280,134391,2,2,B|64:224|64:160,1,120
80,72,135057,1,2
128,56,135224,6,2,B|184:40|248:48,1,120
296,56,135724,2,2,B|368:72|384:136,2,120
256,192,136557,12,0,139223
256,72,149890,6,0,B|320:72,2,60,0|0|8
168,112,150557,2,0,B|80:192,1,120,0|8
160,248,151223,2,0,B|248:160,1,120,0|8
288,176,151723,2,0,B|384:224|384:328,1,180,0|8
288,336,152557,6,0,B|224:336,2,60,0|0|8
248,248,153223,2,0,B|176:240|136:296,1,120,0|8
64,344,153890,2,0,B|32:272|48:216,1,120,0|8
72,192,154390,2,0,B|128:104|64:24,1,180,0|8
160,16,155223,6,0,B|232:16,2,60,0|0|8
200,104,155890,2,0,B|256:144|312:120,1,120,0|8
320,24,156557,2,0,B|384:0|432:48,1,120,0|8
432,96,157057,2,0,B|368:160|400:272,1,180,0|8
336,344,157890,6,0,B|240:232|128:336,1,240
112,240,158890,1,8
96,144,159223,2,0,B|96:96|56:48,2,90
144,160,159890,2,0,B|272:224|352:104,1,240,0|4
288,200,168557,6,0,B|352:280|448:216,2,180
336,112,169890,1,0
256,56,170223,1,0
176,112,170557,1,0
128,192,170890,1,0
176,272,171223,6,2,B|240:304|304:272,2,120,6|2|2
240,200,172223,1,8
304,128,172557,2,2,B|240:96|176:128,2,120
376,192,173557,1,8
416,280,173890,5,0
336,336,174223,1,8
256,280,174557,1,0
176,336,174890,1,8
96,280,175223,1,0
256,168,175890,1,0
256,72,176223,1,8
168,112,176557,6,2,B|104:104|56:48,2,120
136,200,177557,2,2,B|88:256|144:304,1,120,10|2
240,304,178223,2,0,B|304:304,2,60,0|0|0
256,208,178890,1,8
304,128,179223,2,2,B|440:88|512:208,1,240
304,128,180557,2,2,B|168:168|96:48,1,240
120,192,181890,6,2,B|128:352|256:416|400:352|408:192,1,480
256,80,183890,1,8
200,256,184557,6,2,B|88:136|256:-64|432:144|320:264,1,480
168,376,186557,1,8
112,192,187224,6,2,B|56:136|104:80,1,120
144,72,187724,2,2,B|200:40|264:32,1,120
352,48,188390,1,2
400,64,188557,6,2,B|416:120|408:184,1,120
392,232,189057,2,2,B|376:304|312:320,1,120
256,240,189724,1,2
208,240,189890,6,0,B|160:192|160:104|256:32|256:32|344:104|344:192|304:240,2,480,2|2|4
448,192,193223,6,2,B|384:296|256:328,1,240,2|6
256,192,194557,1,8
254,56,195223,2,2,B|128:88|64:192,1,240,2|2
256,192,196557,1,4
448,192,197223,2,0,B|512:192,2,60
376,128,197890,6,2,B|272:64,1,120
256,112,198390,2,2,B|136:96,1,120
96,184,199057,1,2
112,232,199223,6,2,B|224:288,1,120
240,248,199723,2,2,B|360:256,1,120
432,192,200390,1,2
256,192,200557,12,0,203223
