osu file format v9

[General]
AudioFilename: Cover Drive - Twilight.mp3
AudioLeadIn: 0
PreviewTime: 53890
Countdown: 0
SampleSet: Normal
StackLeniency: 0.7
Mode: 0
LetterboxInBreaks: 1

[Editor]
Bookmarks: 40057,40307
DistanceSpacing: 1.1
BeatDivisor: 4
GridSize: 4

[Metadata]
Title:Twilight
Artist:Cover Drive
Creator:Neptunus
Version:Insane
Source:
Tags:

[Difficulty]
HPDrainRate:6
CircleSize:5
OverallDifficulty:8
ApproachRate:8
SliderMultiplier:2
SliderTickRate:1

[Events]
//Background and Video events
0,0,"BG.jpg"
//Break Periods
2,86090,95807
2,139423,149140
2,160757,167807
//Storyboard Layer 0 (Background)
//Storyboard Layer 1 (Fail)
//Storyboard Layer 2 (Pass)
//Storyboard Layer 3 (Foreground)
//Storyboard Sound Samples
//Background Colour Transformations
3,100,163,162,255

[TimingPoints]
11224,333.333333333333,4,1,1,60,1,0
53890,-100,4,1,1,60,0,1
85890,-100,4,1,1,60,0,0
96557,-100,4,2,1,60,0,0
105890,-100,4,1,1,60,0,0
107223,-100,4,1,1,60,0,1
139223,-100,4,1,1,60,0,0
171223,-100,4,1,1,60,0,1
203223,-100,4,2,1,5,0,0

[Colours]
Combo1 : 255,255,128
Combo2 : 6,131,255
Combo3 : 255,0,128

[HitObjects]
200,88,11224,6,0,B|80:96|64:208,1,200,4|0
168,248,11724,2,0,B|288:240|304:128,1,200
272,232,12224,2,0,B|256:288|280:336,1,100,8|0
384,296,12557,2,0,B|480:256|448:120,1,200
400,64,13057,1,0
328,32,13224,1,0
200,160,13557,2,0,B|192:216|128:224,1,100,8|0
64,136,13890,6,0,B|168:72|240:168,1,200,4|0
256,272,14390,2,0,B|152:344|72:248,1,200
112,152,14890,2,0,B|168:136|208:184,1,100,0|0
256,272,15224,2,0,B|256:160|152:96,1,200
64,64,15724,1,0
80,176,15890,2,0,B|120:152|139:95,1,100
160,208,16224,6,0,B|240:288|344:248,1,200,8|4
408,72,16890,1,0
408,72,17057,1,0
64,136,17390,1,0
136,56,17557,1,0
224,112,17724,1,0
224,112,17890,2,0,B|152:184|224:232|224:232|208:288,1,200,0|0
288,112,18390,2,0,B|360:184|288:232|288:232|304:288,1,200
256,352,18890,1,8
380,348,19224,2,0,B|256:208|124:352,1,300,4|0
176,96,20223,5,0
256,176,20390,1,0
336,96,20557,2,0,B|432:164|384:276,1,200,8|0
304,352,21057,2,0,B|208:284|256:172,1,200,8|0
280,68,21557,1,0
160,168,21890,6,0,B|256:200|360:168,1,200,4|0
356,168,22390,1,0
176,48,22723,1,0
256,120,22890,1,0
336,48,23057,1,0
432,96,23223,6,0,B|464:192|392:288,1,200,8|0
288,320,23723,2,0,B|388:320|472:244,1,200,8|0
484,136,24223,1,0
380,100,24390,1,0
296,184,24557,2,0,B|256:296|112:256,2,200,0|0|0
256,104,25390,2,0,B|224:144|256:208,2,100,0|0|0
320,16,25890,6,0,B|248:104|152:128,1,200,12|0
96,32,26390,2,0,B|192:72|240:184,1,200,8|0
296,264,26890,1,0
184,288,27057,1,0
112,204,27223,2,0,B|164:96|280:136,2,200,8|0|0
304,316,28223,2,0,B|352:316|408:300,1,100,0|0
392,192,28557,2,0,B|272:164|244:284,1,200,8|0
324,360,29057,2,0,B|224:329|168:241,1,200,8|0
160,132,29557,1,0
256,80,29723,1,0
328,160,29890,6,0,B|348:264|248:244|256:340,1,200
256,336,30390,2,0,B|263:244|163:264|183:160,2,200
152,296,31223,2,0,B|72:220|104:112,1,200,8|0
200,56,31723,1,0
296,108,31890,1,8
360,200,32057,1,0
336,304,32223,1,8
336,304,32557,6,0,B|288:216|176:176,1,200,4|0
104,248,33057,2,0,B|136:344|248:384,1,200
256,272,33557,1,0
256,168,33723,1,0
296,64,33890,6,0,B|384:0|488:56,1,200,8|0
216,64,34390,2,0,B|128:0|24:56,1,200,8|0
256,32,34890,2,0,B|256:136,1,100,0|0
160,192,35223,2,0,B|256:224|360:192,1,200
152,272,35890,1,0
192,328,36057,1,0
256,360,36223,1,0
320,328,36390,1,0
360,272,36557,6,0,B|324:208|352:176|352:176|308:184|288:108,1,200,8|0
222,113,37057,2,0,B|204:184|160:176|160:176|188:208|152:272,1,200,8|0
256,300,37557,1,8
80,128,37890,2,0,B|144:56|256:12|368:56|436:132,1,400,4|0
256,160,38890,5,0
456,72,39223,1,8
432,272,39557,1,0
324,264,39723,5,0
212,72,40057,1,0
212,72,40223,1,0
100,260,40557,1,4
324,264,41057,5,0
212,72,41390,1,0
212,72,41557,1,0
100,260,41890,1,4
184,208,42223,5,0
208,280,42390,1,0
160,344,42557,1,8
80,336,42723,1,0
40,264,42890,1,8
48,184,43057,1,0
64,104,43223,1,8
64,104,43557,5,0
184,208,43890,1,0
96,304,44223,2,2,B|184:368|288:320,2,200
56,248,45057,2,2,B|72:128|176:104,1,200
208,168,45557,2,0,B|240:224|208:264,1,100,10|0
144,288,45890,5,0
280,248,46223,1,2
408,296,46557,1,0
280,248,46890,2,2,B|264:144|344:64,2,200
384,216,47723,2,2,B|280:176|184:224,1,200
104,296,48223,1,10
40,208,48390,1,0
64,104,48557,6,0,B|144:24|248:64,1,200,2|0
288,200,49057,2,2,B|336:224|392:200,1,100,2|0
440,104,49390,1,0
336,80,49557,1,10
240,128,49723,1,0
184,224,49890,2,2,B|248:320|360:296,1,200
440,224,50390,1,0
416,120,50557,2,0,B|328:24|240:104,2,200,2|2|2
224,224,51557,1,8
224,224,51723,1,0
80,48,52057,5,0
64,128,52223,1,8
80,208,52390,1,0
128,272,52557,1,10
128,272,52890,5,0
80,208,53057,1,0
64,128,53223,1,10
80,48,53390,1,0
160,32,53557,1,10
200,104,53723,1,0
312,104,53890,6,0,B|360:136|384:176,1,100,4|0
320,224,54223,2,0,B|280:192|256:144,1,100,8|0
376,56,54557,2,2,B|464:112|496:224,1,200,2|10
440,312,55057,1,0
344,336,55223,2,2,B|224:352|176:256,1,200
248,144,55723,1,0
248,144,55890,2,2,B|188:44|76:76,1,200,2|10
40,192,56557,5,0
224,72,56890,1,0
256,288,57223,1,0
224,72,57557,1,8
368,232,57890,2,2,B|464:192|472:72,1,200,2|10
360,72,58390,1,0
368,184,58557,2,2,B|312:288|200:248,1,200,2|10
56,64,59223,5,0
328,48,59557,1,8
328,48,59723,2,0,B|320:104|296:144,1,100,0|0
96,224,60223,1,8
96,224,60390,2,0,B|128:272|136:320,1,100,0|0
248,320,60723,2,0,B|256:264|288:216,2,100,0|8|0
360,336,61223,2,2,B|416:248|376:144,2,200,2|2|10
472,336,62223,5,0
472,224,62390,2,0,B|368:176|280:240,1,200
200,312,62890,1,8
312,336,63057,2,2,B|360:240|264:160,1,200
127,135,63557,5,0
128,136,63723,1,0
176,72,63890,1,8
256,48,64057,1,0
328,72,64224,1,8
384,128,64390,1,0
336,200,64557,6,0,B|376:224|432:232,1,100,4|0
448,168,64890,2,0,B|392:144|344:144,1,100,8|0
280,248,65223,2,2,B|368:304|480:280,1,200,2|10
376,344,65723,1,0
264,344,65890,6,0,B|200:344|152:328,1,100
112,264,66223,2,0,B|168:256|216:272,1,100,8|0
104,344,66557,2,2,B|8:280|48:168,1,200,2|10
160,168,67057,1,0
184,64,67223,6,0,B|296:32|376:104,1,200
432,312,67890,1,0
224,240,68223,1,8
448,224,68557,2,0,B|448:344|320:352,1,200,0|8
312,240,69057,1,8
299,128,69223,2,2,B|176:136|176:256,1,200,2|10
376,192,69890,6,0,B|424:232|472:248,2,100,0|0|8
312,104,70390,1,0
224,40,70557,2,2,B|96:72|136:200,1,200,2|10
312,104,71223,1,0
312,104,71557,5,0
256,200,71723,1,0
200,104,71890,1,0
344,256,72223,2,2,B|256:328|160:256,1,200,10|2
200,104,72890,2,0,B|248:72|296:104,2,100,0|0|8
248,208,73390,2,0,B|296:240|352:208,2,100
144,168,73890,5,8
64,96,74057,2,2,B|136:0|240:48,1,200
288,144,74557,2,0,B|360:216,1,100,2|0
408,112,74890,2,0,B|480:184,1,100,2|0
448,288,75223,5,4
344,328,75390,1,0
240,304,75557,2,0,B|200:256|160:232,1,100
200,128,75890,2,2,B|304:152|320:280,1,200
416,216,76390,1,0
416,216,76557,1,8
368,128,76723,2,0,B|400:88|448:56,2,100,0|0|8
256,128,77223,2,0,B|256:24,2,100,0|0|8
144,128,77723,1,0
56,152,77890,6,0,B|48:208|96:256,1,100,4|0
60,341,78223,2,0,B|52:285|92:245,1,100
88,248,78557,2,2,B|164:285|212:229|284:261,1,200
392,248,79057,1,0
432,144,79223,2,0,B|464:96|488:48,2,100,8|0|0
328,176,79723,2,0,B|240:168|224:176,2,100,8|0|0
296,72,80223,1,0
184,96,80390,1,0
80,56,80557,6,2,B|-24:128|48:256,1,200,6|2
136,280,81057,1,2
352,304,81390,1,2
360,96,81723,1,2
256,56,81890,2,2,B|160:128|240:240,1,200,6|2
336,264,82390,2,2,B|216:208|144:296,1,200
56,344,82890,1,2
40,240,83057,1,0
96,144,83223,6,2,B|272:0|464:160,1,400
256,240,84223,2,0,B|200:272|160:288,2,100,0|0|8
368,216,84723,1,0
368,216,84807,1,0
368,216,84890,1,8
296,152,85057,2,0,B|224:152|176:136,2,100,0|8|0
408,144,85557,2,0,B|416:80|360:48,1,100
264,40,85890,1,4
120,96,96557,5,2
272,152,96890,2,0,B|248:272|128:256,1,200
64,48,97557,1,2
272,80,97890,2,0,B|296:184|216:272,1,200,2|0
296,240,98390,2,0,B|408:168|480:264,1,200,2|0
408,344,98890,1,0
408,344,99223,6,0,B|352:368|312:328,1,100,2|0
240,248,99557,1,0
448,176,99890,2,0,B|472:56|344:24,2,200,2|0|2
360,240,100723,2,0,B|256:304|176:216,1,200,2|0
104,136,101223,2,0,B|160:144|200:104,1,100
288,48,101557,1,2
288,48,101890,6,0,B|336:144,1,100,2|0
336,248,102223,2,0,B|360:136|488:144,2,200,2|0|0
448,272,103057,1,0
448,272,103223,2,0,B|424:384|280:368,1,200,2|0
192,336,103723,1,0
192,336,103890,2,0,B|192:232|304:184,1,200,2|0
80,128,104557,6,0,B|160:56|280:96,1,200,2|0
296,168,105057,1,0
312,248,105223,2,0,B|256:256|208:240,1,100
368,216,105557,2,0,B|424:224|464:240,1,100
392,320,105890,2,2,B|304:384|192:320,1,200,2|0
136,280,106390,5,0
104,208,106557,1,10
104,128,106723,1,0
152,64,106890,1,10
232,40,107057,1,0
240,128,107223,6,0,B|272:176|320:200,1,100,4|0
368,144,107557,2,0,B|336:104|288:80,1,100,8|0
184,168,107890,2,2,B|200:288|344:272,1,200,2|10
448,248,108390,1,0
448,248,108557,6,0,B|448:320|424:368,1,100
360,344,108890,2,0,B|352:288|368:232,1,100,8|0
272,304,109223,2,2,B|232:176|360:144,1,200,2|10
376,40,109723,1,0
376,40,109890,5,0
104,88,110223,1,8
200,352,110557,1,0
472,304,110890,1,8
472,304,111223,6,0,B|432:192|296:224,1,200
208,256,111723,1,0
112,312,111890,2,2,B|48:216|120:128,1,200,2|10
288,152,112557,6,0,B|368:160|408:176,1,100
464,248,112890,1,8
320,336,113223,2,0,B|272:312|232:288,1,100
152,216,113557,1,8
152,216,113890,6,0,B|128:96|240:56,1,200
344,80,114390,1,0
336,192,114557,1,0
336,192,114890,6,2,B|392:80|264:40,1,200,10|2
48,72,115557,1,8
112,160,115723,1,0
288,312,116057,1,0
396,288,116223,1,8
396,176,116390,2,2,B|316:80|220:160,2,200
396,288,117223,2,0,B|444:284,2,50
288,312,117557,1,0
288,312,117890,6,0,B|248:276|184:288,1,100,4|0
88,316,118223,2,0,B|120:356|180:348,1,100,8|0
268,224,118557,2,2,B|196:132|84:192,1,200,2|10
104,72,119057,1,0
104,72,119223,6,0,B|200:40,1,100
256,96,119557,2,0,B|160:128,1,100,8|0
256,32,119890,2,2,B|304:-8|360:0|400:40|376:104,1,200,2|10
320,192,120390,1,0
320,192,120557,5,0
72,328,120890,1,8
176,64,121223,1,0
424,192,121557,1,8
424,192,121890,6,0,B|400:288|272:304,1,200,0|8
256,192,122390,1,0
237,80,122557,2,2,B|112:96|88:192,1,200,2|10
168,264,123057,1,0
272,296,123223,6,0,B|336:312|384:296,1,100
336,240,123557,2,10,B|272:224|232:232,1,100
392,240,123890,2,0,B|392:184|344:136,1,100
216,288,124223,2,0,B|200:336|232:384,1,100,10|2
136,336,124557,1,0
96,264,124723,1,0
120,184,124890,1,8
192,144,125057,1,0
264,184,125223,2,2,B|352:256|456:192,2,200,2|10|2
256,24,126223,5,8
256,24,126390,1,0
112,88,126723,1,0
112,88,126890,1,8
112,88,127057,6,0,B|152:184,1,100
160,288,127390,2,2,B|208:168|352:200,1,200
432,200,127890,2,0,B|440:248,2,50,8|0|0
440,88,128223,2,0,B|480:48,2,50,8|0|0
328,80,128557,5,4
216,88,128723,1,0
128,160,128890,2,0,B|168:208|224:200,1,100,8|0
304,136,129223,2,2,B|432:88|488:208,1,200
384,280,129723,2,0,B|384:336|448:360,2,100,0|8|0
272,272,130223,2,0,B|248:320|256:376,2,100,0|8|0
192,200,130723,1,0
88,224,130890,1,0
112,120,131057,1,0
216,80,131223,5,4
328,72,131390,1,0
400,160,131557,2,0,B|352:160|312:208,1,100,8|0
256,304,131890,2,2,B|376:344|448:232,2,200,2|2|10
152,256,132723,1,0
152,256,132890,1,0
112,152,133057,1,8
112,152,133223,1,0
184,64,133390,1,0
296,48,133557,2,0,B|360:40,2,50
248,152,133890,6,2,B|232:272|384:296,1,200,2|10
432,208,134390,1,2
184,336,134723,1,2
72,80,135057,1,10
168,32,135223,2,2,B|264:96|216:216,1,200
136,280,135723,2,2,B|232:200|344:280,2,200
256,192,136557,12,0,139223
216,88,149890,5,0
256,32,150057,1,0
296,88,150223,1,8
256,144,150390,1,0
144,88,150557,5,0
256,32,150723,1,0
368,88,150890,1,8
192,200,151223,5,2
344,240,151557,1,0
344,240,151723,1,0
344,240,151890,1,2
56,336,152223,2,0,B|256:336,1,200,8|0
208,272,152723,5,0
288,248,152890,1,8
216,192,153057,1,0
304,144,153223,1,0
200,112,153390,1,0
288,32,153557,1,8
160,40,153890,6,2,B|48:80|48:200,1,200
136,256,154390,1,0
48,320,154557,2,2,B|136:248|264:280,1,200,2|10
272,48,155223,5,0
376,88,155390,1,0
280,152,155557,1,8
184,208,155723,1,0
288,256,155890,1,0
392,296,156057,1,0
416,192,156223,1,0
416,192,156557,6,2,B|208:192,1,200
160,112,157057,1,0
160,112,157223,2,2,B|272:192|160:272,1,200,2|10
32,192,157890,5,0
0,256,158057,1,0
56,296,158223,2,0,B|88:336|152:328,1,100,8|0
136,248,158556,2,0,B|80:248|56:296,1,100
136,248,158890,2,0,B|236:248,1,100,8|0
216,320,159223,5,0
328,312,159390,1,0
400,232,159557,1,8
400,232,159640,1,0
400,232,159723,1,0
424,128,159890,2,2,B|336:64|232:96,1,200,2|10
40,192,160557,1,4
256,192,168557,12,0,170890
192,96,171223,6,0,B|136:120|128:168,1,100,4|0
160,232,171557,2,0,B|216:216|240:168,1,100,8|0
144,40,171890,2,2,B|40:80|16:192,1,200,2|10
72,280,172390,1,0
168,328,172557,6,0,B|224:352|280:328,1,100
240,272,172890,2,0,B|192:248|136:272,1,100,8|0
328,312,173223,2,2,B|360:192|280:128,1,200,2|10
192,64,173723,1,0
96,120,173890,5,0
368,56,174223,1,8
440,328,174557,1,0
168,376,174890,1,8
352,256,175223,2,2,B|272:176|160:208,1,200
96,288,175723,2,2,B|216:208|152:112,1,200
72,48,176223,1,8
72,48,176390,1,0
184,48,176557,6,0,B|240:64|288:64,1,100
216,152,176890,2,0,B|280:160|328:152,1,100,8|0
296,264,177223,2,2,B|416:232|448:128,1,200,2|10
376,56,177723,1,0
272,88,177890,2,2,B|168:144|240:272,1,200,2|10
328,320,178390,1,0
328,320,178557,2,2,B|248:232|128:304,1,200,2|10
88,200,179057,1,0
80,88,179223,5,0
176,136,179390,1,0
272,88,179557,1,8
368,136,179723,1,0
208,288,180057,1,0
208,288,180223,1,8
208,288,180390,6,0,B|136:216,1,100
32,192,180723,2,2,B|128:264|224:192,1,200
164,100,181223,2,0,B|112:108,2,50,8|0|0
272,76,181557,1,0
272,76,181890,6,0,B|324:56|376:72,1,100
320,192,182223,2,0,B|264:208|208:184,2,100,8|0|0
416,144,182723,1,0
448,248,182890,1,8
360,320,183057,1,0
256,280,183223,1,0
256,280,183557,5,0
256,280,183723,1,0
152,320,183890,1,8
56,256,184057,1,0
136,184,184223,1,8
64,104,184390,1,0
64,104,184557,6,2,B|208:-32|320:120,1,300
280,216,185223,2,2,B|304:96|432:136,2,200,2|10|2
392,240,186057,1,0
392,240,186223,1,8
392,240,186390,2,0,B|368:344|240:344,1,200
176,256,186890,1,8
104,168,187057,1,0
136,64,187223,6,2,B|232:144|152:240,1,200
56,288,187723,1,2
280,120,188057,1,2
384,368,188390,1,10
392,256,188557,6,2,B|296:200|200:272,1,200
128,344,189057,1,2
96,88,189390,1,2
352,40,189723,1,10
240,56,189890,2,2,B|184:168|296:224,1,200
400,192,190390,1,0
480,112,190557,2,2,B|416:8|288:48,2,200,2|10|2
400,192,191390,2,0,B|436:213|492:229,2,100,0|8|0
296,240,191890,1,0
208,304,192057,1,0
120,240,192223,1,8
184,144,192390,1,0
184,144,192557,6,2,B|264:72|384:120,1,200,6|10
416,248,193057,1,0
416,248,193223,2,0,B|368:272|312:256,1,100
416,160,193556,2,0,B|472:128|520:144,1,100,8|0
320,184,193890,2,2,B|296:72|184:40,1,200,2|10
104,120,194390,5,0
48,200,194557,2,0,B|80:248|128:256,1,100,0|0
188,180,194890,2,0,B|172:228|132:260,1,100,8|0
131,260,195223,6,2,B|228:388|404:300,1,300,2|10
480,224,195890,2,2,B|416:312|296:272,2,200,2|10|2
416,136,196723,1,0
416,136,196890,1,8
416,136,197057,2,2,B|304:72|248:184,1,200
200,280,197557,2,0,B|136:272|128:208,1,100,8|0
216,152,197890,6,2,B|324:198|308:310,1,200,2|10
232,232,198390,1,2
448,288,198723,1,2
440,88,199057,1,10
344,32,199223,2,2,B|232:96|312:224,1,200
376,280,199723,2,2,B|304:184|200:248,2,200
256,192,200557,12,0,203223
