osu file format v9

[General]
AudioFilename: courtney gears.mp3
AudioLeadIn: 2000
PreviewTime: 11733
Countdown: 0
SampleSet: Normal
StackLeniency: 0.7
Mode: 0
LetterboxInBreaks: 0

[Editor]
DistanceSpacing: 1
BeatDivisor: 4
GridSize: 4

[Metadata]
Title:Death to Squishes
Artist:Courtney Gears
Creator:RikiH_
Version:Normal
Source:Ratchet & Clank 3
Tags:Sony Playstation Ps2 David Bergeaud Insomniac Games _Gezo_ Gezo

[Difficulty]
HPDrainRate:3
CircleSize:3
OverallDifficulty:3
ApproachRate:4
SliderMultiplier:1.19999990463257
SliderTickRate:1

[Events]
//Background and Video events
0,0,"BG7.jpg"
//Break Periods
2,11932,14331
2,29075,31963
//Storyboard Layer 0 (Background)
//Storyboard Layer 1 (Fail)
//Storyboard Layer 2 (Pass)
//Storyboard Layer 3 (Foreground)
//Storyboard Sound Samples
//Background Colour Transformations
3,100,163,162,255

[TimingPoints]
3896,489.795918367347,4,1,1,60,1,0
3896,-100,4,1,1,60,0,1
4018,-100,4,1,1,60,0,0
25324,-100,4,1,0,45,0,0
25691,-100,4,1,1,60,0,0
26181,-100,4,1,0,35,0,0
26671,-100,4,1,1,60,0,0
33161,-100,4,1,1,60,0,0
36218,489.795918367347,4,1,1,60,1,0
36218,-100,4,1,0,60,0,1
36340,-100,4,1,1,60,0,0
41973,-100,4,1,0,45,0,0
42462,-100,4,1,1,60,0,0
42952,-100,4,1,0,35,0,0
43442,-100,4,1,1,60,0,0
51769,-100,4,1,0,60,0,0
52013,-100,4,1,1,60,0,0

[Colours]
Combo1 : 0,0,255
Combo2 : 255,0,128
Combo3 : 128,0,255
Combo4 : 255,0,0

[HitObjects]
84,164,467,6,0,B|84:224,1,59.9999952316284,2|2
376,152,1936,6,0,B|376:92,1,59.9999952316284,2|2
480,152,2671,2,0,B|480:212,1,59.9999952316284,2|2
240,192,3895,6,0,B|180:192|132:144,1,119.999990463257,4|2
144,24,4875,2,0,B|204:24|252:72,1,119.999990463257,0|2
372,72,5855,2,0,B|416:28|480:28,2,119.999990463257,0|2|0
352,188,7324,1,2
236,168,7814,6,0,B|176:168|128:216,2,119.999990463257,0|2|0
352,188,9283,1,2
336,308,9773,6,0,B|276:320|212:308,1,119.999990463257,2|2
152,208,10753,2,0,B|212:196|284:208,1,119.999990463257,2|2
360,124,11732,1,4
208,192,15651,6,0,B|208:132|208:132|252:88,1,119.999990463257,0|2
312,192,16630,2,0,B|312:252|312:252|268:296,1,119.999990463257,0|2
224,336,17365,1,0
132,260,17855,6,0,B|148:208|128:148|76:96|76:96|144:88|200:60,1,299.999976158143,0|2
304,28,19569,1,4
408,84,20059,6,0,B|452:128|452:192,1,119.999990463257,2|0
416,304,21038,1,2
300,336,21528,2,0,B|240:336|192:288,1,119.999990463257,0|2
148,248,22263,2,0,B|120:220|96:196|60:176|60:176|60:108,1,179.999985694886,0|2
164,48,23487,5,0
280,72,23977,2,0,B|336:92|336:92|396:72,2,119.999990463257,2|0|2
256,188,25447,5,4
244,308,25936,1,2
124,296,26426,1,4
136,176,26916,1,2
256,192,27406,12,0,28875
256,192,33283,6,0,B|256:132,1,59.9999952316285,2|2
360,192,34018,2,0,B|360:252,1,59.9999952316285,2|2
464,192,34753,2,0,B|464:132,1,59.9999952316285,2|2
168,72,36218,6,0,B|108:72|60:120,1,119.999990463257,4|2
168,176,37197,2,0,B|228:176|276:128,1,119.999990463257,0|2
383,173,38177,2,0,B|323:173|271:125,1,119.999990463257,0|2
276,248,39156,5,0
164,204,39646,1,2
188,88,40136,1,0
300,132,40626,6,0,B|360:132|408:180,1,119.999990463257,2|0
300,236,41605,2,0,B|240:236|192:188,1,119.999990463257,2|4
72,204,42585,5,2
84,324,43075,1,4
204,312,43564,1,2
192,192,44054,6,0,B|192:132|240:84,1,119.999990463257,4|2
360,84,45034,2,0,B|360:144|312:192,1,119.999990463257,0|2
312,312,46013,2,0,B|252:312|204:360,1,119.999990463257,0|2
97,314,46993,2,0,B|157:314|209:362,1,119.999990463257,0|2
204,236,47973,5,0
216,116,48462,1,2
336,128,48952,1,0
324,248,49442,1,2
204,236,49932,5,4
84,248,50422,1,2
96,368,50911,1,4
216,356,51401,1,2
204,236,51891,5,4
