osu file format v9

[General]
AudioFilename: courtney gears.mp3
AudioLeadIn: 2000
PreviewTime: 11733
Countdown: 0
SampleSet: Normal
StackLeniency: 0.7
Mode: 0
LetterboxInBreaks: 0

[Editor]
DistanceSpacing: 1.2
BeatDivisor: 4
GridSize: 4

[Metadata]
Title:Death to Squishes
Artist:Courtney Gears
Creator:RikiH_
Version:Insane
Source:Ratchet & Clank 3
Tags:Sony Playstation Ps2 David Bergeaud Insomniac Games _Gezo_ Gezo

[Difficulty]
HPDrainRate:7
CircleSize:4
OverallDifficulty:7
ApproachRate:8
SliderMultiplier:2.39999990463257
SliderTickRate:2

[Events]
//Background and Video events
0,0,"BG7.jpg"
//Break Periods
2,29075,32533
//Storyboard Layer 0 (Background)
//Storyboard Layer 1 (Fail)
//Storyboard Layer 2 (Pass)
//Storyboard Layer 3 (Foreground)
//Storyboard Sound Samples
//Background Colour Transformations
3,100,163,162,255

[TimingPoints]
3896,489.795918367347,4,1,1,60,1,0
3896,-100,4,1,0,60,0,1
4018,-100,4,1,1,60,0,0
15528,-100,4,1,0,35,0,0
15773,-100,4,1,1,60,0,0
21406,-100,4,1,0,45,0,0
21651,-100,4,1,1,60,0,0
22140,-100,4,1,0,35,0,0
22385,-100,4,1,1,60,0,0
24589,-100,4,1,1,5,0,0
24834,-100,4,1,1,60,0,0
36218,489.795918367347,4,1,1,60,1,0
36218,-100,4,1,1,60,0,1
36340,-100,4,1,1,60,0,0
41973,-100,4,1,0,45,0,0
42218,-100,4,1,1,60,0,0
42952,-100,4,1,0,35,0,0
43197,-100,4,1,1,60,0,0
51769,-100,4,1,0,60,0,0
52013,-100,4,1,1,60,0,0

[Colours]
Combo1 : 0,0,255
Combo2 : 255,0,128
Combo3 : 128,0,255
Combo4 : 255,0,0

[HitObjects]
256,192,467,5,2
256,192,712,1,2
256,192,1936,5,2
112,192,2181,1,2
400,192,2671,1,2
256,192,2916,1,2
216,272,3895,6,0,B|164:248|96:268|96:268|120:208|124:128,1,239.999990463257,4|2
248,120,4630,1,0
392,104,4875,2,0,B|452:104|500:152,1,119.999995231629
500,296,5365,2,0,B|440:296|392:248,1,119.999995231629,2|0
268,180,5855,6,0,B|212:144|212:144|176:164|124:176|64:176|40:164,1,239.999990463257,0|2
84,300,6589,1,0
228,280,6834,1,0
208,136,7079,1,0
64,156,7324,1,2
84,300,7569,1,0
228,280,7814,6,0,B|316:272|316:272|300:192|320:144|368:120,1,239.999990463257,0|2
236,96,8549,1,0
256,240,8793,1,0
400,220,9038,1,0
380,76,9283,1,2
420,360,9773,5,4
132,340,10263,1,2
152,52,10753,1,4
440,72,11242,1,2
420,360,11732,1,4
332,248,11977,6,0,B|288:204|224:204,1,119.999995231629,0|2
80,204,12467,1,0
224,204,12712,2,0,B|268:160|268:96,2,119.999995231629,0|0|2
224,348,13447,1,0
224,204,13691,2,0,B|180:160|116:160,1,119.999995231629
224,64,14181,1,2
368,76,14426,6,0,B|452:76|488:152|452:224|368:224|368:224|368:338,1,359.999985694885,0|2
228,288,15406,1,0
148,180,15651,6,0,B|64:96,1,119.999995231629,4|0
204,132,16140,2,0,B|288:48,1,119.999995231629,2|0
252,188,16630,2,0,B|336:272,1,119.999995231629
196,236,17120,2,0,B|112:320,1,119.999995231629,2|0
196,44,17855,6,0,B|256:64|320:44,1,119.999995231629,0|2
216,152,18344,2,0,B|284:204|252:304|240:320|240:320|328:344|384:344|416:320,1,359.999985694885,0|2
444,212,19324,2,0,B|444:152|396:104,1,119.999995231629,0|4
256,84,19814,5,0
128,152,20059,1,2
256,220,20304,1,0
128,284,20549,2,0,B|172:328|236:328,1,119.999995231629
380,308,21038,1,2
400,164,21283,1,0
304,56,21528,6,0,B|236:28|176:28|124:44|72:72,1,239.999990463257,4|2
196,148,22263,2,0,B|263:148|307:188|315:256|300:312|248:336|187:336|137:306|128:252,1,359.999985694885,4|2
32,140,23242,2,0,B|32:80|80:32,1,119.999995231629,0|4
224,52,23732,5,0
368,32,23977,1,2
388,176,24222,1,0
244,196,24467,2,0,B|183:173|127:214|112:284|168:340|232:336,1,239.999990463257,0|2
244,196,25202,5,0
332,80,25447,2,0,B|376:124|376:252|332:308,1,239.999990463257,4|2
244,196,26181,1,0
152,84,26426,2,0,B|108:128|108:256|152:312,1,239.999990463257,4|2
256,192,27406,12,0,28875
112,192,33283,5,4
112,192,33528,1,2
400,192,34018,1,4
400,192,34263,1,2
112,192,34753,1,4
400,192,34998,1,2
308,296,36218,6,0,B|312:228|380:184|380:184|352:128|336:84,1,239.999990463257,4|2
204,124,36952,1,0
96,220,37197,2,0,B|52:264|52:328,1,119.999995231629
196,328,37687,2,0,B|240:284|240:220,1,119.999995231629,2|0
344,120,38177,6,0,B|300:76|236:76,1,119.999995231629
240,220,38666,2,0,B|284:264|348:264,1,119.999995231629,2|0
452,168,39156,2,0,B|436:100|464:36|464:36|388:36|340:24,2,239.999990463257,0|2|0
432,332,40381,5,0
392,196,40626,1,2
348,332,40871,1,0
308,196,41115,1,0
264,332,41360,1,0
224,196,41605,1,2
180,332,41850,1,0
52,268,42095,6,0,B|52:148|148:52,1,239.999990463257,4|2
436,52,43075,2,0,B|436:172|340:268,1,239.999990463257,4|2
52,268,44054,1,4
236,48,44544,6,0,B|296:48|388:140|388:216,1,239.999990463257,2|0
244,212,45279,2,0,B|184:212|136:164,1,119.999995231629,0|2
212,288,45769,2,0,B|272:288|320:336,1,119.999995231629
452,276,46258,1,0
492,136,46503,1,2
388,36,46748,6,0,B|328:56|264:36,1,119.999995231629
372,140,47238,2,0,B|312:120|248:140,1,119.999995231629,0|2
148,40,47728,2,0,B|168:100|148:164,1,119.999995231629
172,300,48217,5,0
28,280,48462,1,2
48,136,48707,1,0
192,156,48952,2,0,B|252:176|316:156,1,119.999995231629
428,72,49442,1,2
484,356,49932,5,4
28,356,50422,1,2
24,28,50911,1,4
488,28,51401,1,2
256,192,51891,5,4
