osu file format v9

[General]
AudioFilename: courtney gears.mp3
AudioLeadIn: 2000
PreviewTime: 11733
Countdown: 0
SampleSet: Normal
StackLeniency: 0.7
Mode: 0
LetterboxInBreaks: 0

[Editor]
DistanceSpacing: 1
BeatDivisor: 4
GridSize: 4

[Metadata]
Title:Death to Squishes
Artist:Courtney Gears
Creator:RikiH_
Version:Hard
Source:Ratchet & Clank 3
Tags:Sony Playstation Ps2 David Bergeaud Insomniac Games _Gezo_ Gezo

[Difficulty]
HPDrainRate:6
CircleSize:4
OverallDifficulty:6
ApproachRate:7
SliderMultiplier:1.49999990463257
SliderTickRate:1

[Events]
//Background and Video events
0,0,"BG7.jpg"
//Break Periods
2,29075,32383
//Storyboard Layer 0 (Background)
//Storyboard Layer 1 (Fail)
//Storyboard Layer 2 (Pass)
//Storyboard Layer 3 (Foreground)
//Storyboard Sound Samples
//Background Colour Transformations
3,100,163,162,255

[TimingPoints]
3896,489.795918367347,4,1,1,60,1,0
3896,-100,4,1,0,60,0,1
4018,-100,4,1,1,60,0,0
15528,-100,4,1,0,35,0,0
15773,-100,4,1,1,60,0,0
36218,489.795918367347,4,1,1,60,1,0
36218,-100,4,1,0,60,0,1
36340,-100,4,1,1,60,0,0
41973,-100,4,1,0,45,0,0
42462,-100,4,1,1,60,0,0
42952,-100,4,1,0,35,0,0
43442,-100,4,1,1,60,0,0
51769,-100,4,1,0,60,0,0
52013,-100,4,1,1,60,0,0

[Colours]
Combo1 : 0,0,255
Combo2 : 255,0,128
Combo3 : 128,0,255
Combo4 : 255,0,0

[HitObjects]
220,192,467,6,0,B|256:180|296:192,1,74.9999952316285,2|2
256,48,1936,6,0,B|256:124,1,74.9999952316285,2|2
220,236,2671,2,0,B|256:248|296:236,1,74.9999952316285,2|2
448,52,3895,6,0,B|420:80|380:80|380:80|380:116|348:148,1,149.999990463257,4|2
292,196,4630,1,0
240,144,4875,2,0,B|212:116|172:116,1,74.9999952316285
105,161,5365,2,0,B|136:192|172:192,1,74.9999952316285,2|0
56,216,5855,6,0,B|56:252|88:284|88:284|88:320|120:352,1,149.999990463257,0|2
164,288,6589,2,0,B|192:260|232:260,2,74.9999952316285
164,288,7324,1,2
224,336,7569,1,0
296,320,7814,6,0,B|324:292|364:292|364:292|364:256|396:224,1,149.999990463257,0|2
440,284,8549,2,0,B|468:312|468:352,2,74.9999952316285
440,284,9283,1,2
480,200,9773,6,0,B|480:124|420:64,1,149.999990463257,4|2
356,200,10753,2,0,B|356:276|416:336,1,149.999990463257,4|2
480,200,11732,1,4
432,144,11977,6,0,B|460:116|460:76,2,74.9999952316285,0|2|0
384,84,12712,2,0,B|332:32|332:32|304:60|264:60,1,149.999990463257,0|2
188,60,13447,2,0,B|152:60|120:92,2,74.9999952316285
168,160,14181,1,2
72,144,14426,6,0,B|80:156|80:156|64:156|64:156|80:172|80:172|64:172|64:172|80:188|80:188|64:188|64:188|80:204|80:204|64:204|64:204|80:220|80:220|64:220|64:220|80:236|80:236|64:256,1,224.999985694886,0|2
48,324,15406,1,0
124,304,15651,6,0,B|176:252,1,74.9999952316285,4|0
285,250,16140,2,0,B|232:304,1,74.9999952316285,2|0
336,304,16630,2,0,B|388:252,1,74.9999952316285
493,250,17120,2,0,B|440:304,1,74.9999952316285,2|0
256,192,17610,12,2,19079
364,92,19569,5,4
364,92,19814,2,0,B|440:92,2,74.9999952316285,0|2|0
292,92,20549,2,0,B|256:80|216:92,1,74.9999952316285
144,92,21038,2,0,B|180:80|220:92,1,74.9999952316285,2|0
256,156,21528,6,0,B|256:232|256:232|284:204|324:232,1,149.999990463257,0|2
368,172,22263,2,0,B|404:172|464:232|464:232|412:284|368:284,1,224.999985694886,0|2
296,284,23242,2,0,B|260:296|220:284,1,74.9999952316285
182,215,23732,6,0,B|220:204|256:216,1,74.9999952316285,0|2
148,280,24222,1,0
76,252,24467,2,0,B|48:224|8:224|8:224|8:148,1,149.999990463257,0|2
80,164,25202,1,0
144,124,25447,6,0,B|220:112|300:124,1,149.999990463257,4|2
424,200,26426,2,0,B|348:212|268:200,1,149.999990463257,4|2
256,192,27406,12,0,28875
256,268,33283,6,0,B|256:192,1,74.9999952316285,2|2
152,84,34018,2,0,B|144:120|144:120|152:156,1,74.9999952316285,2|2
359,157,34753,2,0,B|368:120|368:120|360:84,1,74.9999952316285,2|2
76,192,36218,6,0,B|152:192|152:192|180:164|220:164,1,149.999990463257,4|2
216,240,36952,1,0
216,316,37197,2,0,B|252:316|284:280,1,74.9999952316285
356,284,37687,2,0,B|352:240|316:216,1,74.9999952316285,2|0
320,144,38177,2,0,B|276:148|252:188,1,74.9999952316285
184,176,38666,2,0,B|180:228|241:256,1,74.9999952316285,2|0
260,296,39156,2,0,B|312:348|312:348|352:348|380:320,2,149.999990463257,0|2|0
220,232,40381,6,0,B|168:180,2,74.9999952316285,0|2|0
296,232,41115,2,0,B|348:180,2,74.9999952316285,0|0|2
256,296,41850,1,0
192,336,42095,6,0,B|116:348|36:336,1,149.999990463257,4|2
44,188,43075,2,0,B|120:176|200:188,1,149.999990463257,4|2
304,268,44054,1,4
432,192,44544,6,0,B|432:116|432:116|392:116|364:88,1,149.999990463257,2|0
288,88,45279,2,0,B|236:140,1,74.9999952316285,0|2
182,88,45769,2,0,B|234:140,1,74.9999952316285
288,194,46258,2,0,B|236:142,1,74.9999952316285,0|2
184,192,46748,1,0
108,192,46993,2,0,B|56:244|56:244|84:272|84:312,1,149.999990463257,0|2
160,312,47728,2,0,B|196:324|240:312,1,74.9999952316285
308,308,48217,6,0,B|360:360,2,74.9999952316285,0|2|0
308,232,48952,2,0,B|360:180,2,74.9999952316285,0|0|2
160,248,49932,5,4
112,104,50422,1,2
240,24,50911,1,4
368,104,51401,1,2
320,248,51891,5,4
