osu file format v5

[General]
AudioFilename: 12 Couting Crows - Accidentally in Love.mp3
AudioLeadIn: 0
PreviewTime: -1
Countdown: 0
SampleSet: Normal

[Metadata]
Title:Accidentally in Love
Artist:Counting Crows
Creator:Dark Deception
Version:Easy

[Difficulty]
HPDrainRate:2
CircleSize:1
OverallDifficulty:0
SliderMultiplier:2.6
SliderTickRate:2

[Events]
//Background and Video events
0,0,"Caught_by_surprise__SMOOCH_by_OrionStorm.jpg"
//Break Periods
2,28596,33552
2,56200,64845
2,120769,129639
//Storyboard Layer 0 (Background)
//Storyboard Layer 1 (Failing)
//Storyboard Layer 2 (Passing)
//Storyboard Layer 3 (Foreground)
//Storyboard Sound Samples
//Background Colour Transformations
3,100,163,162,255

[TimingPoints]
715,868.935553946416,4,1,0,100

[Colours]
Combo1 : 255,141,28
Combo2 : 0,248,37

[HitObjects]
96,192,17224,1,0
384,192,18962,1,0
256,32,20591,5,0
256,128,21460,1,0
256,224,22329,1,0
256,320,23198,1,2
96,192,24936,5,0
416,192,26674,1,0
256,192,28412,1,0
64,64,35363,5,0
192,160,37101,1,0
384,160,38839,1,0
448,64,40577,1,0
96,96,42315,5,0
384,96,44053,1,0
384,320,45791,5,0
96,320,47528,1,0
96,96,49266,5,0
256,96,51004,5,0
256,224,51873,1,0
352,320,52742,2,0,B|352:320|416:288|448:256|480:224|480:160|480:128|480:64|448:32|384:0|320:0|224:0|160:0|128:0|64:32|32:64|32:96|32:128|32:224|64:256|96:288|128:288|160:320|192:320,1,975
64,64,66645,5,0
416,96,68383,5,0
32,96,70121,6,0,C|192:224|352:224|480:96,1,520
64,64,73596,5,0
256,64,74465,1,0
448,64,75334,2,0,B|448:160|416:224|384:288|253:315|192:288|96:224|64:192|32:128|32:96|32:32,1,650
192,128,78919,5,0
320,128,80548,1,0
128,224,82286,5,0
256,288,83155,1,0
384,224,84024,1,0
256,192,85762,12,0,89238
256,192,90541,1,0
64,64,92713,5,0
416,64,94451,1,0
416,320,96189,5,0
64,320,97927,1,0
64,64,99665,5,0
256,64,101402,5,0
256,192,102380,1,0
256,352,103249,2,0,C|352:224|394:55|286:102|253:159|207:104|118:51|160:224|256:352,1,1040
224,224,108354,1,0
128,96,110526,5,0
384,96,111721,1,0
384,320,113676,5,0
96,320,115414,1,0
192,256,116283,1,0
256,352,117152,2,0,C|320:320|384:256|416:160|384:64|320:64|256:128|192:64|128:64|96:160|128:256|192:320|256:352,1,1040
96,192,131489,6,0,L|192:288,2,130
160,160,133227,6,0,L|256:256,2,130
224,128,134965,6,0,L|320:224,2,130
160,128,136703,6,0,L|96:128|160:64,1,130
160,64,138441,6,0,C|320:64,2,130
160,128,140179,2,0,C|320:128,2,130
160,192,141917,6,0,C|320:192,2,130
160,256,143654,2,0,C|320:256,2,130
256,384,145392,6,0,C|480:192|480:96|448:32|352:32|288:96|256:192|192:96|128:32|32:32|0:96|0:192|256:384,1,1560
64,128,151909,6,0,B|128:64|224:64|416:64|512:128|512:192|416:224|224:224|128:224|32:192,2,780
448,256,158861,6,0,B|384:320|288:320|96:320|0:256|0:192|96:160|288:160|384:160|480:224,2,780
96,64,165812,5,0
384,64,167550,1,0
384,320,169397,5,0
96,320,170809,1,0
96,64,172764,5,0
384,64,174502,1,0
256,192,175371,1,0
256,192,176239,12,0,180476
