osu file format v9

[General]
AudioFilename: Coti ft. Paulina Rubio & Julieta Venegas.mp3
AudioLeadIn: 0
PreviewTime: 137882
Countdown: 0
SampleSet: Soft
StackLeniency: 0.7
Mode: 0
LetterboxInBreaks: 1

[Editor]
Bookmarks: 17762,31205,31635,45508,45947,58955,59381,73254,73696,87126,87571,100999,111418,128328,128745,142650,143070,156294,156526,169952,170402,184278,184693,198135
DistanceSpacing: 0.8
BeatDivisor: 4
GridSize: 4

[Metadata]
Title:Nada Fue Un Error
Artist:Coti ft. Paulina Rubio & Julieta Venegas
Creator:Gonzvlo
Version:Collab
Source:
Tags:

[Difficulty]
HPDrainRate:7
CircleSize:4
OverallDifficulty:7
ApproachRate:8
SliderMultiplier:2.1
SliderTickRate:1

[Events]
//Background and Video events
0,0,"BG.jpg"
//Break Periods
2,101218,110675
2,142846,155772
//Storyboard Layer 0 (Background)
//Storyboard Layer 1 (Fail)
//Storyboard Layer 2 (Pass)
//Storyboard Layer 3 (Foreground)
//Storyboard Sound Samples
//Background Colour Transformations
3,100,163,162,255

[TimingPoints]
3888,433.6200043362,4,2,1,90,1,0
45516,-100,4,2,1,100,0,1
59392,-100,4,2,1,90,0,0
87144,-100,4,2,1,100,0,1
101020,-100,4,2,1,90,0,0
142648,-100,4,2,1,100,0,1
156524,-100,4,2,1,90,0,0
184276,-100,4,2,1,100,0,1
197230,-76.9230769230769,4,2,1,100,0,1
197935,-100,4,2,1,100,0,1
198152,-100,4,2,1,90,0,0

[Colours]
Combo1 : 255,166,32
Combo2 : 153,255,51
Combo3 : 0,97,193
Combo4 : 255,40,46

[HitObjects]
16,24,16896,1,8
16,68,17113,1,0
16,112,17330,1,8
12,248,17763,6,4,B|-1:327|88:379|152:328,1,210,4|8
97,260,18414,1,0
172,225,18631,2,0,B|159:190|125:170|88:177,1,105
36,109,19064,2,0,B|87:83|138:99,1,105,8|2
216,144,19498,2,0,B|254:179|258:237,2,105,0|0|8
348,16,20365,1,0
432,4,20582,1,2
472,80,20799,1,8
500,248,21232,6,4,B|513:327|423:379|360:328,1,210,4|8
415,260,21883,1,0
340,225,22100,2,0,B|352:190|386:170|423:177,1,105,0|0
476,109,22533,2,0,B|424:83|373:99,1,105,0|2
296,144,22967,2,0,B|257:179|253:237,2,105,0|0|8
164,16,23834,1,0
80,4,24051,1,2
40,80,24268,1,8
156,240,24701,6,0,B|204:256|248:232|256:224|256:224|264:232|308:256|356:240,2,210,4|8|0
196,164,25785,2,0,B|176:128|176:128|164:92|184:64,1,105,0|8
256,24,26219,1,2
329,66,26436,2,0,B|348:92|336:128|336:128|316:164,1,105,0|0
256,224,26869,1,8
312,288,27086,2,0,B|416:288,1,105,0|2
200,288,27520,2,0,B|96:288,1,105,0|10
76,72,28170,6,0,B|116:-8|240:0|176:120|260:68|344:120|280:0|404:-8|444:72,1,420,4|0
356,128,29254,2,0,B|296:168|216:168|156:128,1,210,0|2
176,224,29905,2,0,B|224:240|288:240|336:224,2,157.5,0|2|0
124,156,30772,1,0
388,156,31206,1,8
256,260,31639,6,0,B|182:317|57:317,1,210,4|2
256,260,32506,2,0,B|330:317|460:317,1,210,0|2
454,148,33374,1,0
407,105,33590,1,0
353,71,33807,1,2
159,71,34241,1,0
105,105,34458,1,0
58,148,34675,1,2
157,283,35108,6,0,B|205:299|249:275|257:267|257:267|265:275|309:299|357:283,2,210,4|8|0
95,127,36409,1,2
218,240,36843,2,0,B|183:140,2,105
254,317,37493,1,2
292,242,37710,2,0,B|327:142,2,105
254,317,38360,1,2
219,240,38577,6,0,B|131:176|131:48,1,210,4|0
215,57,39228,1,0
256,130,39444,1,0
299,57,39661,1,2
380,57,39878,2,0,B|381:176|293:240,1,210,0|0
254,314,40528,1,0
222,239,40745,1,2
193,73,41179,1,0
254,126,41396,1,0
320,74,41612,1,2
438,192,42046,6,0,B|381:263|250:295,1,210,4|0
258,208,42696,1,2
258,292,42913,2,0,B|134:261|77:190,1,210,0|0
78,191,43564,1,0
78,191,43781,1,2
256,48,44214,1,0
434,191,44648,1,2
256,256,45081,1,0
188,204,45298,1,2
184,292,45515,6,0,B|145:326|145:326|107:338|63:314|43:267|59:231,1,210,4|8
40,148,46165,1,0
116,112,46382,2,0,B|96:60|116:8,1,105,0|2
256,88,46816,2,0,B|276:140|256:192,1,105,8|2
328,292,47250,6,0,B|367:326|367:326|405:338|449:314|469:267|453:231,1,210,4|8
472,148,47900,1,0
412,88,48117,1,2
332,112,48334,2,0,B|280:104|256:47|256:47|232:104|180:112,1,210,2|2
100,88,48984,1,0
40,148,49201,1,0
59,230,49418,2,0,B|43:267|63:314|107:338|145:326|145:326|184:292,1,210,8|0
256,48,50285,5,2
180,144,50502,1,2
332,144,50718,2,0,B|388:152|412:220|388:288|332:296,1,210,2|10
180,144,51586,2,0,B|124:152|100:220|124:288|180:296,1,210,2|10
256,256,52236,5,2
256,256,52453,2,0,B|256:48,2,210,4|8|0
328,300,53537,2,0,B|328:196,1,105,0|8
184,195,53971,2,0,B|184:300,1,105,2|4
24,128,54621,6,0,B|64:92|64:92|92:124|132:136|172:124|200:92,1,210,8|2
132,44,55271,1,2
488,128,55705,2,0,B|448:92|448:92|420:124|380:136|340:124|312:92,1,210,2|2
380,44,56356,1,2
332,304,56789,2,0,B|324:248|256:224|188:248|180:304,1,210,2|8
256,344,57440,1,0
256,344,57656,6,0,B|256:128,1,210,4|8
256,48,58307,1,0
344,63,58524,2,0,B|336:168,1,105
176,168,58957,2,0,B|168:64,1,105,8|0
72,120,59391,5,4
72,120,59824,2,0,B|80:224,1,105,8|0
152,272,60258,2,0,B|244:220|356:248,1,210,2|8
440,264,60909,2,0,B|432:160,1,105,0|2
424,76,61342,1,0
360,20,61559,6,0,B|300:16|252:64|264:132|312:164,1,210,8|2
388,204,62209,1,0
260,360,62535,1,0
124,204,62860,1,4
152,20,63293,6,0,B|212:16|260:64|248:132|200:164,2,210,8|2|8
72,44,64377,1,0
16,108,64594,5,0
0,192,64811,1,0
16,276,65028,1,8
84,328,65245,1,0
168,336,65462,2,0,B|240:336|256:288|272:240|344:240,1,210,2|8
344,336,66329,6,0,B|271:335|255:287|239:239|167:239,1,210,2|0
92,276,66979,2,0,B|56:236|44:184,1,105,0|0
112,140,67413,2,0,B|120:84|92:40,1,105,0|8
176,40,67846,2,0,B|228:56|256:104|256:104|284:56|336:40,1,210,0|0
420,39,68497,2,0,B|392:84|400:140,1,105,8|0
408,224,68931,5,2
104,224,69364,1,8
328,252,69798,2,0,B|264:252|208:280|176:328|200:392|256:416|312:392|336:328|304:280|248:252|184:252,1,420
104,336,70882,5,2
0,196,71207,1,0
148,108,71532,1,2
256,276,71857,1,0
364,108,72183,1,0
364,224,72399,5,2
256,56,72725,1,8
148,224,73050,1,0
256,164,73267,5,4
360,304,73700,1,8
360,304,73917,1,0
416,248,74134,2,0,B|480:248|464:168,1,105
384,160,74567,2,0,B|320:160|336:240,1,105,8|0
440,104,75218,1,0
232,72,75868,1,0
152,96,76085,1,0
116,176,76302,1,8
256,288,76736,6,0,B|312:288|312:288|360:216,1,105
344,160,77169,2,0,B|416:152|416:152|448:224,1,105,8|0
440,264,77603,2,0,B|472:312|472:312|440:348,3,105,0|0|8|0
364,328,78470,1,0
176,312,78904,2,0,B|136:336|104:320|104:320|144:288|144:288|96:272|96:272|120:208,1,210,8|0
136,160,79554,5,0
264,48,79988,1,0
352,48,80205,1,0
448,184,80638,2,0,B|416:144|416:144|408:208|408:208|376:144|376:144|352:176,1,210,8|0
244,224,81505,5,0
157,222,81722,1,0
194,298,81939,1,0
224,88,82373,1,8
392,72,82806,6,0,B|464:96|440:160,1,105
432,232,83240,2,0,B|472:296|472:296|408:336,1,105,8|0
320,304,83674,1,0
256,152,84107,1,8
152,288,84541,1,0
160,120,84974,6,0,B|192:64|240:48,1,105,8|0
320,32,85408,1,0
448,144,85842,1,8
376,296,86275,1,0
208,288,86709,1,8
136,248,86926,1,0
68,204,87143,5,4
164,80,87576,1,10
256,104,87793,1,0
348,80,88010,1,2
176,240,88227,1,0
256,188,88443,1,10
336,240,88660,1,0
256,314,88877,6,0,B|256:104,2,210,6|10|2
344,352,89961,2,0,B|344:232,1,105,0|8
168,144,90395,2,0,B|168:264,1,105,0|4
344,137,90828,2,0,B|344:32,1,105,0|8
256,0,91262,5,0
256,0,91479,2,0,B|220:52|256:104|296:148|252:208,1,210,2|8
256,296,92129,1,0
164,280,92346,6,0,B|100:288|68:232,1,105,4|0
150,44,92780,2,0,B|213:36|240:84,1,105,8|0
348,279,93213,2,0,B|412:288|438:239,1,105,2|0
361,44,93647,2,8,B|298:36|271:84,1,105,8|0
256,192,94080,5,6
104,304,94514,1,8
44,232,94731,2,0,B|20:184|20:184|44:136,1,105,0|2
301,53,95165,2,0,B|256:76|256:76|208:52,1,105,0|8
468,232,95598,2,0,B|492:184|492:184|469:138,1,105,0|6
384,184,96032,5,0
352,272,96249,2,0,B|300:368,1,105,8|0
208,364,96682,2,0,B|157:271,1,105,2|0
208,200,97116,2,0,B|256:296|256:296|296:200,1,210,8|6
256,108,97766,5,0
204,16,97983,2,0,B|312:16,1,105,8|0
364,108,98417,2,0,B|380:164|364:216,1,105,2|0
146,211,98850,2,0,B|132:164|148:108,1,105,8|0
256,268,99284,5,4
344,304,99501,5,0
364,296,99609,1,0
384,288,99718,1,8
256,268,99934,5,0
256,248,100043,1,0
256,228,100151,1,2
168,304,100368,5,0
148,296,100476,1,0
128,288,100585,1,8
108,280,100693,1,0
88,272,100802,1,8
68,264,100910,1,0
48,256,101018,1,6
256,192,111425,5,4
256,24,111859,1,10
256,24,112076,1,0
152,156,112509,5,2
120,232,112726,1,8
360,156,113160,1,2
392,232,113377,1,0
256,284,113593,6,0,B|256:336,2,52.5,10|0|0
256,200,114027,1,0
256,116,114244,2,0,B|256:64,2,52.5,0|0|10
256,116,114677,1,0
256,200,114894,6,0,B|184:224|108:168|112:92,1,210,4|8
36,56,115545,1,0
36,140,115761,2,0,B|36:248,1,105
36,328,116195,2,0,B|80:384|176:384|224:328,1,210,8|0
172,264,116846,1,0
172,264,117062,1,8
172,96,117496,2,0,B|172:44,2,52.5,2|0|0
172,180,117930,1,8
256,200,118146,1,0
256,200,118363,6,0,B|328:224|404:168|400:92,1,210,4|8
476,56,119014,1,0
476,140,119230,2,0,B|476:248,1,105
476,328,119664,2,0,B|432:384|336:384|288:328,1,210,8|0
340,264,120314,1,0
340,264,120531,1,8
340,96,120965,2,0,B|340:44,2,52.5,2|0|0
340,180,121399,1,8
256,200,121615,1,0
256,200,121832,5,4
224,124,122049,2,0,B|172:152|176:216,1,105,0|8
104,168,122483,1,0
56,236,122699,2,0,B|-14:288|60:389|140:320,1,210,0|8
204,268,123350,1,0
224,348,123567,1,0
380,284,124000,1,8
380,284,124217,6,0,B|472:340,1,105,0|2
380,100,124651,2,0,B|472:44,1,105,0|2
256,200,125301,5,4
288,124,125518,2,0,B|340:152|336:216,1,105,0|8
408,168,125952,1,0
456,236,126168,2,0,B|526:288|451:389|372:320,1,210,0|8
308,268,126819,1,0
288,348,127036,5,2
172,296,127361,1,2
132,176,127686,1,2
216,176,127903,1,2
48,176,128336,1,8
6,249,128553,5,0
6,249,128770,2,0,B|15:318|95:316,1,105,4|0
157,380,129204,2,0,B|213:319|174:228|97:222,1,210,8|2
73,120,129854,1,0
174,90,130071,1,8
277,102,130288,1,0
347,180,130505,6,0,B|427:221|502:161|479:80,1,210,2|8
406,10,131155,1,0
301,1,131372,1,2
215,61,131589,1,0
194,164,131805,2,0,B|197:251|132:291|47:258,3,210,8|6|8|2
96,356,133323,5,2
297,295,133757,1,2
388,348,133974,2,0,B|468:372|528:296|480:220,1,210,2|8
380,179,134624,1,0
279,209,134841,1,2
192,149,135058,1,0
162,48,135274,6,0,B|99:35|53:73,1,105,8|0
10,158,135708,2,0,B|2:230|14:299|61:368,2,210,6|8|2
92,92,136792,1,0
196,98,137009,1,8
244,190,137226,2,0,B|212:272|304:332|368:268,2,210,2|2|0
337,140,138310,5,2
431,185,138527,1,0
455,287,138743,1,8
378,359,138960,1,0
273,347,139177,2,0,B|276:260|172:236|128:308,1,210,2|8
128,308,140044,1,0
128,308,140478,5,10
92,145,140695,1,0
212,44,140911,1,2
436,265,141345,1,10
128,308,141779,5,8
92,145,141995,1,0
213,44,142212,1,8
369,61,142429,1,0
212,44,142646,1,12
200,56,156522,6,0,B|244:56|244:56|276:56|304:52|336:24|336:24|372:84,1,210,4|8
404,156,157172,1,2
436,232,157389,2,0,B|362:231|363:296|365:361|291:360,1,210,0|8
274,278,158039,2,0,B|339:248|364:308|389:368|456:337,1,210,0|2
436,232,158690,2,0,B|472:176|456:136|456:136|400:120,1,157.5,8|8
388,96,159123,2,0,B|356:144|296:124,1,105
176,80,159557,2,0,B|208:32|268:52,1,105,8|0
204,152,159991,6,0,B|212:212|160:256|84:244|64:192,1,210,0|8
40,112,160641,1,2
40,112,160858,2,8,B|104:320,1,210,0|8
36,364,161508,2,0,B|104:276|228:312,1,210,0|2
308,332,162159,1,8
388,352,162376,1,0
400,344,162484,1,2
412,336,162592,2,0,B|420:304|420:304|448:288|448:288|456:248,1,105,0|2
432,112,163026,2,0,B|424:144|424:144|396:160|396:160|388:200,1,105,8|0
320,248,163460,6,0,B|284:256|256:292|256:292|228:256|192:248,1,157.5,0|2
152,264,163893,2,0,B|176:208|132:168,1,105,8|0
256,176,164327,1,0
379,168,164544,2,0,B|336:208|360:264,1,105,0|8
360,352,164977,2,0,B|304:368|272:336|256:344|240:336|208:368|152:352,1,210,2|0
208,164,165845,1,0
160,80,166061,1,8
304,164,166278,1,0
352,80,166494,1,8
256,32,166712,1,0
256,44,166820,1,8
256,56,166929,1,0
256,152,167145,1,0
180,212,167362,6,0,B|188:268|256:296|324:268|332:212,1,210,8|0
404,152,168013,2,0,B|388:84|324:84|324:84|324:40,1,157.5,0|2
188,40,168663,2,0,B|188:83|188:83|124:83|108:151,1,157.5,0|2
92,184,169097,2,0,B|144:192|144:192|184:240,1,105,8|0
420,184,169530,2,0,B|368:192|368:192|328:240,1,105,8|0
256,264,169964,6,0,B|256:156,1,105,8|0
256,40,170398,5,4
184,96,170614,2,0,B|184:144|256:200|328:144|328:96,1,210,2|0
256,40,171265,2,0,B|256:252,1,210,2|2
208,328,171915,1,2
256,344,172024,1,0
304,328,172132,1,2
352,248,172349,2,0,B|436:248|436:112|344:112,1,210,0|2
256,128,172999,1,2
256,344,173216,5,2
256,128,173433,1,0
256,128,173650,1,2
165,112,173867,2,0,B|76:112|76:248|160:248,2,210,4|4|2
256,128,174951,1,2
288,40,175167,1,2
344,112,175384,2,0,B|368:192|256:288|144:192|168:112,2,315,0|4|0
208,56,176902,6,8,B|208:40|168:0|128:40|128:56,1,105,0|10
304,56,177336,2,8,B|304:40|344:0|384:40|384:56,1,105,2|8
208,224,177769,1,2
168,200,177878,1,0
128,176,177986,1,2
304,224,178203,1,2
344,200,178311,1,0
384,176,178420,1,2
256,304,178636,5,0
208,224,178853,1,0
304,224,179070,1,0
256,144,179287,1,0
184,88,179504,2,2,B|184:40|256:-16|328:40|328:88,2,210,4|2|2
256,144,180588,1,0
256,192,180696,1,0
256,240,180804,1,4
160,40,181238,5,2
256,144,181455,1,2
352,40,181672,1,2
256,192,181889,12,4,184273
156,328,184707,6,0,B|208:336|256:360|256:360|304:336|356:328,1,210,8|0
412,264,185357,1,2
496,276,185574,2,4,B|509:197|420:145|356:196,1,210,8|8
156,196,186442,2,4,B|92:145|3:197|16:276,1,210,8|8
100,264,187092,1,0
180,280,187309,2,0,B|180:312|180:312|180:352|212:376,1,105,8|2
332,280,187742,2,0,B|332:312|332:312|332:352|300:376,1,105,0|2
256,312,188176,6,0,B|256:268|256:268|272:232|272:232|236:212|236:212|256:172|256:172|256:128|256:128,1,210,8|0
256,48,188826,1,2
340,31,189043,2,0,B|432:80,1,105,8|2
357,135,189477,2,0,B|448:188,1,105,0|2
352,240,189910,2,0,B|448:296,1,105,8|2
348,360,190344,2,0,B|256:308|256:308|164:360,1,210,0|8
172,31,191211,6,0,B|80:80,1,105,0|2
154,135,191645,2,0,B|64:188,1,105,8|2
160,240,192079,2,0,B|64:296,1,105,0|2
164,360,192512,2,0,B|256:308|256:308|348:360,1,210,8|0
396,284,193163,6,0,B|336:256|336:256|312:228,1,105,0|8
116,284,193596,2,0,B|176:256|176:256|201:226,1,105,2|0
256,164,194030,1,0
304,96,194247,2,0,B|284:80|256:72|228:80|208:96,1,105,0|2
208,228,194680,6,0,B|228:244|256:252|284:244|304:228,1,105
352,295,195114,2,0,B|312:332|256:344|200:332|160:296,1,210
124,220,195764,1,0
172,152,195981,6,0,B|172:116|172:116|172:80|192:52,1,105,8|2
340,152,196415,2,0,B|340:116|340:116|340:80|320:52,1,105,0|2
256,84,196848,1,8
256,84,197282,2,0,C|256:96|256:96|252:108|252:116|260:132|260:140|252:156|252:164|260:180|260:188|252:204|252:212|260:228|260:236|252:252|252:260|260:276|260:284|252:300|252:308|256:316|256:316|256:332,1,272.99999511838,2|12
256,192,198149,12,4,202160
