osu file format v9

[General]
AudioFilename: Cosmic Break - Eihwaz Vocal(1).mp3
AudioLeadIn: 0
PreviewTime: -1
Countdown: 1
SampleSet: Normal
StackLeniency: 0.7
Mode: 0
LetterboxInBreaks: 1

[Editor]
DistanceSpacing: 0.8
BeatDivisor: 6
GridSize: 32

[Metadata]
Title:Eihwaz
Artist:Cosmic Break
Creator:CARNAXHACKER789
Version:Normal
Source:
Tags:

[Difficulty]
HPDrainRate:5
CircleSize:5
OverallDifficulty:5
ApproachRate:5
SliderMultiplier:1.4
SliderTickRate:1

[Events]
//Background and Video events
0,0,"Lily Rain EVE.png"
//Break Periods
2,39314,43914
2,49847,54447
2,85781,125047
2,155647,160647
2,180381,188514
2,189914,195647
2,228847,236781
//Storyboard Layer 0 (Background)
//Storyboard Layer 1 (Fail)
//Storyboard Layer 2 (Pass)
//Storyboard Layer 3 (Foreground)
//Storyboard Sound Samples
//Background Colour Transformations
3,100,163,162,255

[TimingPoints]
4581,400,4,1,0,100,1,0

[HitObjects]
236,181,20914,1,0
257,197,25314,5,0
256,193,29781,5,0
256,193,34514,5,0
256,193,39114,5,0
50,189,45114,6,0,B|487:203|446:191,4,396.666666666667
136,145,55647,5,0
136,145,56047,1,0
136,145,56514,1,0
136,145,56781,1,0
330,171,58314,1,0
245,189,58914,1,0
251,124,59514,1,0
338,147,60114,1,0
273,203,60714,1,0
273,203,60981,1,0
273,203,61247,1,0
204,175,61781,1,0
306,123,62447,1,0
323,216,62981,1,0
228,217,63581,1,0
240,122,64114,1,0
347,134,64781,1,0
334,221,65314,1,0
227,219,65981,1,0
164,167,66581,1,0
317,122,67181,1,0
390,136,67714,1,0
291,221,68381,1,0
184,177,68981,1,0
237,149,69514,1,0
334,117,70114,1,0
334,117,70381,1,0
334,117,70714,1,0
223,186,71381,5,0
172,203,71847,1,0
257,264,72447,1,0
299,157,72981,1,0
222,113,73647,1,0
192,186,74247,1,0
273,222,74514,1,0
273,222,74981,1,0
273,222,75447,1,0
273,222,75714,1,0
256,192,79314,12,0,85581
67,50,126247,5,8
247,62,126647,1,8
349,55,127047,1,8
401,132,127381,1,8
257,210,127914,1,8
246,118,128914,1,8
246,118,129447,1,8
363,179,130114,1,8
259,248,130714,1,8
164,182,131247,1,8
259,100,131581,1,8
388,92,131847,1,8
333,217,132381,1,8
219,204,133047,1,8
196,101,133581,1,8
355,127,134114,1,8
307,217,134781,1,8
192,220,135381,1,8
249,156,135647,1,8
340,121,136114,1,8
399,206,136581,1,8
309,244,136847,1,8
185,152,137381,1,8
310,92,138047,1,8
240,177,138914,1,8
318,217,139514,1,8
213,267,140047,1,8
301,127,140714,1,8
400,161,141047,1,8
394,236,141314,1,8
167,232,141847,1,8
179,96,142447,1,8
360,103,142981,1,8
343,219,143581,1,8
224,217,144114,1,8
217,96,144714,1,8
366,109,145181,1,8
441,216,145647,1,8
311,254,146047,1,8
202,212,146314,1,8
299,120,147714,5,8
164,171,148314,1,8
227,239,148914,1,8
349,220,149581,1,8
321,89,150114,1,8
197,129,150647,1,8
206,206,151181,1,8
287,139,152114,1,8
287,139,152447,1,8
287,139,152781,1,8
287,139,153047,1,8
287,139,153381,1,8
287,139,153647,1,8
287,139,153914,1,8
287,139,154181,1,8
287,139,154514,1,8
287,139,155047,1,8
287,139,155447,1,8
324,150,161847,6,4,B|234:197|70:93,8,256.666666666667
219,163,171247,1,4
304,222,171847,1,4
215,251,172447,1,4
271,154,173047,1,4
359,218,173647,1,4
281,241,173914,1,4
182,264,174247,1,4
146,123,174847,1,4
244,143,175447,1,4
309,226,175981,1,4
184,267,176647,1,4
235,171,177181,1,4
235,171,177714,1,4
358,227,178114,1,4
304,294,178514,1,4
198,272,178847,1,4
303,162,179314,1,4
376,164,179647,1,4
271,48,180181,1,4
258,193,189714,5,8
75,54,196847,5,8
246,54,197247,1,8
374,67,197714,1,8
374,192,197981,1,8
189,238,198447,1,8
124,174,198847,1,8
231,126,199114,1,8
252,177,200714,1,8
309,176,201247,1,8
328,265,201847,1,8
99,251,202447,1,8
219,92,203047,1,8
368,119,203314,1,8
379,251,203647,1,8
161,269,204181,1,8
101,137,204781,1,8
277,103,205381,1,8
333,218,205914,1,8
199,232,206514,1,8
264,149,207447,5,8
199,232,207914,1,8
323,289,208314,1,8
378,184,208647,1,8
334,116,209181,1,8
224,171,210047,5,8
308,264,210647,1,8
268,136,211781,1,8
174,199,212447,1,8
188,263,212781,1,8
349,299,213047,1,8
373,157,213581,1,8
269,104,214181,1,8
189,185,214714,1,8
299,254,215314,1,8
423,170,215914,1,8
309,120,216514,1,8
260,199,216847,1,8
376,324,217314,1,8
249,323,217714,1,8
152,298,218047,1,8
187,147,218581,1,8
310,132,219181,1,8
256,197,223047,5,8
191,193,223714,1,8
224,95,224247,1,8
349,136,224847,1,8
291,217,225381,1,8
192,226,225981,1,8
212,150,226247,1,8
212,150,226781,1,8
212,150,227247,1,8
376,164,228647,1,8
259,193,237981,5,4
256,192,241181,12,4,252314
