osu file format v12

[General]
AudioFilename: 04 Drop.mp3
AudioLeadIn: 0
PreviewTime: 65251
Countdown: 1
SampleSet: Normal
StackLeniency: 0.2
Mode: 1
LetterboxInBreaks: 1

[Editor]
Bookmarks: 10126,17876
DistanceSpacing: 0.8
BeatDivisor: 4
GridSize: 4

[Metadata]
Title:Drop
TitleUnicode:Drop
Artist:Cornelius
ArtistUnicode:小山田圭吾
Creator:SuperMoutarde
Version:Taikin Oni
Source:Point (2001)
Tags:keigo oyamada water bubble shibuya-kei alternative experimental indie 渋谷系 kin
BeatmapID:224494
BeatmapSetID:78004

[Difficulty]
HPDrainRate:6
CircleSize:2
OverallDifficulty:6
ApproachRate:0
SliderMultiplier:1.4
SliderTickRate:1

[Events]
//Background and Video events
0,0,"bubbles-water.jpg",0,0
//Break Periods
2,171076,173326
2,192076,193326
//Storyboard Layer 0 (Background)
//Storyboard Layer 1 (Fail)
//Storyboard Layer 2 (Pass)
//Storyboard Layer 3 (Foreground)
//Storyboard Sound Samples
//Background Colour Transformations
3,100,163,162,255

[TimingPoints]
2126,500,4,1,0,70,1,0
65876,-100,4,1,0,70,0,1
80876,-100,4,1,0,70,0,0
113876,-100,4,1,0,70,0,1
128876,-100,4,1,0,70,0,0
145376,-114.942528735632,4,1,0,70,0,0
146126,-133.333333333333,4,1,0,70,0,0
148376,-114.942528735632,4,1,0,70,0,0
150626,-100,4,1,0,70,0,0
215876,-100,4,1,0,70,0,1
255876,-100,4,1,0,70,0,0

[Colours]
Combo1 : 220,40,240
Combo2 : 6,210,165

[HitObjects]
256,192,10126,21,0,0:0:0:0:
256,192,10626,1,0,0:0:0:0:
256,192,11126,1,0,0:0:0:0:
256,192,11626,1,0,0:0:0:0:
256,192,12126,1,0,0:0:0:0:
256,192,12376,1,0,0:0:0:0:
256,192,12626,1,0,0:0:0:0:
256,192,13126,1,0,0:0:0:0:
256,192,13626,1,0,0:0:0:0:
256,192,14126,1,0,0:0:0:0:
256,192,14376,5,8,0:0:0:0:
256,192,14626,5,0,0:0:0:0:
256,192,15126,1,0,0:0:0:0:
256,192,15626,1,0,0:0:0:0:
256,192,16126,1,0,0:0:0:0:
256,192,16376,1,0,0:0:0:0:
256,192,16626,1,0,0:0:0:0:
256,192,17126,1,0,0:0:0:0:
256,192,17626,1,0,0:0:0:0:
256,192,17876,5,8,0:0:0:0:
256,192,18126,5,0,0:0:0:0:
256,192,18376,5,8,0:0:0:0:
256,192,18626,5,0,0:0:0:0:
256,192,18876,5,8,0:0:0:0:
256,192,19001,1,8,0:0:0:0:
256,192,19126,5,0,0:0:0:0:
256,192,19626,1,0,0:0:0:0:
256,192,19876,5,8,0:0:0:0:
256,192,20126,5,0,0:0:0:0:
256,192,20376,5,8,0:0:0:0:
256,192,20626,5,0,0:0:0:0:
256,192,20876,5,8,0:0:0:0:
256,192,21126,5,0,0:0:0:0:
256,192,21626,1,0,0:0:0:0:
256,192,21876,5,8,0:0:0:0:
256,192,22126,5,0,0:0:0:0:
256,192,22251,1,0,0:0:0:0:
256,192,22376,5,8,0:0:0:0:
256,192,22626,5,0,0:0:0:0:
256,192,22876,5,8,0:0:0:0:
256,192,23001,1,8,0:0:0:0:
256,192,23126,5,0,0:0:0:0:
256,192,23376,5,8,0:0:0:0:
256,192,23626,5,0,0:0:0:0:
256,192,23876,5,8,0:0:0:0:
256,192,24001,5,0,0:0:0:0:
256,192,24126,1,0,0:0:0:0:
256,192,24376,5,8,0:0:0:0:
256,192,24626,5,0,0:0:0:0:
256,192,24876,5,8,0:0:0:0:
256,192,25126,5,0,0:0:0:0:
256,192,25626,1,0,0:0:0:0:
256,192,25876,5,8,0:0:0:0:
256,192,26001,5,0,0:0:0:0:
256,192,26126,1,0,0:0:0:0:
256,192,26376,5,8,0:0:0:0:
256,192,26626,5,0,0:0:0:0:
256,192,26876,5,8,0:0:0:0:
256,192,27001,1,8,0:0:0:0:
256,192,27126,5,0,0:0:0:0:
256,192,27626,1,0,0:0:0:0:
256,192,27876,5,8,0:0:0:0:
256,192,28126,5,0,0:0:0:0:
256,192,28251,5,8,0:0:0:0:
256,192,28376,1,8,0:0:0:0:
256,192,28626,5,0,0:0:0:0:
256,192,28876,5,8,0:0:0:0:
256,192,29126,5,0,0:0:0:0:
256,192,29626,1,0,0:0:0:0:
256,192,29876,5,8,0:0:0:0:
256,192,30001,5,0,0:0:0:0:
256,192,30126,1,0,0:0:0:0:
256,192,30376,5,8,0:0:0:0:
256,192,30626,5,0,0:0:0:0:
256,192,30876,5,8,0:0:0:0:
256,192,31001,1,8,0:0:0:0:
256,192,31126,5,0,0:0:0:0:
256,192,31251,1,0,0:0:0:0:
256,192,31376,5,8,0:0:0:0:
256,192,31626,5,0,0:0:0:0:
256,192,31876,5,8,0:0:0:0:
256,192,32001,5,0,0:0:0:0:
256,192,32126,1,0,0:0:0:0:
256,192,32376,5,8,0:0:0:0:
256,192,32626,5,0,0:0:0:0:
256,192,32876,5,8,0:0:0:0:
256,192,33126,5,0,0:0:0:0:
256,192,33626,1,0,0:0:0:0:
256,192,33876,5,8,0:0:0:0:
256,192,34126,5,0,0:0:0:0:
256,192,34251,1,0,0:0:0:0:
256,192,34376,5,8,0:0:0:0:
256,192,34626,5,0,0:0:0:0:
256,192,34876,5,8,0:0:0:0:
256,192,35001,1,8,0:0:0:0:
256,192,35126,5,0,0:0:0:0:
256,192,35376,5,8,0:0:0:0:
256,192,35626,5,0,0:0:0:0:
256,192,35751,1,0,0:0:0:0:
256,192,35876,5,8,0:0:0:0:
256,192,36001,5,0,0:0:0:0:
256,192,36126,1,0,0:0:0:0:
256,192,36376,5,8,0:0:0:0:
256,192,36626,5,0,0:0:0:0:
256,192,36876,5,8,0:0:0:0:
256,192,37126,5,0,0:0:0:0:
256,192,37626,1,0,0:0:0:0:
256,192,37876,5,8,0:0:0:0:
256,192,38001,1,8,0:0:0:0:
256,192,38126,5,0,0:0:0:0:
256,192,38251,1,0,0:0:0:0:
256,192,38376,5,8,0:0:0:0:
256,192,38626,5,0,0:0:0:0:
256,192,38876,5,8,0:0:0:0:
256,192,39001,1,8,0:0:0:0:
256,192,39126,5,0,0:0:0:0:
256,192,39626,1,0,0:0:0:0:
256,192,39876,5,8,0:0:0:0:
256,192,40001,1,8,0:0:0:0:
256,192,40126,5,0,0:0:0:0:
256,192,40251,5,8,0:0:0:0:
256,192,40376,1,8,0:0:0:0:
256,192,40626,5,0,0:0:0:0:
256,192,40876,5,8,0:0:0:0:
256,192,41126,5,0,0:0:0:0:
256,192,41626,1,0,0:0:0:0:
256,192,41876,5,8,0:0:0:0:
256,192,42001,5,0,0:0:0:0:
256,192,42126,1,0,0:0:0:0:
256,192,42251,1,0,0:0:0:0:
256,192,42376,5,8,0:0:0:0:
256,192,42626,5,0,0:0:0:0:
256,192,42876,5,8,0:0:0:0:
256,192,43001,1,8,0:0:0:0:
256,192,43126,5,0,0:0:0:0:
256,192,43626,1,0,0:0:0:0:
256,192,43876,5,8,0:0:0:0:
256,192,44001,5,0,0:0:0:0:
256,192,44126,1,0,0:0:0:0:
256,192,44251,5,8,0:0:0:0:
256,192,44376,5,0,0:0:0:0:
256,192,44626,1,0,0:0:0:0:
256,192,44876,5,8,0:0:0:0:
256,192,45126,5,0,0:0:0:0:
256,192,45626,1,0,0:0:0:0:
256,192,45876,5,8,0:0:0:0:
256,192,46001,1,8,0:0:0:0:
256,192,46126,5,0,0:0:0:0:
256,192,46251,1,0,0:0:0:0:
256,192,46376,5,8,0:0:0:0:
256,192,46626,5,0,0:0:0:0:
256,192,46876,5,8,0:0:0:0:
256,192,47001,1,8,0:0:0:0:
256,192,47126,5,0,0:0:0:0:
256,192,47626,1,0,0:0:0:0:
256,192,47876,5,8,0:0:0:0:
256,192,48126,5,0,0:0:0:0:
256,192,48251,1,0,0:0:0:0:
256,192,48376,5,8,0:0:0:0:
256,192,48501,5,0,0:0:0:0:
256,192,48626,5,8,0:0:0:0:
256,192,48876,1,8,0:0:0:0:
256,192,49126,5,0,0:0:0:0:
256,192,49626,1,0,0:0:0:0:
256,192,49876,5,8,0:0:0:0:
256,192,50001,5,0,0:0:0:0:
256,192,50126,1,0,0:0:0:0:
256,192,50376,5,8,0:0:0:0:
256,192,50626,5,0,0:0:0:0:
256,192,50876,5,8,0:0:0:0:
256,192,51001,5,0,0:0:0:0:
256,192,51126,1,0,0:0:0:0:
256,192,51376,5,8,0:0:0:0:
256,192,51626,5,0,0:0:0:0:
256,192,51876,5,8,0:0:0:0:
256,192,52001,1,8,0:0:0:0:
256,192,52126,5,0,0:0:0:0:
256,192,52251,5,8,0:0:0:0:
256,192,52376,1,8,0:0:0:0:
256,192,52626,5,0,0:0:0:0:
256,192,52876,5,8,0:0:0:0:
256,192,53001,1,8,0:0:0:0:
256,192,53126,5,0,0:0:0:0:
256,192,53626,1,0,0:0:0:0:
256,192,53876,5,8,0:0:0:0:
256,192,54001,1,8,0:0:0:0:
256,192,54126,5,0,0:0:0:0:
256,192,54251,5,8,0:0:0:0:
256,192,54376,5,0,0:0:0:0:
256,192,54626,1,0,0:0:0:0:
256,192,54876,5,8,0:0:0:0:
256,192,55126,5,0,0:0:0:0:
256,192,55376,5,8,0:0:0:0:
256,192,55626,5,0,0:0:0:0:
256,192,55876,5,8,0:0:0:0:
256,192,56001,1,8,0:0:0:0:
256,192,56126,5,0,0:0:0:0:
256,192,56251,1,0,0:0:0:0:
256,192,56376,5,8,0:0:0:0:
256,192,56626,5,0,0:0:0:0:
256,192,56876,5,8,0:0:0:0:
256,192,57126,5,0,0:0:0:0:
256,192,57626,1,0,0:0:0:0:
256,192,57876,5,8,0:0:0:0:
256,192,58001,5,0,0:0:0:0:
256,192,58126,1,0,0:0:0:0:
256,192,58376,5,8,0:0:0:0:
256,192,58626,5,0,0:0:0:0:
256,192,58876,5,8,0:0:0:0:
256,192,59126,5,0,0:0:0:0:
256,192,59251,1,0,0:0:0:0:
256,192,59376,5,8,0:0:0:0:
256,192,59501,5,0,0:0:0:0:
256,192,59626,1,0,0:0:0:0:
256,192,59876,5,8,0:0:0:0:
256,192,60126,5,0,0:0:0:0:
256,192,60251,1,0,0:0:0:0:
256,192,60376,5,8,0:0:0:0:
256,192,60501,5,0,0:0:0:0:
256,192,60626,5,8,0:0:0:0:
256,192,60876,1,8,0:0:0:0:
256,192,61001,1,8,0:0:0:0:
256,192,61126,5,0,0:0:0:0:
256,192,61376,5,8,0:0:0:0:
256,192,61626,5,0,0:0:0:0:
256,192,61876,5,8,0:0:0:0:
256,192,62001,5,0,0:0:0:0:
256,192,62126,1,0,0:0:0:0:
256,192,62251,1,0,0:0:0:0:
256,192,62376,5,8,0:0:0:0:
256,192,62501,1,8,0:0:0:0:
256,192,62626,5,0,0:0:0:0:
256,192,62876,5,8,0:0:0:0:
256,192,63126,5,0,0:0:0:0:
256,192,63626,1,0,0:0:0:0:
256,192,63876,5,14,0:0:0:0:
256,192,64376,1,14,0:0:0:0:
256,192,64626,5,0,0:0:0:0:
256,192,65126,5,8,0:0:0:0:
256,192,65376,5,0,0:0:0:0:
256,192,65876,1,4,0:0:0:0:
256,192,66126,1,0,0:0:0:0:
256,192,66376,5,8,0:0:0:0:
256,192,66626,1,8,0:0:0:0:
256,192,66751,1,8,0:0:0:0:
256,192,66876,5,0,0:0:0:0:
256,192,67126,1,0,0:0:0:0:
256,192,67376,5,8,0:0:0:0:
256,192,67626,5,0,0:0:0:0:
256,192,67876,5,8,0:0:0:0:
256,192,68001,1,8,0:0:0:0:
256,192,68126,5,0,0:0:0:0:
256,192,68251,1,0,0:0:0:0:
256,192,68376,5,8,0:0:0:0:
256,192,68626,1,8,0:0:0:0:
256,192,68751,1,8,0:0:0:0:
256,192,68876,1,8,0:0:0:0:
256,192,69126,5,0,0:0:0:0:
256,192,69376,5,8,0:0:0:0:
256,192,69626,1,8,0:0:0:0:
256,192,69876,1,14,0:0:0:0:
256,192,70126,5,0,0:0:0:0:
256,192,70376,1,0,0:0:0:0:
256,192,70501,1,0,0:0:0:0:
256,192,70626,5,8,0:0:0:0:
256,192,70751,1,8,0:0:0:0:
256,192,70876,5,0,0:0:0:0:
256,192,71126,1,0,0:0:0:0:
256,192,71376,5,8,0:0:0:0:
256,192,71626,5,0,0:0:0:0:
256,192,71751,1,0,0:0:0:0:
256,192,71876,5,8,0:0:0:0:
256,192,72126,5,0,0:0:0:0:
256,192,72376,5,8,0:0:0:0:
256,192,72501,1,8,0:0:0:0:
256,192,72626,5,0,0:0:0:0:
256,192,72876,5,8,0:0:0:0:
256,192,73126,5,0,0:0:0:0:
256,192,73376,5,8,0:0:0:0:
256,192,73501,5,0,0:0:0:0:
256,192,73626,1,0,0:0:0:0:
256,192,73876,5,14,0:0:0:0:
256,192,74126,5,0,0:0:0:0:
256,192,74376,1,0,0:0:0:0:
256,192,74626,5,8,0:0:0:0:
256,192,74751,1,8,0:0:0:0:
256,192,74876,5,0,0:0:0:0:
256,192,75126,1,0,0:0:0:0:
256,192,75376,5,8,0:0:0:0:
256,192,75626,5,0,0:0:0:0:
256,192,75876,5,8,0:0:0:0:
256,192,76001,5,0,0:0:0:0:
256,192,76126,1,0,0:0:0:0:
256,192,76251,5,8,0:0:0:0:
256,192,76376,5,0,0:0:0:0:
256,192,76626,1,0,0:0:0:0:
256,192,76876,5,8,0:0:0:0:
256,192,77126,5,0,0:0:0:0:
256,192,77376,5,8,0:0:0:0:
256,192,77501,1,8,0:0:0:0:
256,192,77626,5,0,0:0:0:0:
256,192,77876,5,14,0:0:0:0:
256,192,78126,5,0,0:0:0:0:
256,192,78376,1,0,0:0:0:0:
256,192,78626,5,8,0:0:0:0:
256,192,78751,1,8,0:0:0:0:
256,192,78876,5,0,0:0:0:0:
256,192,79126,1,0,0:0:0:0:
256,192,79376,5,8,0:0:0:0:
256,192,79626,5,0,0:0:0:0:
256,192,79751,1,0,0:0:0:0:
256,192,79876,5,8,0:0:0:0:
256,192,80001,5,0,0:0:0:0:
256,192,80126,5,8,0:0:0:0:
256,192,80376,5,0,0:0:0:0:
256,192,80626,5,8,0:0:0:0:
256,192,80876,5,4,0:0:0:0:
256,192,81126,5,8,0:0:0:0:
256,192,81376,5,0,0:0:0:0:
256,192,81876,5,8,0:0:0:0:
256,192,82126,5,0,0:0:0:0:
256,192,82376,5,8,0:0:0:0:
256,192,82626,5,0,0:0:0:0:
256,192,82876,5,8,0:0:0:0:
256,192,83126,1,8,0:0:0:0:
256,192,83251,1,8,0:0:0:0:
256,192,83376,1,8,0:0:0:0:
256,192,83626,5,0,0:0:0:0:
256,192,83876,5,8,0:0:0:0:
256,192,84126,5,0,0:0:0:0:
256,192,84376,5,8,0:0:0:0:
256,192,84626,5,0,0:0:0:0:
256,192,84876,5,8,0:0:0:0:
256,192,85001,1,8,0:0:0:0:
256,192,85126,5,0,0:0:0:0:
256,192,85626,1,0,0:0:0:0:
256,192,85876,5,8,0:0:0:0:
256,192,86001,5,0,0:0:0:0:
256,192,86126,1,0,0:0:0:0:
256,192,86376,5,8,0:0:0:0:
256,192,86626,5,0,0:0:0:0:
256,192,86751,1,0,0:0:0:0:
256,192,86876,5,8,0:0:0:0:
256,192,87126,1,8,0:0:0:0:
256,192,87376,1,8,0:0:0:0:
256,192,87626,5,0,0:0:0:0:
256,192,87876,5,8,0:0:0:0:
256,192,88126,5,0,0:0:0:0:
256,192,88376,5,8,0:0:0:0:
256,192,88626,5,0,0:0:0:0:
256,192,88876,5,8,0:0:0:0:
256,192,89001,1,8,0:0:0:0:
256,192,89126,1,8,0:0:0:0:
256,192,89376,1,14,0:0:0:0:
256,192,89626,5,0,0:0:0:0:
256,192,89876,5,8,0:0:0:0:
256,192,90126,5,0,0:0:0:0:
256,192,90376,5,8,0:0:0:0:
256,192,90501,1,8,0:0:0:0:
256,192,90626,5,0,0:0:0:0:
256,192,90876,5,8,0:0:0:0:
256,192,91126,1,8,0:0:0:0:
256,192,91376,1,8,0:0:0:0:
256,192,91626,5,0,0:0:0:0:
256,192,91876,5,8,0:0:0:0:
256,192,92126,5,0,0:0:0:0:
256,192,92376,5,8,0:0:0:0:
256,192,92501,5,0,0:0:0:0:
256,192,92626,1,0,0:0:0:0:
256,192,92876,5,8,0:0:0:0:
256,192,93001,1,8,0:0:0:0:
256,192,93126,5,0,0:0:0:0:
256,192,93626,1,0,0:0:0:0:
256,192,93876,5,8,0:0:0:0:
256,192,94126,5,0,0:0:0:0:
256,192,94251,5,8,0:0:0:0:
256,192,94376,1,8,0:0:0:0:
256,192,94626,1,8,0:0:0:0:
256,192,94876,1,8,0:0:0:0:
256,192,95126,5,0,0:0:0:0:
256,192,95376,5,8,0:0:0:0:
256,192,95501,1,8,0:0:0:0:
256,192,95626,5,0,0:0:0:0:
256,192,95876,5,8,0:0:0:0:
256,192,96126,5,0,0:0:0:0:
256,192,96376,5,8,0:0:0:0:
256,192,96626,5,0,0:0:0:0:
256,192,96751,1,0,0:0:0:0:
256,192,96876,5,8,0:0:0:0:
256,192,97001,5,0,0:0:0:0:
256,192,97126,5,8,0:0:0:0:
256,192,97376,5,4,0:0:0:0:
256,192,97626,1,0,0:0:0:0:
256,192,97876,5,8,0:0:0:0:
256,192,98126,5,0,0:0:0:0:
256,192,98376,5,8,0:0:0:0:
256,192,98626,5,0,0:0:0:0:
256,192,98751,1,0,0:0:0:0:
256,192,98876,5,8,0:0:0:0:
256,192,99001,1,8,0:0:0:0:
256,192,99126,5,0,0:0:0:0:
256,192,99376,5,8,0:0:0:0:
256,192,99626,1,8,0:0:0:0:
256,192,99876,1,8,0:0:0:0:
256,192,100001,5,0,0:0:0:0:
256,192,100126,1,0,0:0:0:0:
256,192,100376,5,8,0:0:0:0:
256,192,100626,5,0,0:0:0:0:
256,192,100876,5,8,0:0:0:0:
256,192,101001,1,8,0:0:0:0:
256,192,101126,5,0,0:0:0:0:
256,192,101626,1,0,0:0:0:0:
256,192,101876,5,8,0:0:0:0:
256,192,102001,5,0,0:0:0:0:
256,192,102126,5,8,0:0:0:0:
256,192,102376,1,8,0:0:0:0:
256,192,102626,5,0,0:0:0:0:
256,192,102876,5,8,0:0:0:0:
256,192,103001,1,8,0:0:0:0:
256,192,103126,5,0,0:0:0:0:
256,192,103376,1,4,0:0:0:0:
256,192,103626,1,0,0:0:0:0:
256,192,103876,5,8,0:0:0:0:
256,192,104001,5,0,0:0:0:0:
256,192,104126,1,0,0:0:0:0:
256,192,104376,5,8,0:0:0:0:
256,192,104626,5,0,0:0:0:0:
256,192,104876,5,8,0:0:0:0:
256,192,105001,1,8,0:0:0:0:
256,192,105126,5,0,0:0:0:0:
256,192,105376,1,4,0:0:0:0:
256,192,105626,1,0,0:0:0:0:
256,192,105876,5,8,0:0:0:0:
256,192,106126,5,0,0:0:0:0:
256,192,106376,5,8,0:0:0:0:
256,192,106501,5,0,0:0:0:0:
256,192,106626,1,0,0:0:0:0:
256,192,106751,5,8,0:0:0:0:
256,192,106876,1,8,0:0:0:0:
256,192,107126,5,0,0:0:0:0:
256,192,107376,5,8,0:0:0:0:
256,192,107626,5,0,0:0:0:0:
256,192,107876,5,8,0:0:0:0:
256,192,108001,1,8,0:0:0:0:
256,192,108126,5,0,0:0:0:0:
256,192,108251,1,0,0:0:0:0:
256,192,108376,5,8,0:0:0:0:
256,192,108626,5,0,0:0:0:0:
256,192,108876,5,8,0:0:0:0:
256,192,109001,5,0,0:0:0:0:
256,192,109126,1,0,0:0:0:0:
256,192,109626,1,0,0:0:0:0:
256,192,109876,5,14,0:0:0:0:
256,192,110126,5,0,0:0:0:0:
256,192,110251,1,0,0:0:0:0:
256,192,110376,5,8,0:0:0:0:
256,192,110626,1,8,0:0:0:0:
256,192,110876,1,8,0:0:0:0:
256,192,111126,5,0,0:0:0:0:
256,192,111376,1,4,0:0:0:0:
256,192,111626,1,0,0:0:0:0:
256,192,111876,5,14,0:0:0:0:
256,192,112376,1,14,0:0:0:0:
256,192,112626,5,4,0:0:0:0:
256,192,113876,1,4,0:0:0:0:
256,192,114126,1,0,0:0:0:0:
256,192,114251,1,0,0:0:0:0:
256,192,114376,5,8,0:0:0:0:
256,192,114626,1,8,0:0:0:0:
256,192,114751,5,0,0:0:0:0:
256,192,114876,5,8,0:0:0:0:
256,192,115001,1,8,0:0:0:0:
256,192,115126,5,0,0:0:0:0:
256,192,115376,5,8,0:0:0:0:
256,192,115626,5,0,0:0:0:0:
256,192,115876,5,8,0:0:0:0:
256,192,116001,1,8,0:0:0:0:
256,192,116126,5,0,0:0:0:0:
256,192,116376,1,0,0:0:0:0:
256,192,116626,1,0,0:0:0:0:
256,192,116876,5,8,0:0:0:0:
256,192,117126,5,0,0:0:0:0:
256,192,117376,5,8,0:0:0:0:
256,192,117501,1,8,0:0:0:0:
256,192,117626,5,0,0:0:0:0:
256,192,117751,1,0,0:0:0:0:
256,192,117876,5,8,0:0:0:0:
256,192,118126,5,0,0:0:0:0:
256,192,118376,1,0,0:0:0:0:
256,192,118626,5,8,0:0:0:0:
256,192,118751,1,8,0:0:0:0:
256,192,118876,5,0,0:0:0:0:
256,192,119126,1,0,0:0:0:0:
256,192,119376,5,8,0:0:0:0:
256,192,119626,5,0,0:0:0:0:
256,192,119751,1,0,0:0:0:0:
256,192,119876,5,8,0:0:0:0:
256,192,120126,1,8,0:0:0:0:
256,192,120376,1,8,0:0:0:0:
256,192,120626,5,0,0:0:0:0:
256,192,120751,1,0,0:0:0:0:
256,192,120876,5,8,0:0:0:0:
256,192,121126,5,0,0:0:0:0:
256,192,121376,5,8,0:0:0:0:
256,192,121626,5,0,0:0:0:0:
256,192,121876,5,8,0:0:0:0:
256,192,122001,1,8,0:0:0:0:
256,192,122126,5,0,0:0:0:0:
256,192,122376,5,8,0:0:0:0:
256,192,122626,1,8,0:0:0:0:
256,192,122751,5,0,0:0:0:0:
256,192,122876,5,8,0:0:0:0:
256,192,123001,1,8,0:0:0:0:
256,192,123126,5,0,0:0:0:0:
256,192,123376,5,8,0:0:0:0:
256,192,123626,1,8,0:0:0:0:
256,192,123751,1,8,0:0:0:0:
256,192,123876,5,0,0:0:0:0:
256,192,124126,5,8,0:0:0:0:
256,192,124376,1,8,0:0:0:0:
256,192,124626,5,0,0:0:0:0:
256,192,124751,1,0,0:0:0:0:
256,192,124876,5,8,0:0:0:0:
256,192,125126,5,0,0:0:0:0:
256,192,125376,5,8,0:0:0:0:
256,192,125626,5,0,0:0:0:0:
256,192,125876,5,8,0:0:0:0:
256,192,126001,5,0,0:0:0:0:
256,192,126126,1,0,0:0:0:0:
256,192,126251,5,8,0:0:0:0:
256,192,126376,5,0,0:0:0:0:
256,192,126626,5,8,0:0:0:0:
256,192,126751,5,0,0:0:0:0:
256,192,126876,1,0,0:0:0:0:
256,192,127126,1,0,0:0:0:0:
256,192,127376,5,8,0:0:0:0:
256,192,127501,1,8,0:0:0:0:
256,192,127626,5,0,0:0:0:0:
256,192,127876,5,8,0:0:0:0:
256,192,128126,5,0,0:0:0:0:
256,192,128376,5,8,0:0:0:0:
256,192,128626,1,8,0:0:0:0:
256,192,128876,5,4,0:0:0:0:
256,192,129126,5,8,0:0:0:0:
256,192,129376,5,0,0:0:0:0:
256,192,129876,5,8,0:0:0:0:
256,192,130126,5,0,0:0:0:0:
256,192,130376,5,8,0:0:0:0:
256,192,130501,5,0,0:0:0:0:
256,192,130626,1,0,0:0:0:0:
256,192,130876,5,8,0:0:0:0:
256,192,131001,1,8,0:0:0:0:
256,192,131126,5,0,0:0:0:0:
256,192,131626,1,0,0:0:0:0:
256,192,131876,5,8,0:0:0:0:
256,192,132126,5,0,0:0:0:0:
256,192,132251,1,0,0:0:0:0:
256,192,132376,5,8,0:0:0:0:
256,192,132626,5,0,0:0:0:0:
256,192,132876,5,8,0:0:0:0:
256,192,133126,5,0,0:0:0:0:
256,192,133626,1,0,0:0:0:0:
256,192,133876,5,8,0:0:0:0:
256,192,134001,5,0,0:0:0:0:
256,192,134126,1,0,0:0:0:0:
256,192,134376,5,8,0:0:0:0:
256,192,134626,5,0,0:0:0:0:
256,192,134876,5,8,0:0:0:0:
256,192,135001,1,8,0:0:0:0:
256,192,135126,5,0,0:0:0:0:
256,192,135251,5,8,0:0:0:0:
256,192,135501,1,8,0:0:0:0:
256,192,135626,5,0,0:0:0:0:
256,192,135876,5,8,0:0:0:0:
256,192,136126,5,0,0:0:0:0:
256,192,136251,1,0,0:0:0:0:
256,192,136376,5,8,0:0:0:0:
256,192,136626,5,0,0:0:0:0:
256,192,136876,5,8,0:0:0:0:
256,192,137126,5,0,0:0:0:0:
256,192,137626,1,0,0:0:0:0:
256,192,137876,5,8,0:0:0:0:
256,192,138001,5,0,0:0:0:0:
256,192,138126,1,0,0:0:0:0:
256,192,138251,5,8,0:0:0:0:
256,192,138376,5,0,0:0:0:0:
256,192,138626,1,0,0:0:0:0:
256,192,138876,5,8,0:0:0:0:
256,192,139001,5,0,0:0:0:0:
256,192,139126,1,0,0:0:0:0:
256,192,139251,5,8,0:0:0:0:
256,192,139501,1,8,0:0:0:0:
256,192,139626,5,0,0:0:0:0:
256,192,139876,5,8,0:0:0:0:
256,192,140126,5,0,0:0:0:0:
256,192,140376,1,0,0:0:0:0:
256,192,140501,5,8,0:0:0:0:
256,192,140626,5,0,0:0:0:0:
256,192,140876,5,8,0:0:0:0:
256,192,141126,5,0,0:0:0:0:
256,192,141251,5,8,0:0:0:0:
256,192,141501,1,8,0:0:0:0:
256,192,141626,5,0,0:0:0:0:
256,192,141876,5,8,0:0:0:0:
256,192,142126,5,0,0:0:0:0:
256,192,142251,1,0,0:0:0:0:
256,192,142376,5,8,0:0:0:0:
256,192,142626,5,0,0:0:0:0:
256,192,142876,5,8,0:0:0:0:
256,192,143126,1,8,0:0:0:0:
256,192,143376,5,0,0:0:0:0:
256,192,143626,5,14,0:0:0:0:
256,192,143876,5,4,0:0:0:0:
256,192,144376,1,4,0:0:0:0:
256,192,145126,5,8,0:0:0:0:
256,192,145376,5,0,0:0:0:0:
256,192,145876,5,8,0:0:0:0:
256,192,146126,5,0,0:0:0:0:
256,192,146626,5,8,0:0:0:0:
256,192,146876,5,0,0:0:0:0:
256,192,147376,5,8,0:0:0:0:
256,192,147626,5,0,0:0:0:0:
256,192,148126,5,8,0:0:0:0:
256,192,148376,5,0,0:0:0:0:
256,192,148876,5,8,0:0:0:0:
256,192,149126,5,0,0:0:0:0:
256,192,149626,5,8,0:0:0:0:
256,192,149876,5,0,0:0:0:0:
256,192,150376,5,14,0:0:0:0:
256,192,150626,5,4,0:0:0:0:
256,192,151126,5,14,0:0:0:0:
256,192,151376,5,4,0:0:0:0:
256,192,151876,5,14,0:0:0:0:
256,192,152126,5,4,0:0:0:0:
256,192,152626,5,14,0:0:0:0:
256,192,152876,5,4,0:0:0:0:
256,192,154876,5,14,0:0:0:0:
256,192,155126,5,0,0:0:0:0:
256,192,155251,1,0,0:0:0:0:
256,192,155376,5,8,0:0:0:0:
256,192,155626,5,0,0:0:0:0:
256,192,155876,5,8,0:0:0:0:
256,192,156126,5,0,0:0:0:0:
256,192,156251,1,0,0:0:0:0:
256,192,156376,1,0,0:0:0:0:
256,192,156501,5,8,0:0:0:0:
256,192,156626,5,0,0:0:0:0:
256,192,156876,5,8,0:0:0:0:
256,192,157126,5,0,0:0:0:0:
256,192,157376,5,8,0:0:0:0:
256,192,157626,5,0,0:0:0:0:
256,192,157751,1,0,0:0:0:0:
256,192,157876,5,8,0:0:0:0:
256,192,158126,5,0,0:0:0:0:
256,192,158376,5,8,0:0:0:0:
256,192,158501,1,8,0:0:0:0:
256,192,158626,5,0,0:0:0:0:
256,192,158876,5,0,0:0:0:0:
256,192,159126,5,0,0:0:0:0:
256,192,159251,5,8,0:0:0:0:
256,192,159376,5,0,0:0:0:0:
256,192,159626,1,0,0:0:0:0:
256,192,159876,5,8,0:0:0:0:
256,192,160126,5,0,0:0:0:0:
256,192,160251,1,0,0:0:0:0:
256,192,160376,1,0,0:0:0:0:
256,192,160626,1,0,0:0:0:0:
256,192,160876,5,8,0:0:0:0:
256,192,161126,5,0,0:0:0:0:
256,192,161251,5,8,0:0:0:0:
256,192,161376,1,8,0:0:0:0:
256,192,161501,1,8,0:0:0:0:
256,192,161626,5,0,0:0:0:0:
256,192,161876,5,8,0:0:0:0:
256,192,162126,5,0,0:0:0:0:
256,192,162251,1,0,0:0:0:0:
256,192,162376,5,8,0:0:0:0:
256,192,162626,5,0,0:0:0:0:
256,192,162876,5,8,0:0:0:0:
256,192,163001,5,0,0:0:0:0:
256,192,163126,1,0,0:0:0:0:
256,192,163376,5,8,0:0:0:0:
256,192,163626,5,0,0:0:0:0:
256,192,163876,5,8,0:0:0:0:
256,192,164001,5,0,0:0:0:0:
256,192,164126,1,0,0:0:0:0:
256,192,164376,1,0,0:0:0:0:
256,192,164626,5,8,0:0:0:0:
256,192,164876,1,14,0:0:0:0:
256,192,165126,5,0,0:0:0:0:
256,192,165251,1,0,0:0:0:0:
256,192,165376,5,8,0:0:0:0:
256,192,165626,5,0,0:0:0:0:
256,192,165876,5,8,0:0:0:0:
256,192,166001,5,0,0:0:0:0:
256,192,166126,5,8,0:0:0:0:
256,192,166376,5,0,0:0:0:0:
256,192,166626,1,0,0:0:0:0:
256,192,166876,5,14,0:0:0:0:
256,192,167126,1,8,0:0:0:0:
256,192,167251,5,0,0:0:0:0:
256,192,167376,1,0,0:0:0:0:
256,192,167626,1,0,0:0:0:0:
256,192,167876,5,8,0:0:0:0:
256,192,168126,5,0,0:0:0:0:
256,192,168251,1,0,0:0:0:0:
256,192,168376,1,0,0:0:0:0:
256,192,168626,1,0,0:0:0:0:
256,192,168876,5,8,0:0:0:0:
256,192,169126,5,0,0:0:0:0:
256,192,169251,1,0,0:0:0:0:
256,192,169376,5,8,0:0:0:0:
256,192,169626,5,0,0:0:0:0:
256,192,169876,5,8,0:0:0:0:
256,192,170126,5,0,0:0:0:0:
256,192,170376,1,0,0:0:0:0:
256,192,170626,1,0,0:0:0:0:
256,192,170876,5,14,0:0:0:0:
256,192,175126,21,8,0:0:0:0:
256,192,175376,5,0,0:0:0:0:
256,192,175876,5,8,0:0:0:0:
256,192,176126,5,0,0:0:0:0:
256,192,176376,5,8,0:0:0:0:
256,192,176501,5,0,0:0:0:0:
256,192,176626,1,0,0:0:0:0:
256,192,176876,5,8,0:0:0:0:
256,192,177001,1,8,0:0:0:0:
256,192,177126,5,0,0:0:0:0:
256,192,177626,1,0,0:0:0:0:
256,192,177751,5,8,0:0:0:0:
256,192,177876,1,8,0:0:0:0:
256,192,178126,5,0,0:0:0:0:
256,192,178376,5,8,0:0:0:0:
256,192,178501,5,0,0:0:0:0:
256,192,178626,1,0,0:0:0:0:
256,192,178876,5,8,0:0:0:0:
256,192,179126,5,0,0:0:0:0:
256,192,179251,5,8,0:0:0:0:
256,192,179501,1,8,0:0:0:0:
256,192,179626,5,0,0:0:0:0:
256,192,179876,5,8,0:0:0:0:
256,192,180126,5,0,0:0:0:0:
256,192,180251,1,0,0:0:0:0:
256,192,180376,5,8,0:0:0:0:
256,192,180626,5,0,0:0:0:0:
256,192,180876,5,8,0:0:0:0:
256,192,181001,1,8,0:0:0:0:
256,192,181126,5,0,0:0:0:0:
256,192,181251,5,8,0:0:0:0:
256,192,181501,1,8,0:0:0:0:
256,192,181626,5,0,0:0:0:0:
256,192,181876,5,8,0:0:0:0:
256,192,182126,5,0,0:0:0:0:
256,192,182251,1,0,0:0:0:0:
256,192,182376,5,8,0:0:0:0:
256,192,182626,5,0,0:0:0:0:
256,192,182876,5,8,0:0:0:0:
256,192,183126,5,0,0:0:0:0:
256,192,183626,1,0,0:0:0:0:
256,192,183876,5,8,0:0:0:0:
256,192,184001,1,8,0:0:0:0:
256,192,184126,5,0,0:0:0:0:
256,192,184376,5,8,0:0:0:0:
256,192,184626,1,8,0:0:0:0:
256,192,184876,5,0,0:0:0:0:
256,192,185126,5,8,0:0:0:0:
256,192,185251,1,8,0:0:0:0:
256,192,185376,1,8,0:0:0:0:
256,192,185626,5,0,0:0:0:0:
256,192,185876,5,8,0:0:0:0:
256,192,186126,5,0,0:0:0:0:
256,192,186251,1,0,0:0:0:0:
256,192,186376,5,8,0:0:0:0:
256,192,186626,5,0,0:0:0:0:
256,192,186876,5,8,0:0:0:0:
256,192,187126,5,0,0:0:0:0:
256,192,187626,1,0,0:0:0:0:
256,192,187876,5,8,0:0:0:0:
256,192,188001,5,0,0:0:0:0:
256,192,188126,1,0,0:0:0:0:
256,192,188376,5,8,0:0:0:0:
256,192,188626,1,8,0:0:0:0:
256,192,188751,5,0,0:0:0:0:
256,192,188876,5,8,0:0:0:0:
256,192,189001,1,8,0:0:0:0:
256,192,189126,5,0,0:0:0:0:
256,192,189376,5,8,0:0:0:0:
256,192,189626,5,0,0:0:0:0:
256,192,189876,5,8,0:0:0:0:
256,192,190001,1,8,0:0:0:0:
256,192,190126,5,0,0:0:0:0:
256,192,190251,5,8,0:0:0:0:
256,192,190501,1,8,0:0:0:0:
256,192,190626,5,0,0:0:0:0:
256,192,190876,5,8,0:0:0:0:
256,192,191126,5,0,0:0:0:0:
256,192,191376,5,8,0:0:0:0:
256,192,191501,1,8,0:0:0:0:
256,192,191626,5,0,0:0:0:0:
256,192,191876,5,14,0:0:0:0:
256,192,195126,21,8,0:0:0:0:
256,192,195376,5,0,0:0:0:0:
256,192,195876,5,8,0:0:0:0:
256,192,196001,1,8,0:0:0:0:
256,192,196126,5,0,0:0:0:0:
256,192,196251,5,8,0:0:0:0:
256,192,196376,5,0,0:0:0:0:
256,192,196626,1,0,0:0:0:0:
256,192,196876,5,8,0:0:0:0:
256,192,197126,1,8,0:0:0:0:
256,192,197376,5,0,0:0:0:0:
256,192,197626,1,0,0:0:0:0:
256,192,197751,1,0,0:0:0:0:
256,192,197876,5,8,0:0:0:0:
256,192,198126,5,0,0:0:0:0:
256,192,198376,5,8,0:0:0:0:
256,192,198626,5,0,0:0:0:0:
256,192,198876,5,8,0:0:0:0:
256,192,199001,5,0,0:0:0:0:
256,192,199126,1,0,0:0:0:0:
256,192,199376,1,4,0:0:0:0:
256,192,199626,1,0,0:0:0:0:
256,192,199876,5,14,0:0:0:0:
256,192,200126,5,0,0:0:0:0:
256,192,200376,5,8,0:0:0:0:
256,192,200501,5,0,0:0:0:0:
256,192,200626,1,0,0:0:0:0:
256,192,200876,5,8,0:0:0:0:
256,192,201001,1,8,0:0:0:0:
256,192,201126,5,0,0:0:0:0:
256,192,201376,1,4,0:0:0:0:
256,192,201626,1,0,0:0:0:0:
256,192,201876,5,8,0:0:0:0:
256,192,202126,5,0,0:0:0:0:
256,192,202251,5,8,0:0:0:0:
256,192,202376,1,8,0:0:0:0:
256,192,202626,5,0,0:0:0:0:
256,192,202876,5,8,0:0:0:0:
256,192,203001,1,8,0:0:0:0:
256,192,203126,5,0,0:0:0:0:
256,192,203626,1,0,0:0:0:0:
256,192,203876,5,8,0:0:0:0:
256,192,204001,5,0,0:0:0:0:
256,192,204126,1,0,0:0:0:0:
256,192,204251,5,8,0:0:0:0:
256,192,204376,1,8,0:0:0:0:
256,192,204626,5,0,0:0:0:0:
256,192,204876,5,8,0:0:0:0:
256,192,205126,5,0,0:0:0:0:
256,192,205376,1,0,0:0:0:0:
256,192,205626,1,0,0:0:0:0:
256,192,205751,1,0,0:0:0:0:
256,192,205876,5,8,0:0:0:0:
256,192,206126,1,8,0:0:0:0:
256,192,206251,1,8,0:0:0:0:
256,192,206376,1,8,0:0:0:0:
256,192,206626,5,0,0:0:0:0:
256,192,206876,5,8,0:0:0:0:
256,192,207126,5,0,0:0:0:0:
256,192,207376,1,0,0:0:0:0:
256,192,207626,1,0,0:0:0:0:
256,192,207751,1,0,0:0:0:0:
256,192,207876,5,8,0:0:0:0:
256,192,208126,5,0,0:0:0:0:
256,192,208376,5,8,0:0:0:0:
256,192,208626,1,8,0:0:0:0:
256,192,208751,5,0,0:0:0:0:
256,192,208876,5,8,0:0:0:0:
256,192,209001,1,8,0:0:0:0:
256,192,209126,5,0,0:0:0:0:
256,192,209376,5,8,0:0:0:0:
256,192,209626,5,0,0:0:0:0:
256,192,209876,5,8,0:0:0:0:
256,192,210126,5,0,0:0:0:0:
256,192,210251,1,0,0:0:0:0:
256,192,210376,5,8,0:0:0:0:
256,192,210626,5,0,0:0:0:0:
256,192,210876,5,8,0:0:0:0:
256,192,211001,1,8,0:0:0:0:
256,192,211126,5,0,0:0:0:0:
256,192,211251,5,8,0:0:0:0:
256,192,211501,1,8,0:0:0:0:
256,192,211626,5,0,0:0:0:0:
256,192,211876,5,8,0:0:0:0:
256,192,212126,5,0,0:0:0:0:
256,192,212376,5,8,0:0:0:0:
256,192,212501,5,0,0:0:0:0:
256,192,212626,1,0,0:0:0:0:
256,192,212876,5,8,0:0:0:0:
256,192,213126,5,0,0:0:0:0:
256,192,213376,1,0,0:0:0:0:
256,192,213626,1,0,0:0:0:0:
256,192,213876,5,14,0:0:0:0:
256,192,214376,1,14,0:0:0:0:
256,192,214626,5,0,0:0:0:0:
256,192,215126,1,0,0:0:0:0:
256,192,215376,5,8,0:0:0:0:
256,192,215501,1,8,0:0:0:0:
256,192,215626,5,0,0:0:0:0:
256,192,215876,1,4,0:0:0:0:
256,192,216126,1,0,0:0:0:0:
256,192,216251,1,0,0:0:0:0:
256,192,216376,5,8,0:0:0:0:
256,192,216626,1,8,0:0:0:0:
256,192,216751,5,0,0:0:0:0:
256,192,216876,5,8,0:0:0:0:
256,192,217001,1,8,0:0:0:0:
256,192,217126,5,0,0:0:0:0:
256,192,217376,5,8,0:0:0:0:
256,192,217626,5,0,0:0:0:0:
256,192,217751,1,0,0:0:0:0:
256,192,217876,1,0,0:0:0:0:
256,192,218126,1,0,0:0:0:0:
256,192,218376,5,8,0:0:0:0:
256,192,218626,5,0,0:0:0:0:
256,192,218876,5,8,0:0:0:0:
256,192,219126,5,0,0:0:0:0:
256,192,219251,1,0,0:0:0:0:
256,192,219376,5,8,0:0:0:0:
256,192,219626,5,0,0:0:0:0:
256,192,219876,5,8,0:0:0:0:
256,192,220001,5,0,0:0:0:0:
256,192,220126,1,0,0:0:0:0:
256,192,220251,5,8,0:0:0:0:
256,192,220376,5,0,0:0:0:0:
256,192,220626,5,8,0:0:0:0:
256,192,220751,1,8,0:0:0:0:
256,192,220876,5,0,0:0:0:0:
256,192,221126,1,0,0:0:0:0:
256,192,221376,5,8,0:0:0:0:
256,192,221626,5,0,0:0:0:0:
256,192,221876,5,8,0:0:0:0:
256,192,222126,1,8,0:0:0:0:
256,192,222251,1,8,0:0:0:0:
256,192,222376,1,8,0:0:0:0:
256,192,222626,5,0,0:0:0:0:
256,192,222876,5,8,0:0:0:0:
256,192,223126,5,0,0:0:0:0:
256,192,223376,5,8,0:0:0:0:
256,192,223501,1,8,0:0:0:0:
256,192,223626,5,0,0:0:0:0:
256,192,223876,5,8,0:0:0:0:
256,192,224126,5,0,0:0:0:0:
256,192,224376,5,8,0:0:0:0:
256,192,224626,1,8,0:0:0:0:
256,192,224751,5,0,0:0:0:0:
256,192,224876,1,0,0:0:0:0:
256,192,225001,5,8,0:0:0:0:
256,192,225126,5,0,0:0:0:0:
256,192,225376,5,8,0:0:0:0:
256,192,225626,5,0,0:0:0:0:
256,192,225751,1,0,0:0:0:0:
256,192,225876,5,8,0:0:0:0:
256,192,226126,1,8,0:0:0:0:
256,192,226376,1,8,0:0:0:0:
256,192,226626,5,0,0:0:0:0:
256,192,226751,1,0,0:0:0:0:
256,192,226876,5,8,0:0:0:0:
256,192,227126,5,0,0:0:0:0:
256,192,227376,5,8,0:0:0:0:
256,192,227501,1,8,0:0:0:0:
256,192,227626,5,0,0:0:0:0:
256,192,227751,5,8,0:0:0:0:
256,192,228001,1,8,0:0:0:0:
256,192,228126,5,0,0:0:0:0:
256,192,228376,1,0,0:0:0:0:
256,192,228626,1,0,0:0:0:0:
256,192,228751,5,8,0:0:0:0:
256,192,228876,1,8,0:0:0:0:
256,192,229001,5,0,0:0:0:0:
256,192,229126,5,8,0:0:0:0:
256,192,229376,1,8,0:0:0:0:
256,192,229626,5,0,0:0:0:0:
256,192,229876,5,8,0:0:0:0:
256,192,230126,1,8,0:0:0:0:
256,192,230251,1,8,0:0:0:0:
256,192,230376,1,8,0:0:0:0:
256,192,230626,5,0,0:0:0:0:
256,192,230876,5,8,0:0:0:0:
256,192,231126,5,0,0:0:0:0:
256,192,231376,5,8,0:0:0:0:
256,192,231501,1,8,0:0:0:0:
256,192,231626,5,0,0:0:0:0:
256,192,231876,5,8,0:0:0:0:
256,192,232126,5,0,0:0:0:0:
256,192,232376,1,0,0:0:0:0:
256,192,232626,5,8,0:0:0:0:
256,192,232751,5,0,0:0:0:0:
256,192,232876,5,8,0:0:0:0:
256,192,233126,5,0,0:0:0:0:
256,192,233376,5,8,0:0:0:0:
256,192,233626,5,0,0:0:0:0:
256,192,233751,1,0,0:0:0:0:
256,192,233876,5,8,0:0:0:0:
256,192,234126,5,0,0:0:0:0:
256,192,234376,5,8,0:0:0:0:
256,192,234501,1,8,0:0:0:0:
256,192,234626,5,0,0:0:0:0:
256,192,234876,5,8,0:0:0:0:
256,192,235126,5,0,0:0:0:0:
256,192,235251,1,0,0:0:0:0:
256,192,235376,5,8,0:0:0:0:
256,192,235626,5,0,0:0:0:0:
256,192,235876,5,8,0:0:0:0:
256,192,236126,5,0,0:0:0:0:
256,192,236251,1,0,0:0:0:0:
256,192,236376,1,0,0:0:0:0:
256,192,236626,5,8,0:0:0:0:
256,192,236876,1,8,0:0:0:0:
256,192,237001,5,0,0:0:0:0:
256,192,237126,1,0,0:0:0:0:
256,192,237376,5,8,0:0:0:0:
256,192,237626,5,0,0:0:0:0:
256,192,237751,5,8,0:0:0:0:
256,192,237876,5,0,0:0:0:0:
256,192,238001,1,0,0:0:0:0:
256,192,238126,5,8,0:0:0:0:
256,192,238376,1,8,0:0:0:0:
256,192,238501,1,8,0:0:0:0:
256,192,238626,5,0,0:0:0:0:
256,192,238876,5,8,0:0:0:0:
256,192,239126,5,0,0:0:0:0:
256,192,239251,1,0,0:0:0:0:
256,192,239376,5,8,0:0:0:0:
256,192,239501,1,8,0:0:0:0:
256,192,239626,5,0,0:0:0:0:
256,192,239876,5,14,0:0:0:0:
256,192,240126,5,0,0:0:0:0:
256,192,240251,5,8,0:0:0:0:
256,192,240376,5,0,0:0:0:0:
256,192,240626,5,8,0:0:0:0:
256,192,240751,5,0,0:0:0:0:
256,192,240876,5,8,0:0:0:0:
256,192,241001,1,8,0:0:0:0:
256,192,241126,5,0,0:0:0:0:
256,192,241376,5,8,0:0:0:0:
256,192,241626,5,0,0:0:0:0:
256,192,241876,5,8,0:0:0:0:
256,192,242001,5,0,0:0:0:0:
256,192,242126,1,0,0:0:0:0:
256,192,242376,5,8,0:0:0:0:
256,192,242626,5,0,0:0:0:0:
256,192,242751,1,0,0:0:0:0:
256,192,242876,5,8,0:0:0:0:
256,192,243001,5,0,0:0:0:0:
256,192,243126,5,8,0:0:0:0:
256,192,243376,1,8,0:0:0:0:
256,192,243501,1,8,0:0:0:0:
256,192,243626,5,0,0:0:0:0:
256,192,243876,5,8,0:0:0:0:
256,192,244126,5,0,0:0:0:0:
256,192,244376,5,8,0:0:0:0:
256,192,244626,1,8,0:0:0:0:
256,192,244751,1,8,0:0:0:0:
256,192,244876,5,0,0:0:0:0:
256,192,245001,5,8,0:0:0:0:
256,192,245126,5,0,0:0:0:0:
256,192,245376,5,8,0:0:0:0:
256,192,245626,5,0,0:0:0:0:
256,192,245876,5,8,0:0:0:0:
256,192,246126,1,8,0:0:0:0:
256,192,246251,1,8,0:0:0:0:
256,192,246376,1,8,0:0:0:0:
256,192,246626,5,0,0:0:0:0:
256,192,246876,5,8,0:0:0:0:
256,192,247126,5,0,0:0:0:0:
256,192,247376,5,8,0:0:0:0:
256,192,247501,1,8,0:0:0:0:
256,192,247626,5,0,0:0:0:0:
256,192,247876,5,14,0:0:0:0:
256,192,248126,5,0,0:0:0:0:
256,192,248376,1,0,0:0:0:0:
256,192,248626,5,8,0:0:0:0:
256,192,248751,5,0,0:0:0:0:
256,192,248876,5,8,0:0:0:0:
256,192,249001,1,8,0:0:0:0:
256,192,249126,5,0,0:0:0:0:
256,192,249376,5,8,0:0:0:0:
256,192,249626,5,0,0:0:0:0:
256,192,249876,5,8,0:0:0:0:
256,192,250001,5,0,0:0:0:0:
256,192,250126,5,8,0:0:0:0:
256,192,250376,1,8,0:0:0:0:
256,192,250626,5,0,0:0:0:0:
256,192,250751,1,0,0:0:0:0:
256,192,250876,5,8,0:0:0:0:
256,192,251126,5,0,0:0:0:0:
256,192,251376,5,8,0:0:0:0:
256,192,251501,1,8,0:0:0:0:
256,192,251626,5,0,0:0:0:0:
256,192,251876,5,14,0:0:0:0:
256,192,252126,5,0,0:0:0:0:
256,192,252376,5,8,0:0:0:0:
256,192,252626,1,8,0:0:0:0:
256,192,252751,1,8,0:0:0:0:
256,192,252876,5,0,0:0:0:0:
256,192,253001,1,0,0:0:0:0:
256,192,253126,5,8,0:0:0:0:
256,192,253376,1,8,0:0:0:0:
256,192,253626,5,0,0:0:0:0:
256,192,253751,1,0,0:0:0:0:
256,192,253876,5,8,0:0:0:0:
256,192,254126,1,8,0:0:0:0:
256,192,254376,1,8,0:0:0:0:
256,192,254626,5,0,0:0:0:0:
256,192,254876,5,8,0:0:0:0:
256,192,255126,5,0,0:0:0:0:
256,192,255376,5,8,0:0:0:0:
256,192,255501,1,8,0:0:0:0:
256,192,255626,5,0,0:0:0:0:
256,192,255876,5,14,0:0:0:0:
