osu file format v12

[General]
AudioFilename: 04 Drop.mp3
AudioLeadIn: 0
PreviewTime: 65251
Countdown: 1
SampleSet: Soft
StackLeniency: 0.7
Mode: 0
LetterboxInBreaks: 1

[Editor]
Bookmarks: 10126,18126,33876,81376,89876,144626,154126,191876,199876,280876
DistanceSpacing: 1.8
BeatDivisor: 4
GridSize: 4

[Metadata]
Title:Drop
TitleUnicode:Drop
Artist:Cornelius
ArtistUnicode:小山田圭吾
Creator:SuperMoutarde
Version:Hard
Source:Point (2001)
Tags:keigo oyamada water bubble shibuya-kei alternative experimental indie 渋谷系 kin
BeatmapID:218494
BeatmapSetID:78004

[Difficulty]
HPDrainRate:5
CircleSize:4
OverallDifficulty:7
ApproachRate:7
SliderMultiplier:2
SliderTickRate:1

[Events]
//Background and Video events
0,0,"bubbles-water.jpg",0,0
//Break Periods
2,81576,88976
2,144826,153226
2,192076,198976
//Storyboard Layer 0 (Background)
//Storyboard Layer 1 (Fail)
//Storyboard Layer 2 (Pass)
//Storyboard Layer 3 (Foreground)
//Storyboard Sound Samples
//Background Colour Transformations
3,100,163,162,255

[TimingPoints]
2126,500,4,2,1,100,1,0
65126,-100,4,2,1,100,0,0
66126,-100,4,2,2,40,0,1
81376,-100,4,2,2,100,0,0
81626,-100,4,2,1,100,0,0
113126,-100,4,2,2,100,0,0
113251,-100,4,2,1,100,0,0
114126,-100,4,2,2,40,0,1
129126,-100,4,2,2,100,0,1
129626,-100,4,2,1,100,0,0
143876,-100,4,2,1,50,0,0
144751,-100,4,2,1,100,0,0
175001,-100,4,2,2,40,0,0
175251,-100,4,2,1,100,0,0
215126,-100,4,2,1,100,0,0
216126,-100,4,2,2,40,0,1
256126,-100,4,2,1,100,0,0
275876,-100,4,2,1,75,0,0
277876,-100,4,2,1,30,0,0
291626,-100,4,2,1,5,0,0

[Colours]
Combo1 : 242,242,242
Combo2 : 113,170,255

[HitObjects]
88,196,18126,2,0,P|124:284|224:308,1,200,0|0,3:0|3:0,0:0:0:0:
319,309,18876,1,2,0:0:0:0:
319,309,19001,1,2,0:0:0:0:
319,309,19126,2,0,P|283:221|188:195,1,200,0|0,3:0|3:0,0:0:0:0:
56,44,20126,5,0,3:0:0:0:
256,44,20626,1,0,3:0:0:0:
328,112,20876,1,2,0:0:0:0:
400,44,21126,2,0,P|432:136|344:212,1,200,0|0,3:0|3:0,0:0:0:0:
184,280,22126,6,0,P|112:280|60:176,1,200,0|0,3:0|3:0,0:0:0:0:
92,80,22876,1,2,0:0:0:0:
92,80,23001,1,2,0:0:0:0:
92,80,23126,2,0,P|164:80|216:184,1,200,0|0,3:0|3:0,0:0:0:0:
372,56,24126,5,0,3:0:0:0:
320,248,24626,1,0,3:0:0:0:
244,312,24876,1,2,0:0:0:0:
164,248,25126,2,0,P|96:176|104:56,1,200,0|0,3:0|3:0,0:0:0:0:
372,104,26126,6,0,P|440:176|432:296,1,200,0|0,3:0|3:0,0:0:0:0:
368,340,26876,1,2,0:0:0:0:
320,344,27001,1,2,0:0:0:0:
272,344,27126,2,0,P|176:320|144:228,1,200,0|0,3:0|3:0,0:0:0:0:
340,196,28126,5,0,3:0:0:0:
144,148,28626,2,0,L|144:48,2,100,0|2|0,3:0|0:0|3:0,0:0:0:0:
340,100,29626,1,0,3:0:0:0:
144,48,30126,5,0,3:0:0:0:
340,100,30626,1,0,3:0:0:0:
340,200,30876,1,2,0:0:0:0:
331,249,31001,1,2,0:0:0:0:
312,296,31126,2,0,P|228:332|128:296,1,200,0|0,3:0|3:0,0:0:0:0:
64,80,32126,6,0,P|156:44|248:80,1,200,0|0,3:0|3:0,0:0:0:0:
200,168,32876,2,0,P|156:152|108:172,1,100,2|0,0:0|3:0,0:0:0:0:
172,360,33626,1,0,3:0:0:0:
268,328,33876,5,4,0:0:0:0:
368,328,34126,2,0,P|348:268|280:240,1,100,0|0,3:0|0:0,0:0:0:0:
220,232,34626,2,0,P|244:172|314:160,1,100,0|2,3:0|0:0,0:0:0:0:
316,132,35001,1,2,0:0:0:0:
304,84,35126,2,0,P|224:100|148:216,1,200,0|0,3:0|3:0,0:0:0:0:
116,284,35876,5,0,0:0:0:0:
204,332,36126,2,0,P|272:312|296:264,1,100,0|0,3:0|0:0,0:0:0:0:
344,208,36626,1,0,3:0:0:0:
396,292,36876,1,2,0:0:0:0:
448,208,37126,2,0,P|408:116|304:112,1,200,0|0,3:0|3:0,0:0:0:0:
236,164,37876,5,0,0:0:0:0:
196,72,38126,2,0,P|140:120|144:168,1,100,0|0,3:0|0:0,0:0:0:0:
236,164,38626,2,0,P|296:120|292:80,1,100,0|2,3:0|0:0,0:0:0:0:
316,56,39001,1,2,0:0:0:0:
364,68,39126,2,0,P|352:174|253:236,1,200,0|0,3:0|3:0,0:0:0:0:
206,292,39876,6,0,P|118:264|90:296,2,100,0|0|0,0:0|3:0|0:0,0:0:0:0:
306,292,40626,2,0,P|394:264|422:296,2,100,0|2|0,3:0|0:0|3:0,0:0:0:0:
256,100,41626,5,0,3:0:0:0:
256,200,41876,2,0,P|320:180|340:152,1,100,0|0,0:0|3:0,0:0:0:0:
256,100,42376,1,0,0:0:0:0:
344,52,42626,2,0,P|396:64|424:120,1,100,0|2,3:0|0:0,0:0:0:0:
440,144,43001,1,2,0:0:0:0:
456,192,43126,2,0,P|444:280|336:304,1,200,0|0,3:0|3:0,0:0:0:0:
356,212,43876,6,0,P|284:256|280:284,2,100,0|0|0,0:0|3:0|0:0,0:0:0:0:
324,116,44626,1,0,3:0:0:0:
232,156,44876,1,2,0:0:0:0:
180,244,45126,1,0,3:0:0:0:
36,108,45626,6,0,P|88:92|116:48,1,100,0|0,3:0|0:0,0:0:0:0:
213,56,46126,1,0,3:0:0:0:
276,136,46376,1,0,0:0:0:0:
336,56,46626,2,0,P|376:92|388:140,1,100,0|2,3:0|0:0,0:0:0:0:
392,184,47001,1,2,0:0:0:0:
392,232,47126,2,0,P|392:280|244:300,1,200,0|0,3:0|3:0,0:0:0:0:
284,228,47876,5,0,0:0:0:0:
192,192,48126,1,0,3:0:0:0:
284,148,48376,1,0,0:0:0:0:
192,112,48626,1,0,3:0:0:0:
284,72,48876,1,2,0:0:0:0:
192,36,49126,1,0,3:0:0:0:
392,64,49626,6,0,P|420:132|416:168,1,100,0|0,3:0|0:0,0:0:0:0:
392,320,50126,2,0,P|420:252|416:216,1,100,2|2,3:2|0:0,0:0:0:0:
268,120,50626,2,0,P|243:121|175:93,1,100,2|2,3:2|0:0,0:0:0:0:
268,264,51126,2,0,P|243:262|175:290,1,100,2|2,3:2|0:0,0:0:0:0:
148,192,51626,5,0,3:0:0:0:
248,192,51876,2,0,L|360:192,2,100,4|0|0,0:0|3:0|0:0,0:0:0:0:
148,192,52626,2,0,P|104:136|112:96,1,100,2|2,3:2|0:0,0:0:0:0:
96,64,53001,1,2,0:0:0:0:
136,36,53126,2,0,P|200:24|232:40,1,100,0|0,3:0|0:0,0:0:0:0:
228,140,53626,5,0,3:0:0:0:
320,104,53876,2,0,P|328:164|268:216,2,100,0|2|2,0:0|3:2|0:0,0:0:0:0:
396,40,54626,2,0,P|432:100|424:144,1,100,2|2,3:2|0:0,0:0:0:0:
400,224,55126,2,0,P|380:284|400:332,2,100,2|2|0,3:2|0:0|3:0,0:0:0:0:
320,164,55876,6,0,P|256:104|220:96,1,100,4|0,0:0|3:0,0:0:0:0:
148,116,56376,2,0,P|224:176|252:176,1,100,0|0,0:0|3:0,0:0:0:0:
284,252,56876,1,2,0:0:0:0:
284,252,57126,1,0,3:0:0:0:
84,248,57626,5,0,3:0:0:0:
56,152,57876,2,0,P|52:84|100:40,1,100,0|2,0:0|3:2,0:0:0:0:
168,40,58376,2,0,P|232:64|300:40,1,100,2|2,0:0|3:2,0:0:0:0:
364,56,58876,1,2,0:0:0:0:
364,56,59126,1,0,3:0:0:0:
439,121,59376,1,2,0:0:0:0:
336,152,59626,5,0,3:0:0:0:
408,220,59876,1,4,0:0:0:0:
312,248,60126,1,0,3:0:0:0:
236,180,60376,2,0,P|200:224|120:208,1,100,0|0,0:0|3:0,0:0:0:0:
152,132,60876,1,2,0:0:0:0:
152,132,61001,1,2,0:0:0:0:
152,132,61126,2,0,P|200:84|264:100,1,100,0|0,3:0|0:0,0:0:0:0:
320,128,61626,1,0,3:0:0:0:
256,192,61876,12,4,63876,0:0:0:0:
92,140,65376,5,0,0:0:0:0:
216,272,65626,1,0,0:0:0:0:
396,288,65876,1,4,0:0:0:0:
216,272,66626,5,0,0:0:0:0:
244,232,66751,1,0,0:0:0:0:
260,184,66876,1,0,0:0:0:0:
280,88,67126,1,0,0:0:0:0:
32,60,67751,5,0,0:0:0:0:
64,100,67876,1,0,0:0:0:0:
84,144,68001,1,0,0:0:0:0:
96,192,68126,2,0,P|108:268|208:348,1,200
248,324,68751,5,0,0:0:0:0:
268,276,68876,1,0,0:0:0:0:
280,228,69001,1,0,0:0:0:0:
280,176,69126,1,0,0:0:0:0:
272,24,69626,1,0,0:0:0:0:
232,84,70876,5,0,0:0:0:0:
280,88,71001,1,0,0:0:0:0:
316,124,71126,1,0,0:0:0:0:
220,300,71626,6,0,P|180:256|160:248,1,50
144,240,71876,2,0,P|120:212|116:184,1,50
108,152,72126,1,0,0:0:0:0:
320,76,72626,5,0,0:0:0:0:
316,124,72751,1,0,0:0:0:0:
284,164,72876,1,0,0:0:0:0:
224,84,73126,2,0,P|180:44|44:72,1,200
36,112,73751,1,0,0:0:0:0:
36,160,73876,1,0,0:0:0:0:
380,256,74626,5,0,0:0:0:0:
380,208,74751,1,0,0:0:0:0:
380,158,74876,1,0,0:0:0:0:
380,58,75126,1,0,0:0:0:0:
164,188,75751,5,0,0:0:0:0:
196,228,75876,1,0,0:0:0:0:
212,276,76001,1,0,0:0:0:0:
220,324,76126,1,0,0:0:0:0:
360,263,76501,6,0,L|288:207,1,50,0|0,0:0|0:0,0:0:0:0:
296,188,76751,2,0,L|280:132,1,50,0|0,0:0|0:0,0:0:0:0:
276,92,77001,2,0,L|276:28,1,50,0|0,0:0|0:0,0:0:0:0:
368,100,78876,5,0,0:0:0:0:
360,148,79001,1,0,0:0:0:0:
328,188,79126,1,0,0:0:0:0:
144,256,79626,6,0,P|124:228|120:200,1,50
124,164,79876,2,0,L|132:136|136:104,1,50
140,64,80126,1,0,0:0:0:0:
348,56,80626,5,0,0:0:0:0:
372,100,80751,1,0,0:0:0:0:
400,140,80876,2,0,P|424:204|432:352,1,200
112,272,89876,6,0,P|96:224|128:180,1,100,0|0,0:0|3:0,0:0:0:0:
212,228,90376,2,0,P|232:168|196:128,1,100,0|0,0:0|3:0,0:0:0:0:
132,84,90876,1,0,0:0:0:0:
132,84,91126,1,0,3:0:0:0:
224,44,91376,2,0,P|272:60|296:136,1,100,0|2,0:0|3:2,0:0:0:0:
388,56,91876,6,0,L|468:136,1,100,2|0,0:0|3:0,0:0:0:0:
360,144,92376,2,0,L|416:252,1,100,0|0,0:0|3:0,0:0:0:0:
308,224,92876,1,0,0:0:0:0:
308,224,93126,1,0,3:0:0:0:
224,264,93376,2,0,L|224:128,2,100,0|0|0,0:0|3:0|0:0,0:0:0:0:
132,220,94126,5,0,3:0:0:0:
132,120,94376,1,0,3:0:0:0:
44,168,94626,1,2,3:2:0:0:
44,72,94876,1,2,0:0:0:0:
132,24,95126,1,2,3:2:0:0:
220,72,95376,1,0,0:0:0:0:
220,172,95626,1,0,3:0:0:0:
307,124,95876,6,0,L|404:28,1,100,0|0,0:0|3:0,0:0:0:0:
307,124,96376,2,0,L|440:124,1,100,0|0,0:0|3:0,0:0:0:0:
308,124,96876,2,0,L|385:204,1,100,2|0,0:0|3:0,0:0:0:0:
444,272,97376,1,2,0:0:0:0:
444,272,97626,1,0,3:0:0:0:
344,272,97876,6,0,P|296:256|248:276,1,100,4|0,0:0|3:0,0:0:0:0:
180,344,98376,2,0,P|144:296|160:240,1,100,0|2,0:0|3:2,0:0:0:0:
216,184,98876,1,2,0:0:0:0:
304,140,99126,1,2,3:2:0:0:
232,72,99376,2,0,P|172:72|136:112,1,100,0|0,0:0|3:0,0:0:0:0:
96,184,99876,6,0,P|48:140|48:84,2,100,4|0|0,0:0|3:0|0:0,0:0:0:0:
164,260,100626,1,2,3:2:0:0:
256,300,100876,1,2,0:0:0:0:
348,260,101126,1,0,3:0:0:0:
256,84,101626,5,0,3:0:0:0:
156,84,101876,2,0,P|160:120|227:163,1,100,4|0,0:0|3:0,0:0:0:0:
306,160,102376,2,0,P|352:120|356:84,1,100,0|0,0:0|3:0,0:0:0:0:
440,36,102876,1,2,0:0:0:0:
440,136,103126,1,2,3:2:0:0:
440,236,103376,5,0,0:0:0:0:
440,236,103626,1,0,3:0:0:0:
440,236,103876,2,0,P|412:296|368:304,1,100,4|0,0:0|3:0,0:0:0:0:
304,244,104376,2,0,P|236:232|188:268,1,100,0|2,0:0|3:2,0:0:0:0:
128,305,104876,2,0,P|100:296|72:236,1,100,2|0,0:0|3:0,0:0:0:0:
71,135,105376,5,0,0:0:0:0:
71,34,105626,2,0,P|136:56|156:108,1,100,0|4,3:0|0:0,0:0:0:0:
172,180,106126,2,0,P|244:132|244:96,1,100,0|0,3:0|0:0,0:0:0:0:
268,28,106626,2,0,P|324:52|336:120,1,100,2|2,3:2|0:0,0:0:0:0:
339,185,107126,1,2,3:2:0:0:
339,185,107376,5,0,0:0:0:0:
340,280,107626,1,0,3:0:0:0:
340,280,107876,2,0,P|401:255|419:228,1,100,4|2,0:0|3:2,0:0:0:0:
418,145,108376,2,0,P|400:118|339:93,1,100,0|2,0:0|3:2,0:0:0:0:
339,185,108876,5,2,0:0:0:0:
339,185,109126,1,0,3:0:0:0:
256,192,109626,12,0,113126,0:0:0:0:
56,132,113376,5,0,0:0:0:0:
232,168,113626,1,0,0:0:0:0:
362,292,113876,1,0,0:0:0:0:
144,296,114626,5,0,0:0:0:0:
152,248,114751,1,0,0:0:0:0:
148,200,114876,2,0,P|136:128|144:88,1,100
400,128,115751,5,0,0:0:0:0:
372,172,115876,1,0,0:0:0:0:
356,220,116001,1,0,0:0:0:0:
348,268,116126,1,0,0:0:0:0:
172,364,116626,5,0,0:0:0:0:
208,328,116751,1,0,0:0:0:0:
228,280,116876,1,0,0:0:0:0:
240,232,117001,1,0,0:0:0:0:
244,184,117126,1,0,0:0:0:0:
440,156,117626,1,0,0:0:0:0:
400,128,117751,1,0,0:0:0:0:
384,80,117876,1,0,0:0:0:0:
104,56,118876,5,0,0:0:0:0:
104,104,119001,1,0,0:0:0:0:
140,140,119126,1,0,0:0:0:0:
320,52,119626,2,0,P|324:88|352:112,1,50
364,140,119876,2,0,P|376:172|368:208,1,50
364,236,120126,1,0,0:0:0:0:
152,328,120626,5,0,0:0:0:0:
108,304,120751,1,0,0:0:0:0:
72,268,120876,2,0,P|40:212|44:176,1,100
232,124,121626,1,0,0:0:0:0:
248,76,121751,1,0,0:0:0:0:
244,28,121876,1,0,0:0:0:0:
452,116,122626,5,0,0:0:0:0:
428,160,122751,1,0,0:0:0:0:
416,208,122876,1,0,0:0:0:0:
396,308,123126,1,0,0:0:0:0:
148,312,123751,5,0,0:0:0:0:
176,272,123876,1,0,0:0:0:0:
180,224,124001,1,0,0:0:0:0:
176,176,124126,1,0,0:0:0:0:
312,236,124501,2,0,L|320:168,1,50,0|0,0:0|0:0,0:0:0:0:
352,148,124751,2,0,L|376:88,1,50,0|0,0:0|0:0,0:0:0:0:
328,76,125001,2,0,L|312:24,1,50,0|0,0:0|0:0,0:0:0:0:
112,132,126876,5,0,0:0:0:0:
136,176,127001,1,0,0:0:0:0:
144,224,127126,1,0,0:0:0:0:
328,308,127626,5,0,0:0:0:0:
352,264,127751,1,0,0:0:0:0:
364,216,127876,1,0,0:0:0:0:
368,168,128001,1,0,0:0:0:0:
364,120,128126,1,0,0:0:0:0:
178,44,128626,5,0,0:0:0:0:
225,59,128751,1,0,0:0:0:0:
264,96,128876,2,0,P|292:208|351:263,1,200
76,312,130126,6,0,P|216:248|236:168,1,200,0|0,3:0|3:0,0:0:0:0:
132,204,130876,1,2,0:0:0:0:
132,204,131001,1,2,0:0:0:0:
132,204,131126,2,0,P|160:132|272:96,1,200,0|0,3:0|3:0,0:0:0:0:
352,280,132126,5,0,3:0:0:0:
352,79,132626,1,0,3:0:0:0:
281,149,132876,1,2,0:0:0:0:
210,78,133126,2,0,P|164:136|228:236,1,200,0|0,3:0|3:0,0:0:0:0:
408,303,134126,6,0,P|432:227|404:111,1,200,0|0,3:0|3:0,0:0:0:0:
312,72,134876,1,2,0:0:0:0:
268,48,135001,1,2,0:0:0:0:
224,72,135126,2,0,P|200:148|228:264,1,200,0|0,3:0|3:0,0:0:0:0:
400,244,136126,5,0,3:0:0:0:
200,244,136626,2,0,L|304:244,2,100,0|2|0,3:0|0:0|3:0,0:0:0:0:
400,152,137626,5,0,3:0:0:0:
200,152,138126,1,0,3:0:0:0:
400,152,138626,1,0,3:0:0:0:
300,136,138876,5,2,0:0:0:0:
300,186,139001,1,2,0:0:0:0:
300,236,139126,1,2,3:2:0:0:
300,36,139626,5,0,3:0:0:0:
108,88,140126,1,0,3:0:0:0:
108,288,140626,1,2,3:2:0:0:
178,217,140876,1,2,0:0:0:0:
248,288,141126,1,2,3:2:0:0:
448,288,141626,5,0,3:0:0:0:
364,108,142126,1,0,3:0:0:0:
168,64,142626,1,0,3:0:0:0:
168,164,142876,1,2,0:0:0:0:
168,164,143126,1,2,3:2:0:0:
336,276,143626,5,0,3:0:0:0:
332,176,143876,1,0,3:0:0:0:
380,88,144126,2,0,P|344:68|276:88,1,100,0|0,0:0|0:0,0:0:0:0:
288,78,144626,1,0,0:0:0:0:
100,304,154126,6,0,P|156:172|312:120,1,300,0|4,0:0|0:0,0:0:0:0:
396,104,155126,2,0,P|372:180|329:190,1,100,0|0,3:0|0:0,0:0:0:0:
264,212,155626,1,0,3:0:0:0:
212,296,155876,6,0,P|276:316|320:272,1,100,0|0,0:0|3:0,0:0:0:0:
400,276,156376,1,0,0:0:0:0:
400,276,156626,1,0,3:0:0:0:
376,180,156876,6,0,P|324:112|280:116,1,100,4|0,0:0|3:0,0:0:0:0:
216,96,157376,1,0,0:0:0:0:
216,96,157626,1,0,3:0:0:0:
116,96,157876,6,0,L|52:40,2,50,2|2|2,0:0|0:0|3:2,0:0:0:0:
92,140,158251,2,0,L|12:140,2,50,2|2|2,0:0|0:0|0:0,0:0:0:0:
116,184,158626,2,0,L|52:240,2,50,2|2|2,3:2|0:0|0:0,0:0:0:0:
153,217,159001,2,0,L|153:289,1,50,2|2,0:0|3:2,0:0:0:0:
104,356,159376,1,0,0:0:0:0:
200,336,159626,1,0,3:0:0:0:
296,340,159876,5,0,0:0:0:0:
388,296,160126,1,0,3:0:0:0:
296,256,160376,1,0,0:0:0:0:
388,212,160626,1,0,3:0:0:0:
296,176,160876,6,0,P|244:140|232:88,1,100,4|0,0:0|3:0,0:0:0:0:
332,88,161376,1,0,0:0:0:0:
252,24,161626,1,0,3:0:0:0:
176,88,161876,6,0,L|120:56,2,50,2|2|2,0:0|0:0|3:2,0:0:0:0:
176,140,162251,2,0,L|232:172,2,50,2|2|2,0:0|0:0|0:0,0:0:0:0:
132,164,162626,2,0,L|76:132,2,50,2|2|2,3:2|0:0|0:0,0:0:0:0:
112,212,163001,2,0,L|168:244,1,50,2|2,0:0|3:2,0:0:0:0:
260,212,163376,1,0,0:0:0:0:
300,304,163626,1,0,3:0:0:0:
364,228,163876,6,0,P|348:148|228:112,1,200
148,132,164626,1,0,3:0:0:0:
136,232,164876,6,0,P|32:156|52:80,1,200,4|0,0:0|0:0,0:0:0:0:
148,132,165626,1,0,3:0:0:0:
135,33,165876,6,0,P|246:137|227:189,1,200
148,132,166626,1,0,3:0:0:0:
136,232,166876,6,0,P|228:288|336:228,1,200,4|0,0:0|0:0,0:0:0:0:
396,208,167626,1,0,3:0:0:0:
366,112,167876,1,0,0:0:0:0:
288,176,168126,6,0,P|232:144|232:76,1,100,0|0,3:0|0:0,0:0:0:0:
140,56,168626,1,0,3:0:0:0:
132,156,168876,1,4,0:0:0:0:
192,236,169126,1,0,3:0:0:0:
92,248,169376,1,0,0:0:0:0:
92,248,169626,1,0,3:0:0:0:
152,328,169876,6,0,P|284:268|288:216,1,200
244,140,170626,1,0,0:0:0:0:
256,192,170876,12,0,175126,0:0:0:0:
160,240,176126,6,0,P|144:156|248:80,1,200,0|0,3:0|3:0,0:0:0:0:
320,84,176876,1,2,0:0:0:0:
368,100,177001,1,2,0:0:0:0:
396,140,177126,2,0,P|412:224|308:300,1,200,0|0,3:0|3:0,0:0:0:0:
196,152,178126,6,0,P|160:240|40:212,1,200,0|0,3:0|3:0,0:0:0:0:
104,148,178876,1,2,0:0:0:0:
160,64,179126,2,0,P|264:80|288:180,1,200,0|0,3:0|3:0,0:0:0:0:
152,304,180126,5,0,3:0:0:0:
340,240,180626,1,0,3:0:0:0:
240,196,180876,1,2,0:0:0:0:
220,148,181001,1,2,0:0:0:0:
184,112,181126,2,0,P|92:100|104:184,1,200,0|0,3:0|3:0,0:0:0:0:
256,308,182126,6,0,P|332:344|432:288,1,200,0|0,3:0|3:0,0:0:0:0:
340,240,182876,1,2,0:0:0:0:
340,240,183126,1,0,3:0:0:0:
140,240,183626,1,0,3:0:0:0:
60,180,183876,6,0,P|104:144|176:156,1,100,4|0,0:0|3:0,0:0:0:0:
224,200,184376,1,0,0:0:0:0:
240,100,184626,2,0,P|208:60|128:56,2,100,2|2|2,3:2|0:0|3:2,0:0:0:0:
312,168,185376,1,2,0:0:0:0:
384,96,185626,1,0,3:0:0:0:
400,196,185876,6,0,P|376:248|304:256,1,100,0|0,0:0|3:0,0:0:0:0:
240,272,186376,2,0,P|256:324|320:348,2,100,0|0|2,0:0|3:0|0:0,0:0:0:0:
156,324,187126,2,0,P|148:232|244:180,1,200,0|0,3:0|3:0,0:0:0:0:
328,152,187876,6,0,P|304:104|240:80,1,100,0|0,0:0|3:0,0:0:0:0:
168,112,188376,2,0,P|164:52|220:4,2,100,0|2|2,0:0|3:2|0:0,0:0:0:0:
76,156,189126,2,0,P|104:200|176:200,1,100,2|2,3:2|0:0,0:0:0:0:
248,192,189626,1,0,3:0:0:0:
318,262,189876,5,0,0:0:0:0:
388,191,190126,1,0,3:0:0:0:
317,120,190376,1,0,0:0:0:0:
388,48,190626,1,0,3:0:0:0:
317,120,190876,1,2,0:0:0:0:
284,28,191126,2,0,P|228:64|224:108,1,100,0|0,3:0|0:0,0:0:0:0:
248,192,191626,1,0,3:0:0:0:
156,156,191876,1,0,0:0:0:0:
120,64,199876,6,0,P|92:132|96:168,1,100,4|0,0:0|3:2,0:0:0:0:
120,320,200376,2,0,P|92:252|96:216,1,100,0|2,0:0|3:2,0:0:0:0:
244,120,200876,2,0,P|269:121|337:93,1,100,2|2,0:0|3:2,0:0:0:0:
244,264,201376,2,0,P|269:262|337:290,1,100,2|2,0:0|3:2,0:0:0:0:
328,192,201876,6,0,L|432:192,2,100,4|0|2,0:0|3:0|0:0,0:0:0:0:
228,192,202626,1,0,3:2:0:0:
128,192,202876,1,2,0:0:0:0:
128,192,203001,1,2,0:0:0:0:
128,192,203126,2,0,P|160:128|216:100,1,100,0|0,3:0|0:0,0:0:0:0:
276,76,203626,2,0,P|240:24|196:12,1,100,0|0,3:0|0:0,0:0:0:0:
128,76,204126,5,2,3:2:0:0:
44,132,204376,1,2,0:0:0:0:
128,188,204626,1,2,3:2:0:0:
44,244,204876,1,2,0:0:0:0:
128,300,205126,2,0,P|192:280|208:232,1,100,2|2,3:2|0:0,0:0:0:0:
128,188,205626,1,2,3:2:0:0:
228,172,205876,6,0,P|280:156|332:200,1,100,4|0,0:0|3:0,0:0:0:0:
268,260,206376,1,0,0:0:0:0:
368,252,206626,1,2,3:2:0:0:
408,160,206876,1,2,0:0:0:0:
348,80,207126,1,0,3:0:0:0:
248,80,207376,1,0,0:0:0:0:
248,80,207626,1,0,3:0:0:0:
148,80,207876,6,0,L|8:80,2,100,4|0|0,0:0|3:0|0:0,0:0:0:0:
84,156,208626,2,0,L|204:156,2,100,2|2|2,3:2|0:0|3:2,0:0:0:0:
136,240,209376,1,2,0:0:0:0:
136,240,209626,1,2,3:2:0:0:
44,284,209876,6,0,P|84:328|140:332,1,100,4|0,0:0|3:0,0:0:0:0:
136,240,210376,1,0,0:0:0:0:
236,240,210626,1,0,3:0:0:0:
336,240,210876,1,2,0:0:0:0:
336,240,211001,1,2,0:0:0:0:
336,240,211126,2,0,P|304:160|256:144,1,100,0|0,3:0|0:0,0:0:0:0:
236,240,211626,1,0,3:0:0:0:
256,192,212126,12,4,213876,0:0:0:0:
140,324,215376,5,0,0:0:0:0:
304,248,215626,1,0,0:0:0:0:
376,84,215876,1,0,0:0:0:0:
76,76,216626,5,0,0:0:0:0:
120,100,216751,1,0,0:0:0:0:
148,144,216876,1,0,0:0:0:0:
188,236,217126,1,0,0:0:0:0:
436,212,217751,5,0,0:0:0:0:
408,172,217876,1,0,0:0:0:0:
388,124,218001,1,0,0:0:0:0:
380,76,218126,1,0,0:0:0:0:
180,48,218626,6,0,P|208:64|216:88,1,50
224,128,218876,2,0,P|236:168|260:192,1,50
268,216,219126,1,0,0:0:0:0:
112,320,219626,5,0,0:0:0:0:
124,272,219751,1,0,0:0:0:0:
132,224,219876,1,0,0:0:0:0:
424,304,220876,1,0,0:0:0:0:
408,256,221001,1,0,0:0:0:0:
408,208,221126,1,0,0:0:0:0:
224,132,221626,5,0,0:0:0:0:
232,180,221751,1,0,0:0:0:0:
240,228,221876,1,0,0:0:0:0:
240,276,222001,1,0,0:0:0:0:
236,324,222126,1,0,0:0:0:0:
36,332,222626,5,0,0:0:0:0:
84,312,222751,1,0,0:0:0:0:
124,280,222876,2,0,P|152:232|152:188,1,100
4,96,223626,1,0,0:0:0:0:
40,64,223751,1,0,0:0:0:0:
68,24,223876,1,0,0:0:0:0:
364,72,224626,5,0,0:0:0:0:
348,120,224751,1,0,0:0:0:0:
340,168,224876,2,0,P|328:232|336:304,1,100
92,332,225751,5,0,0:0:0:0:
116,288,225876,1,0,0:0:0:0:
124,240,226001,1,0,0:0:0:0:
124,192,226126,1,0,0:0:0:0:
228,248,226501,2,0,L|256:192,1,50,0|0,0:0|0:0,0:0:0:0:
248,164,226751,2,0,L|204:100,1,50,0|0,0:0|0:0,0:0:0:0:
212,84,227001,2,0,L|220:16,1,50,0|0,0:0|0:0,0:0:0:0:
272,56,228876,5,0,0:0:0:0:
268,104,229001,1,0,0:0:0:0:
252,152,229126,1,0,0:0:0:0:
56,196,229626,1,0,0:0:0:0:
76,240,229751,1,0,0:0:0:0:
116,268,229876,1,0,0:0:0:0:
412,304,230626,5,0,0:0:0:0:
388,260,230751,1,0,0:0:0:0:
364,216,230876,2,0,P|352:156|356:112,1,100
148,76,232626,5,0,0:0:0:0:
176,116,232751,1,0,0:0:0:0:
196,160,232876,2,0,P|212:224|208:272,1,100
436,272,233751,5,0,0:0:0:0:
409,229,233876,1,0,0:0:0:0:
392,184,234001,1,0,0:0:0:0:
384,136,234126,1,0,0:0:0:0:
216,32,234626,6,0,P|240:72|240:88,1,50
244,124,234876,2,0,P|264:164|296:180,1,50
296,208,235126,1,0,0:0:0:0:
84,176,235626,5,0,0:0:0:0:
88,128,235751,1,0,0:0:0:0:
88,80,235876,1,0,0:0:0:0:
424,176,236876,5,0,0:0:0:0:
408,224,237001,1,0,0:0:0:0:
404,272,237126,1,0,0:0:0:0:
212,212,237626,5,0,0:0:0:0:
240,168,237751,1,0,0:0:0:0:
244,120,237876,1,0,0:0:0:0:
244,72,238001,1,0,0:0:0:0:
248,24,238126,1,0,0:0:0:0:
440,88,238626,5,0,0:0:0:0:
396,112,238751,1,0,0:0:0:0:
360,148,238876,1,0,0:0:0:0:
300,228,239126,2,0,P|260:296|144:340,1,200
368,280,240626,5,0,0:0:0:0:
384,232,240751,1,0,0:0:0:0:
388,184,240876,1,0,0:0:0:0:
384,84,241126,1,0,0:0:0:0:
140,136,241751,5,0,0:0:0:0:
156,184,241876,1,0,0:0:0:0:
164,232,242001,1,0,0:0:0:0:
168,280,242126,1,0,0:0:0:0:
316,312,242501,5,0,0:0:0:0:
308,264,242626,1,0,0:0:0:0:
316,216,242751,1,0,0:0:0:0:
320,168,242876,1,0,0:0:0:0:
304,120,243001,1,0,0:0:0:0:
308,72,243126,1,0,0:0:0:0:
84,100,244876,5,0,0:0:0:0:
124,128,245001,1,0,0:0:0:0:
144,176,245126,1,0,0:0:0:0:
344,188,245626,1,0,0:0:0:0:
300,212,245751,1,0,0:0:0:0:
276,256,245876,1,0,0:0:0:0:
100,172,246626,5,0,0:0:0:0:
124,128,246751,1,0,0:0:0:0:
132,80,246876,1,0,0:0:0:0:
384,112,248626,5,0,0:0:0:0:
392,160,248751,1,0,0:0:0:0:
412,204,248876,2,0,P|428:264|424:320,1,100
148,336,249751,5,0,0:0:0:0:
180,296,249876,1,0,0:0:0:0:
200,248,250001,1,0,0:0:0:0:
212,200,250126,1,0,0:0:0:0:
68,236,250501,2,0,L|28:172,1,50,0|0,0:0|0:0,0:0:0:0:
80,164,250751,2,0,L|112:112,1,50,0|0,0:0|0:0,0:0:0:0:
108,72,251001,2,0,L|92:-8,1,50,0|0,0:0|0:0,0:0:0:0:
284,92,251626,5,0,0:0:0:0:
312,132,251751,1,0,0:0:0:0:
328,180,251876,1,0,0:0:0:0:
104,304,252876,5,0,0:0:0:0:
116,256,253001,1,0,0:0:0:0:
120,208,253126,1,0,0:0:0:0:
328,180,253626,1,0,0:0:0:0:
336,132,253751,1,0,0:0:0:0:
336,84,253876,1,0,0:0:0:0:
36,52,254626,5,0,0:0:0:0:
80,72,254751,1,0,0:0:0:0:
120,104,254876,1,0,0:0:0:0:
200,164,255126,2,0,P|244:256|328:304,1,200
256,192,256126,12,0,259626,3:0:0:0:
256,192,260126,12,0,263626,3:0:0:0:
108,224,264126,6,0,P|228:128|284:136,1,200,0|0,3:0|3:0,0:0:0:0:
364,144,264876,2,0,P|356:192|284:216,1,100,0|0,0:0|3:0,0:0:0:0:
216,224,265376,1,0,0:0:0:0:
216,224,265626,1,0,3:0:0:0:
148,152,265876,6,0,L|80:152,2,50,2|2|2,0:0|0:0|3:2,0:0:0:0:
148,101,266251,2,0,L|148:45,1,50,2|2,0:0|0:0,0:0:0:0:
198,52,266501,2,0,L|248:52,1,50,2|2,0:0|3:2,0:0:0:0:
348,52,266876,5,0,0:0:0:0:
432,108,267126,1,0,3:0:0:0:
348,160,267376,1,0,0:0:0:0:
348,210,267501,1,0,0:0:0:0:
348,260,267626,1,0,3:2:0:0:
248,264,267876,6,0,L|248:328,2,50,2|2|2,0:0|0:0|3:2,0:0:0:0:
198,264,268251,2,0,L|144:264,1,50,2|2,0:0|0:0,0:0:0:0:
98,264,268501,2,0,L|98:208,1,50,2|2,0:0|3:2,0:0:0:0:
98,114,268876,5,0,0:0:0:0:
98,114,269126,1,0,3:0:0:0:
198,114,269376,1,0,0:0:0:0:
198,114,269626,1,0,3:0:0:0:
298,114,269876,6,0,L|344:68,2,50,2|2|2,0:0|0:0|3:2,0:0:0:0:
298,164,270251,1,2,0:0:0:0:
298,214,270376,2,0,L|344:260,2,50,2|2|2,0:0|0:0|3:2,0:0:0:0:
232,292,270876,5,0,0:0:0:0:
232,292,271126,1,0,3:0:0:0:
129,292,271376,1,0,0:0:0:0:
129,242,271501,1,0,0:0:0:0:
129,192,271626,1,0,3:2:0:0:
129,91,271876,5,0,3:0:0:0:
208,32,272126,2,0,P|260:20|304:32,1,100,0|0,3:0|0:0,0:0:0:0:
383,91,272626,1,0,3:0:0:0:
304,156,272876,1,0,0:0:0:0:
383,219,273126,1,0,0:0:0:0:
304,284,273376,1,0,0:0:0:0:
383,344,273626,1,0,0:0:0:0:
304,284,273876,6,0,L|238:322,1,50,2|2,0:0|0:0,0:0:0:0:
216,284,274126,2,0,L|150:322,1,50,2|2,3:2|0:0,0:0:0:0:
128,284,274376,2,0,L|62:322,1,50,2|2,0:0|0:0,0:0:0:0:
40,332,274626,1,2,3:2:0:0:
114,146,275126,5,0,3:0:0:0:
206,106,275376,1,2,0:0:0:0:
306,106,275626,1,0,3:0:0:0:
256,192,275876,5,0,0:0:0:0:
316,272,276126,1,0,3:0:0:0:
394,333,276376,2,0,P|428:312|444:256,1,100,0|0,0:0|3:0,0:0:0:0:
256,192,277876,5,0,0:0:0:0:
444,128,278376,2,0,P|428:72|394:51,1,100
118,51,279126,2,0,P|84:72|68:128,1,100
68,256,279876,2,0,P|84:312|118:333,1,100
394,333,280626,2,0,P|428:312|444:256,1,100,0|0,0:0|0:0,0:0:0:0:
256,192,281376,12,0,291626,0:0:0:0:
