osu file format v14

[General]
AudioFilename: those_wacky_japanese.mp3
AudioLeadIn: 0
PreviewTime: 0
Countdown: 0
SampleSet: None
StackLeniency: 0.7
Mode: 1
LetterboxInBreaks: 1
WidescreenStoryboard: 1

[Editor]
DistanceSpacing: 1.2
BeatDivisor: 16
GridSize: 4
TimelineZoom: 1

[Metadata]
Title:those wacky japanese
TitleUnicode:those wacky japanese
Artist:Corah G
ArtistUnicode:Corah G
Creator:Absolute Zero
Version:the wacky japanese taiko drum
Source:Memories of the Phantasm
Tags:
BeatmapID:1312433
BeatmapSetID:622556

[Difficulty]
HPDrainRate:6
CircleSize:4
OverallDifficulty:0
ApproachRate:0
SliderMultiplier:3.39999990463257
SliderTickRate:1

[Events]
//Background and Video events
0,0,"TACO.png",0,0
//Break Periods
//Storyboard Layer 0 (Background)
//Storyboard Layer 1 (Fail)
//Storyboard Layer 2 (Pass)
//Storyboard Layer 3 (Foreground)
//Storyboard Sound Samples

[TimingPoints]
0,500,4,1,0,100,1,0
524,214.285714285714,4,1,0,100,1,0
928,240,4,1,0,100,1,0
1750,428.571428571429,4,1,0,100,1,0
2392,400,4,1,0,100,1,0

[Colours]
Combo1 : 0,0,255
Combo2 : 255,0,0

[HitObjects]
264,188,0,5,4,0:0:0:0:
262,80,125,1,6,0:0:0:0:
262,80,187,1,4,0:0:0:0:
262,80,250,1,6,0:0:0:0:
262,80,312,1,0,0:0:0:0:
262,80,375,1,0,0:0:0:0:
262,80,437,1,2,0:0:0:0:
407,78,500,1,0,0:0:0:0:
407,78,541,1,2,0:0:0:0:
407,78,559,1,2,0:0:0:0:
407,78,577,1,2,0:0:0:0:
407,78,595,1,4,0:0:0:0:
407,78,613,1,0,0:0:0:0:
418,189,631,1,0,0:0:0:0:
418,189,684,1,2,0:0:0:0:
418,189,738,1,6,0:0:0:0:
418,189,791,1,4,0:0:0:0:
407,304,845,1,2,0:0:0:0:
407,304,898,1,2,0:0:0:0:
196,308,928,5,0,0:0:0:0:
196,308,988,1,2,0:0:0:0:
196,308,1048,1,0,0:0:0:0:
196,308,1088,1,0,0:0:0:0:
196,308,1128,1,2,0:0:0:0:
196,308,1168,1,2,0:0:0:0:
196,308,1228,1,2,0:0:0:0:
196,308,1248,1,2,0:0:0:0:
196,308,1288,1,6,0:0:0:0:
196,308,1348,1,4,0:0:0:0:
95,200,1408,1,6,0:0:0:0:
95,200,1428,1,4,0:0:0:0:
204,202,1468,1,2,0:0:0:0:
204,202,1488,1,6,0:0:0:0:
328,200,1528,1,4,0:0:0:0:
328,200,1548,1,2,0:0:0:0:
136,76,1648,1,2,0:0:0:0:
136,76,1750,1,2,0:0:0:0:
384,132,1803,1,0,0:0:0:0:
248,56,1857,1,2,0:0:0:0:
292,232,1910,1,0,0:0:0:0:
336,72,1964,1,2,0:0:0:0:
304,76,2000,1,0,0:0:0:0:
436,72,2035,1,2,0:0:0:0:
384,80,2071,1,0,0:0:0:0:
316,152,2107,1,2,0:0:0:0:
200,56,2142,1,0,0:0:0:0:
228,136,2178,1,2,0:0:0:0:
308,108,2205,1,0,0:0:0:0:
148,132,2232,1,2,0:0:0:0:
236,56,2258,1,0,0:0:0:0:
72,108,2285,1,2,0:0:0:0:
328,32,2312,1,0,0:0:0:0:
64,72,2339,1,2,0:0:0:0:
