osu file format v9

[General]
AudioFilename: Dreams Can Be.mp3
AudioLeadIn: 1015
PreviewTime: 9237
Countdown: 0
SampleSet: Soft
StackLeniency: 0.5
Mode: 0
LetterboxInBreaks: 0

[Editor]
DistanceSpacing: 1
BeatDivisor: 4
GridSize: 8

[Metadata]
Title:Dreams Can Be
Artist:Cooler Kids
Creator:Zekira
Version:Normal
Source:Monster Rancher 4
Tags:Frionel Mateus

[Difficulty]
HPDrainRate:4
CircleSize:3
OverallDifficulty:4
ApproachRate:4
SliderMultiplier:1.28
SliderTickRate:2

[Events]
//Background and Video events
0,0,"shot.jpg"
Video,0,"MR4_xvid.avi"
//Break Periods
2,20992,23028
//Storyboard Layer 0 (Background)
//Storyboard Layer 1 (Fail)
//Storyboard Layer 2 (Pass)
//Storyboard Layer 3 (Foreground)
//Storyboard Sound Samples
//Background Colour Transformations
3,100,163,162,255

[TimingPoints]
3015,444.444444444444,4,2,0,70,1,0
81234,-80,4,2,0,70,0,1
95456,-117.647058823529,4,2,0,70,0,0
109678,-100,4,2,0,70,0,1
123900,-100,4,2,0,70,0,0

[Colours]
Combo1 : 21,215,36
Combo2 : 243,89,34
Combo3 : 112,196,193
Combo4 : 233,243,33

[HitObjects]
72,320,9459,1,0
72,256,9681,1,0
72,192,9903,2,0,B|64:104|144:64,2,128,0|2|0
200,192,11237,1,2
328,192,11681,2,0,B|336:104|256:64,2,128,2|2|0
64,368,13681,5,0
192,368,14126,1,8
320,368,14570,1,0
448,368,15015,1,8
384,256,15459,2,2,B|368:144|256:84|144:144|128:256,1,384,2|10
256,192,17237,12,4,20792
32,48,24348,5,0
48,176,24792,1,2
128,280,25237,1,0
232,352,25681,1,2
352,336,26126,2,2,B|240:288|208:192|240:96|352:48,1,384
480,48,27903,5,0
464,176,28348,1,2
384,280,28792,1,0
280,352,29237,1,2
144,336,29681,2,2,B|32:288|0:192|32:96|144:48,1,384
256,112,31459,5,0
352,192,31903,1,2
256,272,32348,1,0
160,192,32792,1,2
32,192,33237,1,0
80,144,33459,1,2
128,96,33681,1,0
32,192,34126,1,0
80,240,34348,1,2
128,288,34570,1,0
256,272,35014,5,0
160,192,35459,1,2
256,112,35903,1,0
352,192,36348,1,2
480,192,36792,1,0
480,256,37014,1,2
480,320,37237,1,0
480,192,37681,1,0
480,128,37903,1,2
480,64,38126,1,0
352,64,38570,5,0
224,64,39014,1,2
96,64,39459,1,0
96,320,40348,1,0
224,320,40792,1,2
352,320,41237,1,0
224,96,42126,6,0,B|184:24|96:8|16:40|-40:152|16:264|96:296|184:280|224:208,1,512,4|0
312,184,44348,1,8
312,184,44792,1,0
312,184,45237,1,8
256,296,45681,5,0
128,296,46126,1,0
128,296,46348,1,0
128,168,46792,1,0
128,40,47237,2,2,B|456:16|432:336,1,448,2|10
304,296,49237,6,0,B|176:296,1,128,0|8
267,205,50126,2,0,B|176:296,1,128,0|8
86,205,51014,2,0,B|176:295,1,128,0|8
49,296,51903,2,0,B|177:296,1,128,0|8
256,192,52792,5,0
280,64,53237,1,2
408,48,53681,1,0
384,304,54570,1,0
256,320,55014,1,2
128,304,55459,1,0
160,40,56348,2,0,B|160:272|255:308|352:272|352:40,1,512,4|0
464,104,58570,1,8
464,232,59014,1,0
360,304,59459,1,8
256,232,59903,5,0
136,280,60348,1,0
136,280,60570,1,0
56,176,61014,1,0
144,80,61459,2,2,B|432:16|464:360,1,448,2|10
328,320,63459,1,0
200,320,63903,1,8
200,192,64348,5,0
328,192,64792,1,8
328,64,65237,1,0
200,64,65681,1,8
200,192,66126,1,0
328,192,66570,1,8
144,368,67459,5,0
144,176,68126,1,2
144,176,68348,1,0
144,176,68570,2,0,B|248:312,3,128,2|2|0|0
0,192,70570,6,2,L|136:48|256:192|400:48|512:192,1,768,2|0
448,304,73681,1,8
320,304,74126,2,2,B|-80:352|112:24,1,512,2|0
240,40,76348,1,8
352,104,76792,1,8
408,224,77237,1,8
256,192,77681,12,4,79459
64,296,81014,5,0
64,296,81237,2,2,B|96:-16|488:96,2,479.999992847443
144,296,84126,1,0
224,296,84348,1,0
304,296,84570,6,0,B|368:240|352:128,1,159.999997615814,0|2
200,192,85459,2,0,B|213:102|149:46,1,159.999997615814,2|0
80,192,86348,1,0
8,336,86792,5,8
8,336,87014,1,8
8,336,87237,1,8
168,344,87681,5,2
248,344,87903,1,0
328,328,88126,1,2
400,288,88348,1,2
416,208,88570,2,2,B|448:16|216:32,1,319.999995231628,2|2
152,80,89681,1,0
152,160,89903,2,2,B|152:320,2,159.999997615814,2|2|0
360,272,91459,5,0
360,192,91681,2,2,B|360:32,2,159.999997615814,2|2|0
80,40,93459,5,4
40,104,93681,1,4
40,264,94126,5,4
80,328,94348,1,4
488,24,95459,6,2,B|552:360|112:248,1,543.999977302552,2|0
96,96,98348,1,0
208,96,98792,2,0,B|264:208,3,108.79999546051,0|2|2|0
144,192,100570,1,0
448,312,101903,5,0
448,200,102348,2,2,B|408:16|112:56,1,380.799984111787
88,152,104348,2,2,B|128:336|352:304,1,326.399986381531
344,200,106126,5,0
344,88,106570,1,2
456,88,107014,1,2
456,200,107459,1,0
400,296,107903,1,4
480,336,109681,5,0
464,208,110126,1,2
384,104,110570,1,0
280,32,111014,1,2
160,48,111459,2,2,B|272:96|304:192|272:288|160:336,1,384
32,336,113237,5,0
48,208,113681,1,2
128,104,114126,1,0
232,32,114570,1,2
368,48,115014,2,2,B|480:96|512:192|480:288|368:336,1,384
256,192,117014,5,2
256,192,117237,1,2
128,192,117681,2,2,B|128:80,2,96
256,192,118792,5,2
256,192,119014,1,2
384,192,119459,2,2,B|384:80,2,96
256,192,120570,5,2
256,192,120792,1,2
128,192,121237,2,2,B|128:304,2,96
256,192,122348,5,2
256,192,122570,1,2
384,192,123014,2,2,B|384:304,2,96
384,128,123903,1,4
