osu file format v14

[General]
AudioFilename: audio.mp3
AudioLeadIn: 0
PreviewTime: 11847
Countdown: 0
SampleSet: Soft
StackLeniency: 0.7
Mode: 0
LetterboxInBreaks: 0
WidescreenStoryboard: 0

[Editor]
Bookmarks: 64252
DistanceSpacing: 1.3
BeatDivisor: 4
GridSize: 4
TimelineZoom: 1

[Metadata]
Title:VAPE NATION Remix
TitleUnicode:VAPE NATION Remix
Artist:Cool Songs
ArtistUnicode:Cool Songs
Creator:Mapper
Version:Firetruck's Easy
Source:
Tags:trap h3h3productions 420 meme comedy youtube Firetruck
BeatmapID:1050018
BeatmapSetID:492231

[Difficulty]
HPDrainRate:3
CircleSize:2
OverallDifficulty:3
ApproachRate:2.5
SliderMultiplier:1.4
SliderTickRate:2

[Events]
//Background and Video events
0,0,"easy.jpg",0,0
//Break Periods
//Storyboard Layer 0 (Background)
//Storyboard Layer 1 (Fail)
//Storyboard Layer 2 (Pass)
//Storyboard Layer 3 (Foreground)
//Storyboard Sound Samples

[TimingPoints]
455,759.493670886076,4,2,1,60,1,0
12606,-100,4,2,2,70,0,1
23999,-100,4,2,2,60,0,0
36910,-100,4,2,2,70,0,1
37575,-100,4,2,1,70,0,1
37765,-100,4,2,2,70,0,1
40613,-100,4,2,1,70,0,1
40803,-100,4,2,2,70,0,1
42132,-100,4,2,1,70,0,1
42322,-100,4,2,2,70,0,1
43651,-100,4,2,1,70,0,1
43841,-100,4,2,2,70,0,1
46689,-100,4,2,1,70,0,1
46879,-100,4,2,2,70,0,1
49062,-100,4,2,2,60,0,0
54284,-100,4,2,1,60,0,0
54473,-100,4,2,2,60,0,0
55803,-100,4,2,1,60,0,0
55992,-100,4,2,2,60,0,0
57322,-100,4,2,1,60,0,0
57511,-100,4,2,2,60,0,0
61309,-100,4,2,2,30,0,0

[Colours]
Combo1 : 61,0,240
Combo2 : 0,215,0
Combo3 : 52,131,98
Combo4 : 193,0,234

[HitObjects]
56,156,455,6,0,B|119:171|119:171|192:155,1,140,14|10,0:0|0:0,0:0:0:0:
280,128,1594,1,8,0:0:0:0:
364,160,1973,2,0,P|386:226|357:288,1,140,10|10,0:0|0:0,0:0:0:0:
296,220,3113,1,8,0:0:0:0:
239,291,3492,6,0,P|167:306|101:288,1,140,10|10,0:0|0:0,0:0:0:0:
53,213,4632,1,8,0:0:0:0:
101,136,5011,2,0,B|88:96|108:56,2,70,10|8|10,0:0|0:0|0:0,0:0:0:0:
187,107,6151,1,8,0:0:0:0:
256,165,6530,6,0,P|239:233|256:304,1,140,10|10,0:0|0:0,0:0:0:0:
336,340,7670,1,8,0:0:0:0:
428,340,8049,1,10,0:0:0:0:
484,268,8429,1,8,0:0:0:0:
468,180,8809,2,0,L|466:105,1,70,10|8,0:0|0:0,0:0:0:0:
392,60,9568,5,10,0:0:0:0:
300,48,9948,2,0,P|232:68|156:60,1,140,8|8,0:0|0:0,0:0:0:0:
76,36,11087,1,10,0:0:0:0:
323,302,12606,6,0,B|352:312|380:302|380:302|408:292|428:304,2,105,4|0|0,1:2|1:0|1:0,0:0:0:0:
248,252,14125,1,0,0:0:0:0:
240,160,14505,2,0,P|204:152|160:160,1,70,0|8,1:0|1:0,0:0:0:0:
140,336,15644,6,0,P|89:350|29:330,2,105,0|0|0,1:0|1:0|1:0,0:0:0:0:
148,244,17163,1,0,0:0:0:0:
224,192,17543,2,0,B|257:174|299:194,1,70,0|8,1:0|1:0,0:0:0:0:
381,208,18303,1,0,1:0:0:0:
416,124,18682,6,0,P|426:74|414:18,2,105,0|0|0,1:0|1:0|1:0,0:0:0:0:
360,196,20201,1,0,0:0:0:0:
284,144,20581,1,0,1:0:0:0:
204,188,20961,1,8,1:0:0:0:
44,272,21720,6,0,B|32:325|32:325|53:376,2,105,0|0|0,1:0|1:0|1:0,0:0:0:0:
88,192,23239,2,0,P|144:160|223:165,1,140,0|2,0:0|0:0,0:0:0:0:
399,175,24758,6,0,P|412:112|364:40,1,140,4|10,0:0|0:0,0:0:0:0:
324,124,25898,1,2,0:0:0:0:
156,192,26657,2,0,L|227:191,1,70,0|8,0:0|0:0,0:0:0:0:
368,302,27796,6,0,P|296:316|224:296,1,140,4|10,0:0|0:0,0:0:0:0:
169,235,28936,2,0,B|156:168|156:168|173:97,1,140,2|2,0:0|0:0,0:0:0:0:
244,40,30075,1,8,0:0:0:0:
336,40,30455,1,2,0:0:0:0:
408,96,30834,6,0,B|424:165|424:165|411:232,1,140,4|10,0:0|0:0,0:0:0:0:
384,320,31973,1,2,0:0:0:0:
205,110,33113,1,8,0:0:0:0:
149,182,33492,1,2,0:0:0:0:
62,156,33872,6,0,P|38:92|70:16,1,140,4|10,0:0|0:0,0:0:0:0:
126,89,35011,1,2,0:0:0:0:
194,29,35391,2,0,P|214:97|181:163,1,140,2|10,0:0|0:0,0:0:0:0:
225,239,36530,1,2,0:0:0:0:
151,293,36910,6,0,P|76:236|76:116,1,210,4|10,0:0|0:0,0:0:0:0:
128,56,38429,1,0,0:0:0:0:
219,56,38809,1,2,0:0:0:0:
264,136,39189,2,0,B|302:206,1,70,8|2,0:0|0:0,0:0:0:0:
336,280,39948,6,0,P|274:344|161:339,1,210,4|2,0:0|0:0,0:0:0:0:
108,264,41467,1,0,0:0:0:0:
96,172,41847,2,0,P|104:108|164:48,1,140,2|2,0:0|0:0,0:0:0:0:
244,60,42986,6,0,P|287:151|248:252,1,210,4|2,0:0|0:0,0:0:0:0:
192,320,44505,1,0,0:0:0:0:
276,356,44885,1,2,0:0:0:0:
360,320,45265,2,0,L|348:236,1,70,8|2,0:0|0:0,0:0:0:0:
336,160,46024,6,0,P|356:64|467:40,1,210,4|2,0:0|0:0,0:0:0:0:
424,124,47543,1,2,0:0:0:0:
492,188,47923,1,2,0:0:0:0:
428,252,48303,1,10,0:0:0:0:
488,320,48682,1,2,0:0:0:0:
400,340,49062,6,0,P|329:361|260:326,1,140,4|8,0:0|0:0,0:0:0:0:
336,272,50201,2,0,P|344:200|314:136,1,140,2|0,0:0|1:0,0:0:0:0:
226,140,51341,1,8,0:0:0:0:
184,60,51720,2,0,P|220:52|268:60,1,70,0|0,1:0|0:0,0:0:0:0:
340,84,52480,5,0,1:0:0:0:
408,144,52860,2,0,B|448:216|403:283,1,140,8|0,0:0|0:0,0:0:0:0:
324,316,53999,2,0,P|261:335|188:320,1,140,0|0,1:0|1:0,0:0:0:0:
116,268,55138,1,0,0:0:0:0:
116,176,55518,6,0,P|168:136|242:125,1,140,0|0,1:0|1:0,0:0:0:0:
332,127,56657,1,0,0:0:0:0:
414,165,57037,2,0,P|361:213|283:203,1,140,0|0,1:0|1:0,0:0:0:0:
332,127,58176,6,0,B|326:70|283:39|238:39,1,140,0|0,1:0|1:0,0:0:0:0:
238,129,59315,1,0,1:0:0:0:
161,177,59695,1,0,0:0:0:0:
166,269,60075,2,0,L|103:323,2,70,0|2|2,1:0|0:0|0:0,0:0:0:0:
252,296,61214,5,4,0:0:0:0:
256,192,61404,12,0,64252,0:0:0:0:
