osu file format v14

[General]
AudioFilename: audio.mp3
AudioLeadIn: 0
PreviewTime: 11847
Countdown: 0
SampleSet: Soft
StackLeniency: 0.7
Mode: 0
LetterboxInBreaks: 0
WidescreenStoryboard: 0

[Editor]
DistanceSpacing: 1
BeatDivisor: 12
GridSize: 4
TimelineZoom: 1.3

[Metadata]
Title:VAPE NATION Remix
TitleUnicode:VAPE NATION Remix
Artist:Cool Songs
ArtistUnicode:Cool Songs
Creator:Mapper
Version:Vape Naysh Yall!
Source:
Tags:trap h3h3productions 420 meme comedy youtube Firetruck
BeatmapID:1048622
BeatmapSetID:492231

[Difficulty]
HPDrainRate:6
CircleSize:4
OverallDifficulty:6.4
ApproachRate:7.5
SliderMultiplier:2.8
SliderTickRate:2

[Events]
//Background and Video events
0,0,"easy.jpg",0,0
//Break Periods
//Storyboard Layer 0 (Background)
//Storyboard Layer 1 (Fail)
//Storyboard Layer 2 (Pass)
//Storyboard Layer 3 (Foreground)
//Storyboard Sound Samples

[TimingPoints]
455,759.493670886076,4,2,1,60,1,0
12606,-83.3333333333333,4,2,1,70,0,1
23999,-100,4,2,1,60,0,0
36910,-83.3333333333333,4,2,1,70,0,1
49062,-100,4,2,1,60,0,0
61309,-100,4,2,1,30,0,0

[Colours]
Combo1 : 61,0,240
Combo2 : 0,215,0
Combo3 : 52,131,98
Combo4 : 193,0,234

[HitObjects]
88,116,455,6,0,P|156:96|236:120,1,140,14|8,0:0|0:0,0:0:0:0:
280,152,1024,1,0,0:0:0:0:
336,196,1214,2,0,P|403:211|469:191,1,140,10|8,0:0|0:0,0:0:0:0:
436,128,1784,1,0,0:0:0:0:
404,64,1973,2,0,B|332:56|332:56|248:68,1,140,10|8,0:0|0:0,0:0:0:0:
196,84,2543,1,0,0:0:0:0:
154,143,2732,1,8,0:0:0:0:
173,211,2922,1,0,0:0:0:0:
236,244,3113,2,0,P|268:252|320:236,1,70,8|0,0:0|0:0,0:0:0:0:
368,212,3492,6,0,P|396:276|364:344,1,140,10|8,0:0|0:0,0:0:0:0:
300,348,4062,1,0,0:0:0:0:
232,328,4252,2,0,P|168:308|84:332,1,140,10|8,0:0|0:0,0:0:0:0:
52,268,4822,1,0,0:0:0:0:
72,200,5011,2,0,P|92:136|68:52,1,140,10|8,0:0|0:0,0:0:0:0:
144,48,5581,1,0,0:0:0:0:
192,100,5770,1,8,0:0:0:0:
256,68,5960,1,0,0:0:0:0:
308,116,6151,2,0,L|384:88,1,70,8|0,0:0|0:0,0:0:0:0:
440,120,6530,6,0,P|464:188|440:256,1,140,10|8,0:0|0:0,0:0:0:0:
376,272,7100,1,0,0:0:0:0:
312,240,7290,2,0,P|244:224|172:244,1,140,10|8,0:0|0:0,0:0:0:0:
116,280,7860,1,0,0:0:0:0:
60,236,8049,2,0,P|40:172|72:92,1,140,10|8,0:0|0:0,0:0:0:0:
116,60,8619,1,0,0:0:0:0:
181,37,8808,1,8,0:0:0:0:
250,42,8998,1,0,0:0:0:0:
312,76,9189,2,0,P|332:112|328:148,1,70,8|0,0:0|0:0,0:0:0:0:
300,204,9568,6,0,P|284:268|316:356,1,140,10|8,0:0|0:0,0:0:0:0:
372,360,10138,1,0,0:0:0:0:
440,336,10328,2,0,P|456:268|424:184,1,140,10|8,0:0|0:0,0:0:0:0:
400,140,10898,1,0,0:0:0:0:
195,35,11847,2,0,B|171:107|171:107|171:195,1,140,10|2,0:0|0:0,0:0:0:0:
116,328,12606,6,0,P|196:304|300:344,1,167.999994873047,4|0,1:2|0:0,0:0:0:0:
360,312,13176,1,0,1:0:0:0:
392,236,13366,2,0,P|404:196|392:148,1,83.9999974365235,8|0,1:0|0:0,0:0:0:0:
348,84,13746,2,0,P|268:108|180:80,1,167.999994873047,0|0,1:0|0:0,0:0:0:0:
112,120,14315,1,0,1:0:0:0:
140,200,14505,2,0,P|156:280|96:364,1,167.999994873047,0|8,1:0|1:0,0:0:0:0:
452,332,15644,6,0,B|432:252|432:252|448:148,1,167.999994873047,0|0,1:0|0:0,0:0:0:0:
396,100,16214,1,0,1:0:0:0:
320,132,16404,2,0,P|288:148|236:140,1,83.9999974365235,8|0,1:0|0:0,0:0:0:0:
180,84,16784,2,0,B|156:140|156:140|164:180|164:180|124:272,1,167.999994873047,0|0,1:0|0:0,0:0:0:0:
172,316,17353,1,0,1:0:0:0:
256,316,17543,2,0,P|336:296|428:328,1,167.999994873047,0|8,1:0|1:0,0:0:0:0:
464,156,18303,1,0,1:0:0:0:
424,80,18492,5,8,0:1:0:0:
424,80,18587,1,8,0:1:0:0:
424,80,18682,2,0,B|344:44|248:84,1,167.999994873047,0|0,1:0|0:0,0:0:0:0:
180,104,19252,1,0,1:0:0:0:
108,60,19442,2,0,P|96:104|104:144,1,83.9999974365235,8|0,1:1|0:0,0:0:0:0:
148,212,19822,2,0,B|204:280|204:280|300:312,1,167.999994873047,0|0,1:0|0:0,0:0:0:0:
356,268,20391,1,0,1:0:0:0:
404,336,20581,2,0,P|440:272|376:184,1,167.999994873047,0|8,1:0|1:0,0:0:0:0:
178,72,21530,5,0,0:0:0:0:
260,56,21720,2,0,B|276:120|276:120|220:232,1,167.999994873047,0|0,1:0|0:0,0:0:0:0:
185,282,22290,1,0,1:0:0:0:
244,344,22480,2,0,P|288:356|352:328,1,83.9999974365235,8|0,1:0|0:0,0:0:0:0:
400,308,22860,2,0,B|436:288|436:288|436:148,1,167.999994873047,0|0,1:0|0:0,0:0:0:0:
380,96,23429,1,0,1:0:0:0:
296,96,23619,6,0,L|268:24,2,55.9999982910157,0|0|0,1:0|0:0|0:0,0:0:0:0:
312,140,23999,1,2,0:0:0:0:
172,164,24379,1,10,0:0:0:0:
144,300,24758,6,0,P|208:280|288:304,1,140,4|2,0:0|0:0,0:0:0:0:
344,320,25328,1,2,0:0:0:0:
404,288,25518,2,0,P|420:260|416:208,1,70,10|0,0:0|0:0,0:0:0:0:
408,152,25898,1,2,0:0:0:0:
28,316,27037,5,8,0:0:0:0:
132,220,27417,1,2,0:0:0:0:
268,245,27796,6,0,P|220:284|232:368,1,140,4|2,0:0|0:0,0:0:0:0:
284,316,28366,1,2,0:0:0:0:
344,280,28556,2,0,P|356:248|344:204,1,70,10|0,0:0|0:0,0:0:0:0:
312,152,28936,2,0,B|256:128|256:128|164:136,1,140,2|0,0:0|0:0,0:0:0:0:
60,216,29695,2,0,P|36:284|56:364,1,140,2|8,0:0|0:0,0:0:0:0:
176,292,30455,1,2,0:0:0:0:
252,316,30644,5,8,0:0:0:0:
252,316,30739,1,8,0:0:0:0:
252,316,30834,2,0,P|316:296|396:324,1,140,4|2,0:0|0:0,0:0:0:0:
452,336,31404,1,2,0:0:0:0:
476,268,31594,2,0,P|484:232|472:188,1,70,10|0,0:0|0:0,0:0:0:0:
456,132,31973,1,2,0:0:0:0:
44,212,33113,5,8,0:0:0:0:
156,296,33492,1,0,0:0:0:0:
44,212,33872,6,0,P|40:148|104:87,1,140,4|2,0:0|0:0,0:0:0:0:
156,78,34442,1,2,0:0:0:0:
216,116,34632,2,0,P|252:123|305:107,1,70,10|0,0:0|0:0,0:0:0:0:
351,96,35011,2,0,P|385:90|419:97,1,70,2|0,0:0|0:0,0:0:0:0:
464,152,35391,5,2,0:0:0:0:
447,219,35580,1,0,0:0:0:0:
399,268,35770,1,2,0:0:0:0:
332,286,35960,1,0,0:0:0:0:
264,270,36151,2,0,P|228:263|179:279,1,70,10|0,0:0|0:0,0:0:0:0:
128,290,36530,2,0,P|93:296|59:289,1,70,2|0,0:0|0:0,0:0:0:0:
96,212,36910,6,0,P|172:176|264:196,1,167.999994873047,4|2,0:0|0:0,0:0:0:0:
336,196,37480,1,2,0:0:0:0:
408,152,37670,2,0,P|416:109|401:57,1,83.9999974365235,10|0,0:0|0:0,0:0:0:0:
334,29,38049,2,0,P|294:21|234:45,1,83.9999974365235,2|0,0:0|0:0,0:0:0:0:
180,76,38429,5,0,0:0:0:0:
96,92,38618,1,0,0:0:0:0:
20,52,38809,2,0,P|8:104|32:148,1,83.9999974365235,2|0,0:0|0:0,0:0:0:0:
52,208,39189,1,8,0:0:0:0:
116,260,39378,1,0,0:0:0:0:
200,252,39568,2,0,P|236:232|288:232,1,83.9999974365235,2|0,0:0|0:0,0:0:0:0:
360,244,39948,6,0,P|416:204|403:106,1,167.999994873047,4|2,0:0|0:0,0:0:0:0:
348,56,40518,1,2,0:0:0:0:
271,86,40708,2,0,P|230:95|174:77,1,83.9999974365235,10|0,0:0|0:0,0:0:0:0:
108,72,41087,2,0,P|118:119|92:180,1,83.9999974365235,2|0,0:0|0:0,0:0:0:0:
84,232,41467,5,0,0:0:0:0:
144,292,41656,1,0,0:0:0:0:
228,272,41847,2,0,P|269:257|322:265,1,83.9999974365235,2|0,0:0|0:0,0:0:0:0:
388,292,42227,1,8,0:0:0:0:
472,292,42416,1,0,0:0:0:0:
432,216,42606,2,0,P|425:175|439:112,1,83.9999974365235,2|0,0:0|0:0,0:0:0:0:
464,56,42986,6,0,B|403:37|403:37|288:48,1,167.999994873047,4|2,0:0|0:0,0:0:0:0:
216,56,43556,1,2,0:0:0:0:
152,4,43746,2,0,P|132:44|136:84,1,83.9999974365235,10|0,0:0|0:0,0:0:0:0:
159,165,44125,2,0,P|155:209|131:241,1,83.9999974365235,2|0,0:0|0:0,0:0:0:0:
68,296,44505,5,0,0:0:0:0:
144,328,44694,1,0,0:0:0:0:
218,295,44885,2,0,P|257:284|305:292,1,83.9999974365235,2|0,0:0|0:0,0:0:0:0:
379,315,45265,1,8,0:0:0:0:
420,244,45454,1,0,0:0:0:0:
423,157,45644,1,2,0:0:0:0:
375,89,45833,1,0,0:0:0:0:
411,15,46024,6,0,P|455:93|404:168,1,167.999994873047,4|2,0:0|0:0,0:0:0:0:
343,185,46594,1,2,0:0:0:0:
258,156,46784,2,0,P|219:167|166:149,1,83.9999974365235,10|0,0:0|0:0,0:0:0:0:
119,95,47163,2,0,P|107:54|118:14,1,83.9999974365235,2|0,0:0|0:0,0:0:0:0:
192,54,47543,6,0,B|232:63|232:63|297:52,1,83.9999974365235,2|0,0:0|0:0,0:0:0:0:
355,31,47923,2,0,B|397:23|397:23|437:32,1,83.9999974365235,2|0,0:0|0:0,0:0:0:0:
512,71,48303,1,10,0:0:0:0:
500,88,48682,1,10,0:0:0:0:
423,122,48872,1,10,0:0:0:0:
490,171,49062,5,4,0:0:0:0:
392,272,49442,2,0,P|320:260|244:288,1,140,0|8,1:0|0:0,0:0:0:0:
128,332,50201,2,0,L|90:300,1,35,2|0,0:0|0:0,0:0:0:0:
76,136,50771,1,0,0:0:0:0:
140,104,50961,2,0,P|208:92|284:124,1,140,0|8,1:0|0:0,0:0:0:0:
296,256,51720,2,0,B|308:296|308:296|352:340,1,70,0|0,1:0|0:0,0:0:0:0:
384,360,52100,5,0,0:0:0:0:
460,244,52480,2,0,P|485:177|458:102,1,140,0|8,1:0|0:0,0:0:0:0:
328,88,53239,2,0,L|364:66,1,35,2|0,0:0|0:0,0:0:0:0:
184,100,53809,1,0,0:0:0:0:
136,152,53999,2,0,P|155:210|126:284,1,140,0|8,1:0|0:0,0:0:0:0:
261,325,54758,1,0,1:0:0:0:
339,336,54948,5,8,0:0:0:0:
339,336,55043,1,8,0:0:0:0:
339,336,55138,1,0,0:0:0:0:
248,228,55518,2,0,B|234:185|234:185|235:80,1,140,0|8,1:0|0:0,0:0:0:0:
364,36,56277,2,0,L|329:31,1,35,2|0,0:0|0:0,0:0:0:0:
408,188,56847,1,0,0:0:0:0:
464,144,57037,2,0,P|480:200|412:260,1,140,0|8,1:0|0:0,0:0:0:0:
300,312,57796,2,0,P|267:320|210:294,1,70,0|0,1:0|0:0,0:0:0:0:
176,268,58176,5,0,1:0:0:0:
328,120,58746,1,0,1:0:0:0:
261,97,58936,1,0,1:0:0:0:
260,236,59315,5,0,1:0:0:0:
465,185,59885,1,0,1:0:0:0:
394,182,60075,2,0,L|392:118,2,46.6666666666667,0|0|0,1:0|0:0|0:0,0:0:0:0:
394,228,60455,2,0,B|394:304|394:304|356:316|340:360,1,140,2|2,0:0|0:0,0:0:0:0:
260,236,61214,5,4,0:0:0:0:
256,192,61309,12,0,64252,0:0:0:0:
