osu file format v14

[General]
AudioFilename: audio.mp3
AudioLeadIn: 0
PreviewTime: 11847
Countdown: 0
SampleSet: Soft
StackLeniency: 0.7
Mode: 0
LetterboxInBreaks: 0
WidescreenStoryboard: 0

[Editor]
DistanceSpacing: 1
BeatDivisor: 4
GridSize: 4
TimelineZoom: 1

[Metadata]
Title:VAPE NATION Remix
TitleUnicode:VAPE NATION Remix
Artist:Cool Songs
ArtistUnicode:Cool Songs
Creator:Mapper
Version:Normal
Source:
Tags:trap h3h3productions 420 meme comedy youtube Firetruck
BeatmapID:1048623
BeatmapSetID:492231

[Difficulty]
HPDrainRate:4
CircleSize:3
OverallDifficulty:4
ApproachRate:5
SliderMultiplier:2
SliderTickRate:2

[Events]
//Background and Video events
0,0,"easy.jpg",0,0
//Break Periods
//Storyboard Layer 0 (Background)
//Storyboard Layer 1 (Fail)
//Storyboard Layer 2 (Pass)
//Storyboard Layer 3 (Foreground)
//Storyboard Sound Samples

[TimingPoints]
455,759.493670886076,4,2,1,60,1,0
12606,-100,4,2,2,70,0,1
23999,-100,4,2,2,60,0,0
36910,-100,4,2,2,70,0,1
49062,-100,4,2,2,60,0,0
61309,-100,4,2,2,30,0,0

[Colours]
Combo1 : 61,0,240
Combo2 : 0,215,0
Combo3 : 52,131,98
Combo4 : 193,0,234

[HitObjects]
364,100,455,6,0,P|400:192|372:288,1,200,14|10,0:0|0:0,0:0:0:0:
276,312,1594,1,8,0:0:0:0:
192,260,1973,2,0,P|136:268|88:252,1,100,10|8,0:0|0:0,0:0:0:0:
56,164,2733,2,0,P|48:116|60:64,1,100,8|8,0:0|0:0,0:0:0:0:
152,28,3492,6,0,B|216:48|216:48|280:40|280:40|356:64,1,200,10|10,0:0|0:0,0:0:0:0:
446,57,4632,1,8,0:0:0:0:
392,140,5011,2,0,P|380:188|396:244,1,100,10|8,0:0|0:0,0:0:0:0:
328,312,5771,2,0,P|272:324|212:300,1,100,8|8,0:0|0:0,0:0:0:0:
147,255,6530,6,0,B|171:191|171:191|135:63,1,200,10|10,0:0|0:0,0:0:0:0:
56,128,7670,1,8,0:0:0:0:
135,64,8049,2,0,P|183:76|239:56,1,100,10|8,0:0|0:0,0:0:0:0:
328,40,8809,2,0,P|375:26|423:38,1,100,8|8,0:0|0:0,0:0:0:0:
468,128,9568,6,0,P|376:160|268:120,1,200,10|10,0:0|0:0,0:0:0:0:
196,76,10708,1,8,0:0:0:0:
120,144,11087,2,0,B|92:200|92:200|152:248|160:328,1,200,10|10,0:0|0:0,0:0:0:0:
356,296,12606,6,0,P|336:224|368:144,1,150,4|0,1:2|1:0,0:0:0:0:
392,116,13366,1,8,1:0:0:0:
312,60,13746,2,0,P|240:80|170:56,1,150,0|0,1:0|1:0,0:0:0:0:
128,28,14505,1,0,1:0:0:0:
76,116,14885,2,0,B|60:168|60:168|80:232,1,100,8|0,1:0|0:0,0:0:0:0:
152,276,15644,6,0,P|224:256|332:304,1,150,0|0,1:0|1:0,0:0:0:0:
340,300,16404,1,8,1:0:0:0:
416,236,16784,2,0,P|396:172|436:76,1,150,0|0,1:0|1:0,0:0:0:0:
444,52,17543,1,0,1:0:0:0:
348,32,17923,1,8,1:0:0:0:
264,88,18303,2,0,L|228:160,1,50,0|8,1:0|0:1,0:0:0:0:
224,180,18682,6,0,P|212:252|248:340,1,150,0|0,1:0|1:0,0:0:0:0:
264,364,19442,1,8,1:0:0:0:
356,324,19822,2,0,P|384:252|356:156,1,150,0|0,1:0|1:0,0:0:0:0:
352,136,20581,1,0,1:0:0:0:
272,72,20961,2,0,B|224:80|224:80|152:64,1,100,8|0,1:0|0:0,0:0:0:0:
128,48,21530,1,0,0:0:0:0:
80,32,21720,6,0,P|56:104|80:184,1,150,0|0,1:0|1:0,0:0:0:0:
100,216,22480,1,8,1:0:0:0:
196,236,22860,2,0,P|244:248|312:220,1,100,0|0,1:0|0:0,0:0:0:0:
336,256,23429,1,0,1:0:0:0:
380,276,23619,2,0,P|425:263|480:276,1,100,0|2,0:0|0:0,0:0:0:0:
472,72,24758,6,0,B|426:61|426:61|374:73,1,100,4|2,0:0|0:0,0:0:0:0:
362,122,25328,1,2,0:0:0:0:
345,169,25518,1,10,0:0:0:0:
360,268,25898,1,2,0:0:0:0:
60,240,27037,2,0,P|52:192|68:136,1,100,8|2,0:0|0:0,0:0:0:0:
144,84,27796,6,0,P|192:76|248:88,1,100,4|2,0:0|0:0,0:0:0:0:
288,104,28366,1,0,0:0:0:0:
332,128,28556,1,10,0:0:0:0:
364,224,28936,1,2,0:0:0:0:
176,296,29695,2,0,P|164:244|192:180,1,100,2|8,0:0|0:0,0:0:0:0:
224,112,30455,1,2,0:0:0:0:
324,108,30834,6,0,P|368:104|424:120,1,100,4|2,0:0|0:0,0:0:0:0:
444,164,31404,1,0,0:0:0:0:
468,208,31594,1,10,0:0:0:0:
420,296,31973,1,2,0:0:0:0:
208,84,33113,2,0,P|264:72|320:92,1,100,8|2,0:0|0:0,0:0:0:0:
256,168,33872,6,0,B|264:220|264:220|252:276,1,100,4|2,0:0|0:0,0:0:0:0:
212,292,34442,1,0,0:0:0:0:
168,316,34632,1,10,0:0:0:0:
88,256,35011,1,2,0:0:0:0:
88,156,35391,2,0,P|116:116|176:104,1,100,2|2,0:0|0:0,0:0:0:0:
264,104,36151,2,0,P|311:90|339:50,1,100,10|2,0:0|0:0,0:0:0:0:
428,100,36910,6,0,B|456:192|456:192|432:304,1,200,4|10,0:0|0:0,0:0:0:0:
336,272,38049,1,2,0:0:0:0:
240,296,38429,2,0,P|192:308|128:280,1,100,0|2,0:0|0:0,0:0:0:0:
80,216,39189,2,0,P|72:168|96:108,1,100,8|2,0:0|0:0,0:0:0:0:
168,60,39948,6,0,B|264:80|264:80|380:52,1,200,4|10,0:0|0:0,0:0:0:0:
444,116,41087,1,2,0:0:0:0:
404,208,41467,2,0,P|392:260|408:316,1,100,0|2,0:0|0:0,0:0:0:0:
308,344,42227,2,0,P|256:332|200:352,1,100,8|2,0:0|0:0,0:0:0:0:
164,360,42796,1,0,0:0:0:0:
116,344,42986,6,0,B|100:256|100:256|132:128,1,200,4|10,0:0|0:0,0:0:0:0:
196,76,44125,1,2,0:0:0:0:
296,104,44505,2,0,P|320:152|308:216,1,100,0|2,0:0|0:0,0:0:0:0:
216,168,45265,2,0,P|192:120|204:56,1,100,8|2,0:0|0:0,0:0:0:0:
296,104,46024,6,0,B|340:160|308:224|308:224|344:216|392:232,1,200,4|10,0:0|0:0,0:0:0:0:
336,320,47163,1,2,0:0:0:0:
240,296,47543,2,0,P|192:284|132:308,1,100,2|2,0:0|0:0,0:0:0:0:
104,208,48303,1,10,0:0:0:0:
120,108,48682,1,2,0:0:0:0:
160,76,48872,1,2,0:0:0:0:
200,48,49062,6,0,P|268:72|356:44,1,150,4|0,0:0|0:0,0:0:0:0:
384,28,49822,1,8,0:0:0:0:
468,84,50201,1,2,0:0:0:0:
416,276,50961,2,0,P|372:288|300:264,1,100,0|8,1:0|0:0,0:0:0:0:
224,248,51720,1,0,1:0:0:0:
128,280,52100,6,0,B|104:240|104:240|116:116,1,150
120,88,52860,1,8,0:0:0:0:
212,48,53239,1,2,0:0:0:0:
368,172,53999,2,0,P|380:224|360:280,1,100,0|8,1:0|0:0,0:0:0:0:
280,320,54758,1,0,1:0:0:0:
232,308,54948,1,8,0:0:0:0:
192,276,55138,6,0,P|160:220|176:100,1,150
176,88,55898,1,8,0:0:0:0:
268,128,56277,1,2,0:0:0:0:
88,212,57037,2,0,P|80:260|96:312,1,100,0|8,1:0|0:0,0:0:0:0:
184,348,57796,1,0,1:0:0:0:
272,300,58176,6,0,P|320:256|328:172,1,150,0|0,1:0|1:0,0:0:0:0:
312,128,58936,1,0,1:0:0:0:
276,36,59315,2,0,P|228:84|224:168,1,150,0|0,1:0|1:0,0:0:0:0:
244,208,60075,1,0,1:0:0:0:
204,300,60455,2,0,B|156:288|156:288|72:308,1,100,2|2,0:0|0:0,0:0:0:0:
52,216,61214,5,4,0:0:0:0:
256,192,61404,12,0,64252,0:0:0:0:
