osu file format v7

[General]
AudioFilename: Full Metal Alchemist - Cool Joke - Undo (3er Opening).mp3
AudioLeadIn: 0
PreviewTime: 19431
Countdown: 1
SampleSet: Normal
StackLeniency: 0.7
Mode: 0
LetterboxInBreaks: 1

[Editor]
Bookmarks: 19444,31374,47514,65233,78917,99443,122777
DistanceSpacing: 0.699999988079071
BeatDivisor: 4
GridSize: 8

[Metadata]
Title:UNDO
Artist:Cool Joke
Creator:ztrot
Version:Normal
Source:Fullmetal Alchemist
Tags:Starrodkirby86

[Difficulty]
HPDrainRate:4
CircleSize:4
OverallDifficulty:5
SliderMultiplier:1.4
SliderTickRate:2

[Events]
//Background and Video events
0,0,"FMA.jpg"
//Break Periods
2,8601,13319
2,31561,36476
2,65245,66652
2,87701,94722
//Storyboard Layer 0 (Background)
//Storyboard Layer 1 (Fail)
//Storyboard Layer 2 (Pass)
//Storyboard Layer 3 (Foreground)
//Storyboard Sound Samples
//Background Colour Transformations
3,100,163,162,255

[TimingPoints]
3140,350.877192982456,4,1,1,50,1,0
8905,350.877192982456,4,1,1,50,1,0

[HitObjects]
64,56,3140,5,0
64,152,3490,1,0
160,152,3841,2,0,C|304:152,1,140,0|2
424,56,4543,5,0
424,152,4894,1,0
424,248,5245,2,0,C|248:248,1,140,0|2
288,344,5947,5,0
192,344,6297,1,0
192,248,6648,2,0,C|192:96,1,140,0|2
288,112,7350,5,0
384,112,7701,1,0
384,208,8052,2,0,C|384:360,1,140
456,64,14519,5,10
456,208,15045,1,0
360,208,15396,1,4
216,208,15922,5,8
72,208,16448,1,0
144,144,16799,1,4
288,144,17326,5,8
432,144,17852,1,4
360,72,18203,1,2
360,216,18729,1,12
192,336,19431,5,2
192,240,19782,1,2
192,144,20133,1,10
376,88,20834,5,2
376,184,21185,1,2
376,280,21536,1,10
184,328,22238,5,8
88,328,22589,1,0
88,232,22940,1,8
184,232,23290,1,0
184,136,23641,2,8,C|224:80|264:152,2,140,2|2|6
456,56,25747,5,10
256,56,26448,1,12
256,248,27150,1,8
352,248,27501,1,0
304,160,27852,1,14
104,160,28554,5,2
208,320,29255,1,10
328,160,29957,1,2
208,320,30659,1,10
104,160,31361,1,6
432,64,37676,5,10
336,64,38027,2,0,C|192:64,3,140,0|10|0|10
96,64,39431,1,0
96,160,39782,5,14
96,256,40133,1,2
96,352,40483,1,2
288,352,41185,5,8
424,208,41887,1,12
288,72,42589,1,4
288,168,42940,5,0
288,264,43290,1,8
200,216,43641,1,0
288,168,43992,1,8
96,160,44694,5,2
216,8,45396,1,4
344,168,46097,1,2
216,320,46799,1,4
344,168,47501,1,10
96,72,48904,5,8
192,72,49255,1,0
288,72,49606,1,8
448,184,50308,5,8
352,184,50659,1,0
256,184,51010,2,8,B|144:32|24:192,1,280,0|2
416,280,53115,5,2
416,184,53466,1,0
416,88,53817,2,8,C|136:88,1,280,8|12
320,312,55571,6,2,C|160:312,3,140
168,24,57676,5,10
168,112,58027,1,0
168,208,58378,2,8,C|200:272|224:200,2,140,2|0|2
256,192,59431,12,12,60834
416,128,61185,5,2
360,48,61536,1,8
304,128,61887,1,2
248,48,62238,5,8
144,152,62764,1,2
144,296,63290,1,8
72,224,63641,5,4
216,224,64168,1,10
360,224,64694,1,0
360,128,65045,1,12
472,48,67852,5,2
472,144,68203,1,2
472,240,68554,1,8
376,240,68904,2,0,C|232:240,3,140,0|10|10|10
236,144,70308,1,0
236,48,70659,1,8
236,240,71361,1,6
56,56,73817,5,0
56,152,74168,1,8
152,152,74519,1,0
152,248,74869,2,12,C|304:248,3,140,0|2|0|2
296,152,76273,5,2
88,152,76975,1,4
192,320,77676,1,2
392,320,78378,1,12
8,48,79431,5,2
104,48,79782,1,8
56,136,80133,2,0,C|56:280,3,140,2|8|2|8
154,276,81536,1,6
250,276,81887,5,8
248,128,82413,1,8
248,128,82589,1,4
40,32,83992,5,8
40,128,84343,1,0
40,224,84694,1,8
184,224,85220,1,8
232,224,85396,1,6
472,40,86448,5,2
472,136,86799,1,0
472,232,87150,1,0
376,232,87501,1,4
256,192,95922,5,4
256,192,96097,12,10,99431
64,56,99782,5,0
160,56,100133,1,8
400,56,100834,5,10
400,152,101185,1,2
400,248,101536,1,8
208,264,102238,5,2
208,168,102589,1,2
304,168,102940,2,8,C|448:168,2,140,0|2|8
304,168,103817,1,0
304,72,104168,1,6
160,256,105045,5,8
160,160,105396,1,2
160,64,105747,1,8
344,168,106448,1,14
224,344,107150,5,2
320,344,107501,1,2
416,344,107852,1,4
320,168,108554,1,8
120,168,109255,1,0
224,320,109957,1,4
384,64,110659,5,10
384,160,111010,1,2
384,256,111361,1,10
184,256,112062,5,10
184,160,112413,1,2
184,64,112764,1,10
376,64,113466,1,8
376,264,114168,1,4
176,264,114869,5,8
80,264,115220,1,8
80,168,115571,1,14
272,168,116273,5,2
272,264,116624,1,2
176,264,116975,1,8
176,120,117501,1,4
312,64,118027,1,8
312,160,118378,5,2
312,304,118905,1,8
440,232,119431,1,8
440,136,119782,1,4
312,64,120308,1,2
160,64,120834,5,8
104,144,121185,1,0
160,224,121536,1,8
112,312,121887,1,0
208,312,122238,1,10
304,312,122589,1,4
