osu file format v7

[General]
AudioFilename: Cool Joke - Undo.mp3
AudioLeadIn: 0
PreviewTime: 99446
Countdown: 0
SampleSet: Normal
StackLeniency: 0.6
Mode: 0
LetterboxInBreaks: 1

[Editor]
Bookmarks: 19446,31814,38042,47955,57365,67955,99446,128218,169786
DistanceSpacing: 0.800000011920929
BeatDivisor: 2
GridSize: 8

[Metadata]
Title:UNDO
Artist:Cool Joke
Creator:Teta268
Version:Medium
Source:Full Metal Alchemist
Tags:teara bmin11 fhatii-chan NoHItter

[Difficulty]
HPDrainRate:2
CircleSize:4
OverallDifficulty:3
SliderMultiplier:1
SliderTickRate:2

[Events]
//Background and Video events
0,0,"Konachan.com - 33421 alphonse_elric fullmetal_alchemist.jpg"
Video,0,"Fullmetal Alchemist_ Undo ( full ).avi"
//Break Periods
2,33670,36240
2,145951,150977
2,226652,230802
//Storyboard Layer 0 (Background)
//Storyboard Layer 1 (Fail)
//Storyboard Layer 2 (Pass)
//Storyboard Layer 3 (Foreground)
//Storyboard Sound Samples
//Background Colour Transformations
3,100,163,162,255

[TimingPoints]
8909,350.877192982456,4,1,0,71,1,0
100137,-100,4,1,0,71,0,1
128218,-100,4,1,0,71,0,0
186277,-200,4,2,0,71,0,0
197154,-100,4,1,0,71,0,0
198382,-100,4,1,0,71,0,1
226452,-100,4,1,0,71,0,0

[Colours]
Combo1 : 0,64,128
Combo2 : 128,128,255
Combo3 : 128,64,64
Combo4 : 128,0,128
Combo5 : 255,128,64

[HitObjects]
72,96,19435,1,0
147,68,19786,2,0,B|251:68,1,100,0|8
316,212,20838,2,0,B|316:316,1,100
248,272,21540,1,8
288,120,22242,6,0,L|399:119,3,100,0|0|0|0
387,199,23645,1,0
387,199,23821,1,8
387,279,24172,1,8
192,280,25049,6,8,L|248:280,4,50,0|0|0|0|0
112,280,26101,1,8
112,200,26452,2,0,L|112:136,1,50,8|8
192,150,26979,1,0
231,150,27154,1,8
232,232,27505,1,8
232,312,27856,2,0,L|288:312,1,50,0|8
408,312,28382,5,0
408,272,28558,1,8
408,192,28909,1,0
344,144,29259,2,2,L|288:144,1,50,0|8
232,192,29786,2,8,L|232:136,1,50,8|8
152,144,30312,1,8
112,216,30663,2,8,L|168:248,4,50,8|8|8|8|8
256,192,31716,12,0,33470
280,200,37680,5,0
360,200,38031,1,8
360,120,38382,1,0
280,120,38733,1,8
200,120,39084,1,0
120,120,39435,1,8
120,200,39786,2,0,B|224:200,1,100,0|8
304,200,40487,2,8,L|304:328|80:328|80:248,1,400
128,48,42944,5,0
208,48,43294,1,8
288,48,43645,1,0
368,48,43996,1,8
368,128,44347,1,0
448,128,44698,1,8
448,208,45049,2,0,L|384:312,1,100,0|8
315,293,45751,1,8
235,293,46101,2,8,L|75:293|75:37|259:37,1,600
416,48,48909,5,0
336,48,49259,1,8
336,128,49610,1,0
256,128,49961,2,0,L|152:208,1,100,8|0
96,188,50663,1,8
96,268,51014,2,0,B|216:308|280:316,1,150,0|8
280,309,51716,2,0,L|400:309|400:85,1,300,0|8
344,72,53119,5,0
344,152,53470,1,8
264,152,53821,1,0
264,232,54172,1,8
184,232,54523,2,0,L|184:312|80:312|80:184,1,300,0|0
440,192,56628,5,4
64,192,57680,5,8
64,192,57856,1,8
64,192,58031,1,8
136,224,58382,1,0
208,192,58733,1,0
208,192,58909,1,8
272,136,59259,1,12
320,32,59786,5,0
240,32,60137,1,8
160,32,60487,1,0
160,112,60838,1,8
160,192,61189,5,0
240,192,61540,1,8
320,192,61891,1,0
320,272,62242,2,0,B|176:272|176:272|176:336|176:336|320:336,1,300,8|0
350,336,63645,2,0,B|350:104|350:104|262:104,1,300,8|0
256,192,65049,12,4,67154
232,304,68207,5,0
184,240,68558,1,8
128,184,68909,1,0
128,104,69259,1,8
208,104,69610,1,0
272,144,69961,1,8
272,224,70312,1,0
352,224,70663,2,8,B|448:128,1,100
384,80,71365,2,8,B|296:232|184:32|160:304|64:224|40:112,1,400,8|0
48,328,73821,5,0
128,328,74172,1,8
208,328,74523,1,0
288,328,74873,1,8
368,328,75224,1,0
368,248,75575,1,8
368,168,75926,1,0
368,88,76277,1,8
440,184,76803,1,0
440,184,76979,1,8
256,192,77330,12,0,78733
256,296,79435,5,0
256,216,79786,1,8
256,136,80137,1,0
256,56,80487,1,8
176,56,80838,1,0
176,136,81189,1,8
96,136,81540,1,0
96,216,81891,1,8
216,216,82417,1,0
216,216,82593,1,8
480,40,83996,5,0
400,40,84347,1,0
320,40,84698,1,8
320,160,85224,1,0
320,160,85400,1,8
256,192,85751,12,0,86803
256,192,87505,5,0
336,192,87856,2,0,L|392:192,2,50,0|8|0
256,192,88558,1,0
176,192,88908,1,0
96,192,89259,2,0,L|96:128,2,50,0|8|0
96,272,89961,2,0,L|200:272,1,100,0|0
280,272,90663,6,0,L|432:272,1,150,8|0
432,232,91365,1,8
432,152,91716,1,0
352,152,92066,2,0,B|200:152,1,150,8|0
202,192,92768,2,0,B|338:192,1,100,8|0
256,64,93645,6,0,B|256:224,1,150
256,296,94523,1,8
376,296,95049,1,8
256,296,95575,6,0,L|256:120|80:120|80:320|192:320|192:248,1,700,8|0
456,64,99435,6,0,B|457:188,1,100
376,163,100137,1,8
248,104,100838,1,0
248,184,101189,2,8,B|344:232,1,100,0|8
360,72,102242,6,0,B|472:72,1,100
456,152,102944,2,0,B|352:152,1,100,0|8
356,232,103645,1,0
356,232,103821,1,8
276,232,104172,1,8
128,96,105049,6,8,B|88:88|72:128,4,50
176,160,106101,1,0
248,200,106452,1,0
248,200,106628,1,8
304,144,106979,1,0
304,144,107154,1,8
376,176,107505,1,8
376,256,107856,1,0
376,256,108031,1,8
296,256,108382,5,8
296,256,108558,1,0
216,256,108908,1,8
136,256,109259,1,8
136,256,109435,1,0
136,176,109786,1,0
256,168,110312,5,8
256,248,110663,2,0,B|144:304,1,100
166,212,111365,1,8
256,88,112066,1,0
175,88,112417,2,0,B|103:160,1,100,0|8
256,224,113470,5,0
336,224,113821,1,8
416,224,114172,1,0
416,144,114523,1,8
416,64,114873,1,0
416,64,115049,1,8
336,64,115400,1,8
136,80,116277,5,0
136,120,116452,1,0
136,160,116628,1,0
216,160,116979,1,0
296,160,117330,1,8
296,80,117680,1,0
296,80,117856,1,8
376,80,118207,5,0
376,80,118382,1,8
376,160,118733,1,8
376,240,119084,1,0
376,240,119259,1,8
304,336,119786,2,4,B|384:304|448:312|424:320,4,100
320,256,121540,5,0
320,176,121891,1,2
320,96,122242,1,2
320,176,122593,2,0,B|72:176|72:176|72:272,1,300
256,192,123821,12,0,126101
80,160,126628,6,0,B|80:256|208:256,1,150,8|8
256,256,127505,1,8
336,256,127856,1,8
336,176,128207,1,6
255,176,128558,6,0,B|255:72,3,100
335,76,129961,1,0
415,76,130312,1,0
415,156,130663,2,0,B|415:260,1,100
256,192,131540,5,0
256,192,131716,1,0
176,192,132066,1,0
176,112,132417,2,0,B|104:112,1,50
48,112,132944,1,8
48,192,133294,1,0
48,192,133470,1,8
272,192,134172,5,0
352,192,134523,1,0
432,192,134873,1,0
352,192,135224,2,0,B|352:320,2,100
352,112,136277,1,0
272,112,136628,1,0
152,112,137154,1,0
152,112,137330,1,8
152,272,138031,6,0,B|368:272,1,200
352,112,139435,1,0
224,192,140137,5,0
304,192,140487,1,0
384,192,140838,2,0,B|384:296,2,100
304,192,141891,1,0
224,192,142242,2,0,B|224:40,1,150
264,42,142944,1,0
256,192,144347,5,0
216,264,144698,1,0
296,264,145049,2,0,B|296:104,1,150
255,114,145751,1,0
408,272,152417,5,0
328,272,152768,2,0,B|328:144,1,100
247,172,153470,1,0
127,172,153996,2,0,B|127:332,1,150
207,322,154873,1,0
327,322,155400,1,0
327,202,155926,1,0
256,192,156277,12,0,158382
256,192,159084,5,0
176,192,159435,1,0
176,272,159786,1,8
256,272,160137,2,0,B|256:336,2,50
336,272,160838,1,0
336,192,161189,1,8
336,112,161540,6,0,B|272:112,2,50
416,112,162242,1,0
416,192,162593,1,8
416,272,162944,2,0,B|328:272,2,50
416,192,163645,1,0
336,192,163996,1,8
336,192,164172,1,8
256,280,164698,5,0
256,200,165049,1,0
256,120,165400,2,0,B|368:120,2,100
176,120,166452,1,0
176,200,166803,1,0
176,240,166979,1,0
176,280,167154,1,8
96,280,167505,5,0
96,200,167856,1,8
96,120,168207,2,0,B|208:120,1,100,0|8
272,120,168908,2,0,B|272:176,3,50,0|0|0|8
352,170,169786,1,8
256,312,170312,5,0
256,232,170662,1,8
176,232,171014,1,0
176,312,171365,1,8
96,312,171716,2,0,B|96:200,1,100,0|8
96,128,172417,1,0
136,128,172593,1,0
176,128,172768,1,8
256,128,173119,6,0,B|360:128,2,100,0|8|0
256,208,174172,1,8
256,288,174523,2,0,B|320:288,1,50
384,288,175049,1,8
384,208,175400,1,8
256,72,175926,5,0
256,152,176277,1,0
256,152,176452,1,8
256,232,176803,2,0,B|360:232,2,100,0|8|0
216,232,177680,1,8
136,232,178032,1,0
136,152,178382,1,8
216,152,178733,5,0
296,152,179084,1,0
336,152,179259,1,8
416,152,179610,2,0,B|416:256,1,100,0|8
335,252,180312,1,0
295,252,180487,1,8
214,252,180838,1,4
80,64,181540,5,0
160,64,181891,1,8
240,64,182242,1,0
320,64,182593,1,8
400,64,182944,2,0,B|400:272,1,200
320,264,183996,1,8
240,264,184347,5,0
160,264,184698,1,8
160,344,185049,1,0
160,344,185224,1,8
240,344,185575,1,0
280,344,185751,1,8
256,144,186452,6,0,B|312:144|312:224,1,100
240,256,187856,2,0,B|176:256|176:192,1,100
144,120,189259,2,0,B|256:120,2,100
136,192,191189,1,0
352,272,192066,6,0,B|432:288|416:208,2,100
272,272,194172,2,0,B|216:304|192:232,2,100
312,272,195926,1,0
312,232,196277,2,0,B|312:160,2,50
136,64,197680,6,0,B|136:176,1,100
136,248,198382,1,8
296,248,199084,2,0,B|192:248,1,100
196,328,199786,1,8
256,144,200487,5,0
336,144,200838,2,0,B|440:144,1,100
436,224,201540,1,8
352,224,201891,1,0
352,224,202066,1,8
272,224,202417,1,8
80,48,203294,5,8
120,48,203470,1,8
160,48,203645,1,8
160,88,203821,1,8
160,128,203996,2,0,B|264:128,1,100,0|8
340,128,204698,1,0
376,128,204873,1,8
376,208,205224,5,0
336,208,205400,1,8
256,208,205751,1,8
176,208,206101,1,0
136,208,206277,1,8
136,128,206628,5,0
175,128,206803,1,8
256,128,207154,2,0,B|360:128,1,100
356,168,207680,1,8
356,248,208031,1,8
160,192,208908,5,0
160,272,209259,2,0,B|256:312,1,100,0|8
344,192,210312,5,0
344,111,210663,2,0,B|240:63,1,100,0|8
256,320,211716,5,0
256,240,212067,1,0
256,160,212418,1,0
256,80,212769,1,0
176,80,213119,2,0,B|176:136,1,50,0|8
176,208,213645,1,8
376,200,214523,5,8
336,200,214698,1,8
296,200,214873,1,8
296,240,215049,1,8
296,280,215224,1,0
216,280,215575,1,8
216,200,215926,1,0
216,200,216101,1,8
136,200,216452,5,0
136,200,216628,1,8
136,120,216979,1,8
216,120,217330,1,0
216,120,217505,1,8
400,192,218031,5,4
320,192,218382,1,4
320,272,218733,1,4
240,272,219084,1,4
240,192,219435,1,4
240,112,219786,1,0
320,112,220137,1,8
240,112,220487,1,8
160,112,220838,5,8
160,192,221189,1,0
160,192,221365,1,8
160,272,221716,1,0
240,272,222066,1,8
320,272,222417,1,0
360,272,222593,1,8
360,192,222944,1,4
280,192,223294,1,4
200,192,223645,5,8
120,192,223996,1,0
120,232,224172,1,8
120,312,224523,1,0
200,312,224873,1,8
280,312,225224,1,0
280,272,225400,1,8
280,192,225751,2,4,B|392:192,2,100
400,56,232242,5,0
400,96,232417,1,8
320,96,232768,1,0
280,96,232944,1,0
240,96,233119,1,8
232,176,233470,1,0
232,216,233645,1,0
232,256,233821,1,0
232,296,233996,1,8
312,296,234347,1,0
352,296,234523,1,8
128,96,235049,5,0
128,136,235225,1,8
128,216,235576,1,0
128,256,235751,1,0
168,256,235927,1,8
248,256,236277,1,0
288,256,236453,1,0
328,256,236628,1,0
368,256,236803,2,0,B|368:112|192:112,1,250,0|4
