osu file format v7

[General]
AudioFilename: Cool Joke - Undo.mp3
AudioLeadIn: 0
PreviewTime: 99446
Countdown: 0
SampleSet: Soft
StackLeniency: 0.7
Mode: 1
LetterboxInBreaks: 1

[Editor]
Bookmarks: 8788,99446,128218
DistanceSpacing: 0.800000011920929
BeatDivisor: 4
GridSize: 8

[Metadata]
Title:UNDO
Artist:Cool Joke
Creator:Teta268
Version:Fhatii Taiko Futsuu
Source:Full Metal Alchemist
Tags:teara bmin11 fhatii-chan NoHItter

[Difficulty]
HPDrainRate:3
CircleSize:4
OverallDifficulty:4
SliderMultiplier:1.4
SliderTickRate:2

[Events]
//Background and Video events
0,0,"Konachan.com - 20812 fullmetal_alchemist scar.jpg"
Video,0,"Fullmetal Alchemist_ Undo ( full ).avi"
//Break Periods
2,32968,36360
//Storyboard Layer 0 (Background)
//Storyboard Layer 1 (Fail)
//Storyboard Layer 2 (Pass)
//Storyboard Layer 3 (Foreground)
//Storyboard Sound Samples
//Background Colour Transformations
3,100,163,162,255

[TimingPoints]
8909,350.877192982456,4,2,0,100,1,0
100148,-100,4,2,0,100,0,1
128218,-100,4,2,0,100,0,0

[Colours]
Combo1 : 0,64,128
Combo2 : 128,128,255
Combo3 : 128,64,64
Combo4 : 128,0,128
Combo5 : 255,128,64

[HitObjects]
256,184,3119,1,0
256,184,3470,1,0
256,184,3645,1,0
256,184,3821,1,0
256,184,4172,1,8
256,184,4523,1,0
248,184,4698,1,0
256,184,4873,1,0
256,184,5049,1,0
144,184,5224,1,0
256,184,5575,1,8
256,184,5926,1,0
248,184,6101,1,0
256,184,6277,1,0
256,184,6452,1,0
144,184,6628,1,0
256,184,6979,1,8
256,184,7330,1,0
248,184,7505,1,0
256,184,7680,1,0
256,184,7856,1,0
144,184,8031,1,0
256,184,8382,1,12
360,72,8908,1,0
368,144,9259,2,0,B|520:200|503:286|376:376,1,280
312,336,10312,1,0
312,336,10663,2,0,B|288:48,1,280
312,336,11716,1,0
312,336,12066,2,0,B|288:48,1,280
256,192,13119,5,8
256,192,13294,1,8
256,192,13470,1,8
272,256,13821,1,8
144,200,13996,1,8
176,288,14172,1,8
256,192,14523,1,0
256,192,14873,2,0,B|384:112|528:184,1,280
512,181,15926,1,0
512,232,16277,2,0,B|408:352|256:248,1,280
248,192,17330,1,0
248,192,17680,2,0,B|256:16,2,140
248,192,18733,1,4
248,192,19435,1,0
248,192,19786,1,0
248,192,20137,1,8
248,192,20663,1,0
248,192,20838,2,0,B|88:192,1,140
98,192,21540,1,8
248,192,22242,1,0
248,192,22593,1,0
248,192,22944,1,2
248,192,23294,1,0
248,192,23645,1,2
248,192,23821,1,0
248,192,24172,1,0
248,192,25049,1,0
256,240,25224,1,8
248,192,25400,1,0
248,192,25751,1,0
248,192,26101,1,0
248,192,26452,1,0
248,192,26628,1,8
248,192,26979,1,2
248,192,27154,1,0
248,192,27505,1,0
248,192,27856,1,8
248,192,28031,1,8
248,192,28558,1,0
248,192,28909,1,0
248,192,29259,1,0
248,192,29435,1,0
248,192,29786,1,0
248,192,29961,1,2
248,192,30312,1,2
248,192,30487,1,0
248,192,30838,1,8
416,192,31365,2,4,B|136:16|232:96|-16:352,1,560,4|4
256,208,37680,5,0
256,208,38031,1,2
256,208,38382,1,0
256,208,38733,1,2
256,208,39084,1,2
256,208,39435,1,0
256,208,39786,1,2
256,208,40312,1,0
264,184,40487,2,0,B|456:40|-32:184,1,420
256,200,42944,1,2
208,200,43294,1,2
160,208,43645,1,0
256,200,43996,1,2
256,200,44347,1,0
256,200,44698,1,2
256,200,45049,1,0
256,200,45400,1,8
256,200,45926,1,8
280,200,46101,2,0,B|-24:200,3,280
248,192,48908,1,2
248,192,49259,1,0
248,192,49610,1,2
248,192,49961,1,0
248,192,50312,1,2
248,192,50663,1,0
200,64,51014,1,0
248,192,51365,1,0
248,192,51540,1,0
424,192,51716,2,0,B|112:192,1,280
256,184,53119,1,0
256,184,53470,1,2
256,184,53821,1,2
256,184,54347,1,0
256,184,54523,1,8
256,184,55575,1,2
256,184,55926,1,2
256,184,56277,1,0
256,184,56628,1,4
80,192,57680,1,8
256,200,57856,1,0
256,200,58031,1,0
256,200,58382,1,0
256,200,58733,1,0
256,200,58908,1,8
256,200,59259,2,0,B|288:48|288:48|-48:192,1,490
240,192,61189,1,0
240,192,61540,1,0
240,192,61891,1,2
240,192,62242,1,0
240,192,62768,1,2
240,192,63294,1,2
240,192,63645,1,0
240,192,64172,1,2
240,192,64698,1,0
368,104,65049,2,0,B|400:280|400:280|64:304,1,490
256,192,68207,1,0
256,192,68558,1,2
256,192,68908,1,0
256,192,69259,1,2
256,192,69610,1,0
256,192,69961,1,2
256,192,70312,1,0
256,192,70663,1,0
256,192,71189,1,8
256,192,71365,2,0,B|416:352|-8:40,1,420
256,192,73821,1,2
256,192,74172,1,0
256,192,74523,1,0
256,192,74873,1,2
256,192,75224,1,0
256,192,75575,1,2
256,192,75926,1,8
256,192,76277,1,8
256,192,76803,1,8
256,192,76979,2,0,B|512:16,3,280
256,192,79435,1,0
256,192,79786,1,2
256,192,80137,1,0
256,192,80487,1,0
256,192,80838,1,2
256,192,81189,1,0
256,192,81540,1,2
256,192,81891,1,2
208,208,82417,1,8
256,192,82593,2,0,B|337:62|421:43|365:240|512:168|456:192|520:0,1,420
256,192,83996,1,0
256,192,84347,1,2
256,192,84698,1,2
256,192,85224,1,0
256,192,85400,1,8
256,192,86452,1,2
256,192,86803,1,2
256,192,87154,1,0
256,192,87505,1,4
256,192,88558,1,0
256,192,88733,1,0
256,192,88909,1,0
256,192,89259,1,0
256,192,89610,1,0
256,192,89786,1,2
208,144,90137,2,0,B|353:45|416:104|464:48|323:304|255:246|479:201|504:352,1,490
248,192,92066,1,0
248,192,92417,1,0
248,192,92768,1,2
248,192,93119,1,2
248,192,93645,1,0
248,192,94172,1,0
248,192,94523,1,0
248,192,95049,1,0
248,192,95575,1,8
448,320,95926,2,0,B|-48:16,2,560
256,192,99435,1,0
256,192,99786,1,0
256,192,100137,1,8
256,192,100838,1,0
256,192,101189,1,0
256,192,101540,1,8
256,192,102242,1,0
256,192,102593,1,0
256,192,102944,1,8
256,192,103294,1,0
256,192,103645,1,8
256,192,104172,1,8
256,192,105049,1,0
256,192,105400,1,0
256,192,105751,1,8
256,192,106101,1,0
256,192,106452,1,0
256,192,106628,1,8
256,192,107154,1,8
256,192,107505,1,0
256,192,107856,1,8
256,192,108031,1,0
256,192,108558,1,0
256,192,108909,1,0
256,192,109259,1,8
256,192,109610,1,8
256,192,109961,1,12
256,192,110663,1,0
256,192,111014,1,0
256,192,111365,1,8
256,192,112066,1,0
256,192,112417,1,0
256,192,112768,1,8
256,192,113470,1,0
256,192,113821,1,0
256,192,114172,1,8
256,192,114523,1,0
256,192,114873,1,8
256,192,115400,1,4
256,192,116277,1,0
256,192,116628,1,0
256,192,116979,1,8
256,192,117330,1,0
256,192,117680,1,8
256,192,117856,1,0
256,192,118382,1,8
256,192,118733,1,0
256,192,119084,1,8
256,192,119786,1,8
256,192,120137,1,0
256,192,120487,1,0
256,192,121189,1,8
256,192,121540,1,8
256,192,121891,1,0
256,192,122242,1,8
408,288,122593,2,4,B|416:40|416:40|-40:24|-40:16,1,700
248,184,125400,1,0
248,184,126101,1,8
248,184,126628,1,0
248,184,126979,1,8
248,184,127154,1,0
248,184,127505,2,4,B|96:184,2,140
