osu file format v7

[General]
AudioFilename: Cool Joke - Undo.mp3
AudioLeadIn: 0
PreviewTime: 99446
Countdown: 0
SampleSet: Normal
StackLeniency: 0.6
Mode: 0
LetterboxInBreaks: 1

[Editor]
Bookmarks: 128218,186463,197516
DistanceSpacing: 1.20000004768372
BeatDivisor: 4
GridSize: 8

[Metadata]
Title:UNDO
Artist:Cool Joke
Creator:Teta268
Version:Collaboration
Source:Full Metal Alchemist
Tags:teara bmin11 fhatii-chan NoHItter

[Difficulty]
HPDrainRate:5
CircleSize:4
OverallDifficulty:8
SliderMultiplier:1.6
SliderTickRate:1

[Events]
//Background and Video events
Video,0,"Fullmetal Alchemist_ Undo ( full ).avi"
0,0,"Konachan.com - 33432 fullmetal_alchemist.jpg"
//Break Periods
2,31565,36930
2,125600,127457
2,185951,197632
2,223494,231492
//Storyboard Layer 0 (Background)
//Storyboard Layer 1 (Fail)
//Storyboard Layer 2 (Pass)
//Storyboard Layer 3 (Foreground)
Sprite,Foreground,Centre,"tearasb.png",320,240 F,0,128042,128393,0,1 M,0,128218,,507,435 F,0,128393,236814,1 F,0,236814,241880,1,0
Sprite,Foreground,Centre,"bminsb.png",320,240 M,0,148,,123,438 F,0,148,498,0,1 F,0,498,128042,1 F,0,128042,128393,1,0
//Storyboard Sound Samples
//Background Colour Transformations
3,100,163,162,255

[TimingPoints]
8909,350.877192982456,4,1,0,50,1,0
96727,-100,4,1,0,50,0,0
97428,-100,4,1,0,40,0,0
98130,-100,4,1,0,30,0,0
98481,-100,4,1,0,20,0,0
98832,-100,4,1,0,30,0,0
100148,-100,4,1,0,50,0,1
125411,-100,4,1,0,50,0,0
127867,-100,4,2,0,50,0,0
181200,-50,4,2,0,50,0,0
198393,-100,4,2,0,50,0,1
223305,-100,4,2,0,50,0,0
236803,3000,4,2,0,51,1,0
237564,-100,4,1,0,50,0,0

[Colours]
Combo1 : 0,64,128
Combo2 : 128,128,255
Combo3 : 128,64,64
Combo4 : 128,0,128
Combo5 : 255,128,64

[HitObjects]
104,104,8908,1,0
64,224,9259,1,8
192,192,9610,1,0
256,176,9786,1,8
240,304,10137,1,8
304,288,10312,1,0
424,256,10663,1,8
368,144,11014,5,0
320,104,11189,2,0,B|256:64|184:88|152:112,1,160,8|0
167,102,11716,2,0,B|104:144|112:248,1,160,8|8
200,336,12417,1,0
264,336,12593,1,8
384,192,12944,5,0
376,128,13119,1,0
320,96,13294,1,0
264,128,13470,1,8
232,184,13645,1,0
200,128,13821,1,0
144,96,13996,1,0
88,128,14172,1,8
72,160,14259,1,0
88,192,14347,1,0
72,224,14435,1,0
88,256,14523,5,4
256,336,14873,1,0
320,336,15049,2,0,B|376:336|376:264,1,80,8|0
376,224,15400,2,0,B|376:168|320:168,1,80,0|8
272,200,15751,1,0
208,200,15926,5,0
208,136,16101,1,0
208,200,16277,1,8
208,136,16452,1,0
144,136,16628,1,0
88,168,16803,1,0
56,224,16979,2,0,B|64:328|192:312,1,160,8|0
224,344,17505,6,0,B|320:344,1,80,0|8
288,280,17856,2,0,B|400:280,1,80
400,224,18207,1,0
400,224,18382,1,8
256,192,18558,12,0,20137
472,128,20487,6,0,B|464:88|424:64,1,80,8|0
360,48,20838,1,0
256,192,21189,1,8
256,192,21540,1,0
40,256,21891,2,0,B|48:296|88:320,1,80,8|0
152,336,22242,5,0
120,112,22593,1,8
256,288,22944,1,0
216,72,23294,1,8
352,240,23645,1,0
352,240,23821,1,0
416,80,24172,2,0,B|304:48|280:160,1,160,0|8
288,200,24698,5,4
96,304,25049,1,0
96,240,25224,1,0
96,304,25400,1,8
96,240,25575,1,0
144,192,25751,6,0,B|112:120|112:120|184:64,2,160,0|8|0
208,192,26628,2,0,B|240:264|240:264|168:320,1,160
152,256,27154,6,0,B|120:184|120:184|192:128,2,160,8|0|8
152,256,28031,1,0
384,224,28382,5,0
384,160,28558,1,8
104,192,28909,1,0
392,192,29259,1,8
392,192,29435,1,0
288,64,29786,6,0,B|200:64,1,80,0|8
176,120,30137,1,0
216,176,30312,2,0,B|144:264,1,80,0|0
216,280,30663,1,8
200,304,30751,1,0
176,328,30838,1,0
112,328,31014,1,0
112,328,31189,1,0
112,328,31365,1,4
144,112,37680,5,0
160,240,38031,1,8
256,152,38382,1,0
160,240,38733,1,8
144,112,39084,1,0
240,24,39435,1,8
352,88,39786,2,0,B|432:104|432:104|464:192,1,160,0|8
400,208,40312,1,0
456,240,40487,2,0,B|429:313|429:313|349:329,2,160,0|8|0
400,208,41365,5,0
352,168,41540,1,8
296,128,41716,1,0
272,112,41803,1,0
248,128,41891,1,0
208,176,42066,1,0
160,136,42242,1,8
256,336,42593,5,4
72,248,42944,5,8
56,120,43294,1,0
168,56,43645,1,8
288,88,43996,1,0
416,56,44347,1,8
384,184,44698,2,0,B|424:240|424:240|384:264|384:264|408:304,1,160
280,320,45400,6,0,B|168:320|168:320|168:176,1,240
240,192,46101,2,0,B|240:64|240:64|104:64,1,240
64,64,46803,2,0,B|64:200|64:200|176:200,1,240
240,192,47505,2,0,B|240:64|240:64|104:64,1,240
136,128,48207,5,4
72,240,48558,2,0,B|96:320|96:320|176:320,1,160,0|0
272,240,49259,1,8
376,312,49610,2,0,B|440:256|440:256|440:160,1,160,0|0
328,240,50312,1,0
328,240,50663,1,8
328,112,51014,6,0,B|208:64|208:64|88:112,1,240
104,168,51716,2,0,B|208:216|208:216|336:168,1,240
424,80,52593,1,0
424,144,52768,1,8
424,272,53119,5,0
312,336,53470,1,8
184,336,53821,2,0,B|184:64,1,240
248,96,54523,1,0
136,160,54873,1,4
248,224,55224,1,4
256,192,55400,12,4,56628
384,120,56979,5,8
384,216,57154,1,0
384,216,57242,1,0
312,336,57505,1,0
232,280,57680,1,8
232,184,57856,1,0
312,128,58031,5,0
224,104,58207,1,0
144,160,58382,1,8
144,256,58558,1,0
144,256,58645,1,0
296,304,58908,2,0,B|392:304,2,80,0|8|0
336,216,59435,5,0
424,168,59610,2,0,B|424:72,1,80,0|8
336,56,59961,1,0
264,120,60137,1,0
264,120,60224,1,8
168,96,60400,1,0
168,96,60487,1,8
112,176,60663,1,0
152,264,60838,6,0,B|208:312,3,40,8|0|0|0
224,264,61189,2,0,B|256:296,4,40,8|0|0|0|0
320,288,61716,1,8
400,232,61891,1,4
152,80,62242,6,0,B|120:48,4,40
256,192,62768,1,8
152,304,62944,6,0,B|120:336,4,40
256,192,63470,1,8
384,192,63645,5,0
320,80,63821,1,0
384,192,63996,1,8
320,304,64172,1,0
320,304,64259,1,0
320,304,64347,1,0
256,192,64523,1,0
256,192,64698,1,8
112,88,65049,5,0
128,152,65224,1,0
112,216,65400,1,8
136,272,65575,1,0
184,312,65751,1,0
184,312,65838,1,0
248,312,66014,1,0
248,312,66101,1,8
304,280,66277,1,0
416,240,66452,5,0
424,176,66628,1,0
408,152,66716,1,0
392,128,66803,1,8
352,80,66979,1,0
296,48,67154,2,0,B|296:96,4,40,0|0|0|0|8
232,48,67680,1,0
176,88,67856,1,4
88,256,68207,6,0,B|160:304|256:304,1,160,8|0
272,248,68733,1,0
304,304,68908,2,0,B|400:304|464:232,2,160,8|0|8
312,72,69961,5,0
256,40,70137,1,0
200,72,70312,1,8
256,192,70663,1,0
256,192,71014,1,8
312,312,71365,1,0
256,344,71540,1,0
200,312,71716,1,8
104,192,72066,5,0
144,144,72242,1,8
320,40,72593,2,0,B|320:136,2,80,0|0|0
384,40,73119,1,8
456,144,73470,1,4
432,272,73821,6,0,B|368:320|248:296,3,160,8|0|8|0
168,240,75224,1,8
128,120,75575,1,0
232,48,75926,1,8
352,80,76277,6,0,B|416:176|416:176|368:296,1,240,4|0
344,352,76979,2,0,B|248:272|248:272|312:144,1,240
328,112,77680,2,0,B|80:112,1,240
72,208,78382,1,0
136,280,78558,1,8
232,304,78733,1,8
424,192,79084,5,4
336,56,79435,6,0,B|224:48|168:88,1,160,8|0
216,136,79961,1,0
180,80,80137,2,0,B|120:112|96:216,3,160,8|0|8|0
56,256,81365,1,0
96,304,81540,1,8
408,192,81891,5,0
104,192,82417,1,0
104,192,82593,1,0
184,88,82944,1,8
304,56,83294,5,0
304,56,83470,2,0,B|344:104|400:96|400:96|448:168,1,160,0|0
368,168,83996,2,0,B|424:256,2,80,0|0|8
256,320,84698,6,0,B|256:48,1,240
192,104,85400,1,0
320,144,85751,1,4
192,184,86101,1,4
408,192,86452,5,0
104,192,86803,1,0
408,192,87154,1,0
104,192,87505,5,0
104,96,87680,1,0
192,56,87856,1,8
288,56,88031,1,0
288,56,88119,1,0
240,136,88294,1,0
240,136,88382,1,0
328,168,88558,1,8
416,128,88733,1,0
416,224,88909,5,0
360,304,89084,1,0
264,304,89259,1,8
176,264,89435,2,0,B|128:288,1,40
88,200,89698,2,0,B|88:152,1,40
144,80,89961,2,0,B|192:40|256:80,2,80,8|0|0
184,168,90487,5,2
192,176,90575,1,2
200,184,90663,1,0
208,192,90751,1,0
216,200,90838,1,2
216,296,91014,1,10
120,296,91189,1,0
216,296,91365,1,2
120,296,91540,1,0
72,208,91716,5,10
72,112,91891,1,0
72,112,91979,1,0
72,112,92066,1,10
152,64,92242,1,0
152,64,92330,1,0
152,64,92417,1,10
248,80,92593,1,0
184,152,92768,2,0,B|136:184,4,40,10|0|0|0|6
368,192,93294,5,0
256,192,93470,1,8
368,192,93645,1,0
368,192,93733,1,0
256,192,93909,1,0
256,192,93996,1,0
256,288,94172,5,8
344,328,94347,1,0
256,288,94523,5,2
168,248,94698,1,0
168,136,94873,1,8
168,248,95049,1,0
168,248,95137,1,0
168,136,95312,1,0
168,136,95400,1,0
232,64,95575,1,8
328,72,95751,1,0
408,128,95926,5,4
448,216,96101,1,0
376,280,96277,1,0
288,312,96452,2,0,B|240:352,1,40
152,280,96803,5,0
96,224,96979,1,0
96,144,97154,2,0,B|96:96,1,40
256,40,97505,5,0
256,104,97680,1,0
256,168,97856,2,0,B|256:216,1,40
336,328,98207,5,0
416,272,98382,1,0
416,176,98558,2,0,B|416:112,9,40
128,80,100137,5,2
80,160,100312,1,0
152,216,100487,1,8
232,160,100663,1,0
240,152,100751,1,0
344,56,101014,2,0,B|408:80|432:120,1,80,0|8
416,192,101365,1,0
312,304,101540,5,2
216,304,101716,1,0
128,264,101891,1,8
176,184,102066,1,0
176,168,102154,1,0
88,56,102417,2,0,B|88:152,2,80,0|8|0
256,56,102944,5,2
344,88,103119,1,0
264,144,103294,1,8
264,240,103470,2,0,B|264:288,1,40
400,320,103821,1,0
400,224,103996,1,8
400,128,104172,1,0
256,192,104347,5,2
160,192,104523,1,0
256,192,104698,1,8
328,256,104873,1,0
328,256,104961,1,0
192,320,105224,1,0
112,264,105400,1,8
88,168,105575,6,0,B|72:104|72:104|120:88,1,80
96,96,105838,1,0
112,88,105926,1,2
200,40,106101,1,8
192,136,106277,1,0
192,136,106365,1,0
192,136,106452,1,2
280,96,106628,1,0
376,96,106803,1,8
448,160,106979,1,0
344,264,107154,6,0,B|376:304,2,40,2|0|0
280,192,107505,1,8
200,248,107680,2,0,B|152:288,2,40,2|0|0
128,184,108031,1,0
32,208,108207,1,8
56,112,108382,1,0
152,88,108558,5,2
152,88,108645,1,0
152,88,108733,1,0
248,64,108909,1,0
320,128,109084,2,0,B|320:80,2,40,2|0|0
376,208,109435,1,0
320,288,109610,1,8
264,208,109786,6,0,B|208:208,10,40
176,208,110838,5,0
320,208,111014,1,8
176,208,111189,1,0
320,208,111365,5,6
376,136,111540,1,0
296,80,111716,1,8
208,112,111891,1,0
208,112,111979,1,0
120,88,112154,1,0
120,88,112242,1,0
56,160,112417,1,8
56,256,112593,1,0
208,320,112768,5,2
304,320,112944,1,0
256,240,113119,1,8
256,144,113294,1,0
256,144,113382,1,0
256,48,113558,1,0
256,48,113645,1,0
344,88,113821,5,8
168,88,113996,1,0
344,192,114172,2,0,B|440:192,2,80,2|0|8
168,192,114698,1,0
168,192,114786,1,0
344,192,114961,1,0
344,192,115049,1,0
256,288,115224,1,8
256,192,115400,1,0
344,288,115575,5,2
168,288,115751,1,0
256,192,115926,1,8
256,88,116101,2,0,B|256:32,1,40
256,192,116365,2,0,B|256:248,1,40
352,216,116628,1,2
384,128,116803,6,0,B|384:80,2,40,0|0|8
440,208,117154,1,0
400,296,117330,2,0,B|400:352,2,40,2|0|0
304,272,117680,1,8
288,176,117856,1,0
224,104,118031,1,2
136,152,118207,5,0
144,248,118382,1,8
144,248,118470,1,0
144,248,118558,1,0
240,264,118733,1,2
288,176,118909,1,0
288,176,118996,1,0
288,176,119084,1,8
328,88,119259,1,0
328,88,119435,1,2
256,24,119610,5,0
256,24,119786,1,4
88,192,120137,1,4
256,360,120487,1,4
424,192,120838,1,4
88,192,121189,5,0
152,120,121365,1,0
216,192,121540,1,0
280,264,121716,1,0
344,192,121891,1,0
352,184,121979,1,0
360,176,122066,1,0
368,168,122154,1,0
376,160,122242,2,0,B|424:112,4,40
256,192,122768,12,4,125400
24,192,128207,5,4
24,192,128558,1,4
392,80,129259,5,0
200,80,129610,1,0
296,248,129961,1,0
392,80,130312,1,0
200,80,130663,1,0
296,248,131014,1,0
56,88,131540,1,0
56,88,131716,2,0,B|176:136|144:184|256:192|280:104|352:168,1,320
456,56,134172,5,0
456,248,134523,1,0
376,72,134873,1,0
376,264,135224,1,0
216,160,135575,1,0
80,296,135926,1,0
216,160,136277,1,0
32,96,136628,1,0
304,192,137154,5,0
304,192,137330,2,0,B|336:368|128:368|192:144,3,320,0|0|0|4
400,328,140137,5,0
400,136,140487,1,0
400,136,140838,1,0
208,136,141189,1,0
208,136,141540,1,0
208,328,141891,1,0
208,328,142242,1,0
320,64,142768,1,0
320,64,142944,2,0,B|336:240|176:224|176:16|-32:16|-32:232|88:208,1,480,0|4
200,320,144347,5,0
384,264,144698,1,0
200,208,145049,1,0
480,264,145575,1,0
384,264,145751,1,0
56,64,146452,5,4
56,64,146803,1,0
152,232,147154,1,0
56,64,147505,1,0
248,64,147856,1,4
456,208,148909,5,0
360,208,149084,1,0
408,120,149259,1,0
32,200,149961,1,0
32,296,150137,1,0
144,136,150487,2,0,B|8:136|8:0|408:0|360:160|208:160|208:160|208:307|208:307,1,560
448,272,152417,5,0
256,272,152768,1,0
344,104,153119,1,0
256,272,153470,1,0
256,272,153996,1,4
256,176,154172,1,4
256,176,154873,1,0
256,176,155400,1,0
256,176,155926,1,0
256,176,156277,2,0,B|248:304|104:336|64:-15|306:-89|464:104|392:248|320:351|216:375|152:344|80:256|119:144,1,800,0|4
256,32,158382,5,4
256,32,158558,1,4
64,248,159084,5,8
64,152,159259,1,0
160,152,159435,1,0
64,152,159610,1,0
128,224,159786,5,8
224,224,159961,1,0
224,128,160137,1,0
224,224,160312,1,0
160,152,160487,5,8
160,56,160663,1,0
256,56,160838,1,0
160,56,161014,1,0
224,128,161189,5,8
320,128,161365,1,0
320,32,161540,1,0
320,128,161716,1,0
320,224,161891,5,8
320,128,162066,1,0
224,128,162242,1,0
320,128,162417,1,0
256,200,162593,5,8
256,296,162768,1,0
352,296,162944,1,0
256,296,163119,1,0
320,224,163294,5,8
416,224,163470,1,0
416,128,163645,1,0
416,224,163821,1,0
352,160,163996,1,8
352,160,164172,5,12
160,160,164523,1,12
160,160,164698,5,0
296,296,165049,1,8
432,160,165400,1,0
432,160,165751,1,8
296,296,166101,1,0
152,296,166365,5,8
152,296,166452,1,8
152,200,166628,1,0
232,248,166803,1,0
232,56,167154,1,8
312,232,167505,1,0
312,88,167768,5,8
312,88,167856,1,8
408,64,168031,1,0
384,160,168207,1,0
192,160,168558,1,8
288,328,168909,1,0
152,288,169172,5,8
152,288,169259,1,8
56,288,169435,1,0
104,208,169610,5,0
104,208,169786,1,0
352,64,170312,5,8
256,40,170487,1,0
280,136,170663,1,0
256,40,170838,1,0
352,64,171014,6,0,B|448:64,1,80,8|0
376,144,171365,1,0
448,208,171540,1,0
472,112,171716,1,8
448,208,171891,1,0
376,144,172066,6,0,B|376:248,1,80
280,232,172417,1,8
336,312,172593,1,0
376,224,172768,1,0
280,232,172944,1,0
240,320,173119,1,8
184,240,173294,1,0
280,232,173470,1,0
224,152,173645,6,0,B|136:77|229:18,1,160,8|8
288,88,174172,6,0,B|351:182|266:243,1,160
224,152,174698,6,0,B|151:87|70:161,2,160,8|0|8
152,216,175575,1,4
312,320,175926,2,0,L|152:320,1,160,8|8
88,248,176452,2,0,L|248:248,1,160,8|8
248,152,176979,1,8
328,200,177154,1,0
328,104,177330,2,0,B|360:64|328:24,7,80,0|0|8|0|0|0|8|0
248,64,178733,5,0
152,64,178909,1,0
200,152,179084,1,8
152,64,179259,1,0
200,152,179435,6,0,B|200:240,1,80
104,240,179786,1,8
152,320,179961,1,0
248,320,180137,1,0
296,240,180312,1,0
344,320,180487,2,8,B|384:296|384:240,3,80,8|0|0|0
248,208,181189,5,8
368,160,181365,1,0
248,208,181540,1,4
376,232,181716,1,0
248,208,181891,1,12
352,288,182066,1,0
248,208,182242,1,4
304,320,182417,1,0
248,208,182593,1,12
240,336,182768,1,0
248,208,182944,1,4
176,312,183119,5,0
248,208,183294,1,12
136,264,183470,1,0
248,208,183645,1,4
120,200,183821,1,0
248,208,183996,1,12
136,136,184172,1,0
248,208,184347,1,4
184,96,184523,1,0
248,208,184698,1,12
344,208,184873,5,12
344,208,184961,1,0
344,208,185049,1,0
344,208,185137,1,12
344,208,185224,1,0
344,208,185312,1,0
344,208,185400,1,12
344,208,185751,5,4
256,192,198382,5,4
256,192,199084,5,8
64,192,199435,1,0
160,32,199786,1,8
448,192,200487,5,0
352,32,200838,1,0
256,192,201189,1,0
256,192,201540,1,0
256,192,201891,5,8
208,280,202066,1,8
304,280,202242,1,4
256,192,202593,5,8
456,40,203294,5,0
384,104,203470,1,0
320,40,203645,1,0
184,175,203996,1,8
320,40,204347,1,8
184,176,204698,1,8
256,352,205049,5,0
323,284,205224,1,0
256,216,205400,1,0
256,216,205751,1,8
64,216,206101,1,4
160,216,206277,1,4
447,216,206803,5,0
256,216,207154,1,0
360,56,207505,1,8
176,96,207856,1,8
256,144,208031,1,8
256,144,208909,5,8
256,336,209259,1,0
256,144,209610,1,8
256,144,210312,5,8
464,144,210663,1,0
256,144,211014,1,8
256,144,211716,5,8
48,144,212066,1,8
256,144,212417,1,8
256,272,212768,5,8
448,272,213119,1,0
352,272,213294,1,0
160,272,213645,1,8
160,272,214523,5,0
176,176,214698,1,2
240,248,214873,1,2
176,176,215049,1,2
272,152,215224,1,2
272,152,215575,5,0
176,320,215926,1,8
272,336,216101,1,8
272,336,216452,5,8
352,288,216628,1,8
352,288,216979,1,2
272,112,217330,1,8
368,112,217505,1,8
93,294,218031,5,4
274,112,218382,1,4
455,294,218733,1,4
274,112,219084,1,4
92,294,219435,1,4
349,294,219786,1,4
168,112,220137,1,4
423,112,220487,1,4
242,294,220838,1,4
256,192,220926,12,0,223294
256,192,232242,5,0
160,192,232417,1,4
352,192,232768,5,4
256,192,232944,1,0
160,192,233119,1,4
256,24,233470,5,4
256,120,233645,1,0
256,24,233821,1,0
256,120,233996,1,4
256,312,234347,5,0
256,216,234523,1,4
256,216,235049,5,0
336,168,235224,1,4
256,216,235575,5,0
184,152,235751,1,0
256,216,235926,1,4
256,24,236277,5,0
168,64,236452,1,0
184,152,236628,1,4
256,112,236803,2,4,C|296:136,1,40,0|4
